osu file format v14

[General]
AudioFilename: audio.mp3
AudioLeadIn: 0
PreviewTime: 118153
Countdown: 0
SampleSet: Soft
StackLeniency: 0.4
Mode: 0
LetterboxInBreaks: 0
WidescreenStoryboard: 1

[Editor]
Bookmarks: 0,44307,73846,88615,118153,132923,162461,177230,192000,236307,250769
DistanceSpacing: 0.8
BeatDivisor: 4
GridSize: 32
TimelineZoom: 2.1

[Metadata]
Title:Pixie Ft. Slyleaf
TitleUnicode:Pixie Ft. Slyleaf
Artist:yitaku
ArtistUnicode:yitaku
Creator:Sing
Version:Fairy
Source:
Tags:
BeatmapID:1943729
BeatmapSetID:930810

[Difficulty]
HPDrainRate:6
CircleSize:4
OverallDifficulty:8.8
ApproachRate:9.3
SliderMultiplier:2
SliderTickRate:0.5

[Events]
//Background and Video events
0,0,"pixie.jpg",0,0
//Break Periods
2,118467,132006
//Storyboard Layer 0 (Background)
//Storyboard Layer 1 (Fail)
//Storyboard Layer 2 (Pass)
//Storyboard Layer 3 (Foreground)
//Storyboard Layer 4 (Overlay)
//Storyboard Sound Samples

[TimingPoints]
0,307.692307692308,6,2,1,30,1,0
0,-500,6,2,1,30,0,0
7384,-333.333333333333,6,2,1,30,0,0
9230,-250,6,2,1,30,0,0
11076,-200,6,2,1,30,0,0
12923,-166.666666666667,6,2,1,30,0,0
14769,-133.333333333333,6,2,1,30,0,0
28769,-200,6,2,1,30,0,0
29076,-400,6,2,1,30,0,0
29538,-100,6,2,1,30,0,0
42461,-80,6,2,1,30,0,0
45000,-250,6,2,1,30,0,0
59076,-166.666666666667,6,2,1,30,0,0
66461,-125,6,2,1,30,0,0
74769,-100,6,2,1,30,0,0
86769,-333.333333333333,6,2,1,30,0,0
88615,-50,6,2,1,60,0,1
89846,-333.333333333333,6,2,1,30,0,0
90461,-50,6,2,1,60,0,1
91692,-166.666666666667,6,2,1,30,0,0
92307,-50,6,2,1,60,0,1
93538,-111.111111111111,6,2,1,30,0,0
94153,-50,6,2,1,60,0,1
95384,-66.6666666666667,6,2,1,60,0,1
95692,-100,6,2,1,60,0,1
96000,-50,6,2,1,60,0,1
97230,-333.333333333333,6,2,1,30,0,0
97846,-50,6,2,1,60,0,1
99076,-166.666666666667,6,2,1,30,0,0
99692,-50,6,2,1,60,0,1
100923,-333.333333333333,6,2,1,30,0,0
101230,-111.111111111111,6,2,1,30,0,0
101538,-50,6,2,1,60,0,1
102769,-66.6666666666667,6,2,1,60,0,1
103076,-100,6,2,1,60,0,1
103384,-200,6,2,1,30,0,0
103692,-50,6,2,1,60,0,1
111230,-133.333333333333,6,2,1,30,0,0
111692,-50,6,2,1,60,0,1
116307,-333.333333333333,6,2,1,30,0,0
132923,-100,6,2,1,30,0,0
134153,-250,6,2,1,30,0,0
135692,-100,6,2,1,30,0,0
141538,-250,6,2,1,30,0,0
143076,-100,6,2,1,30,0,0
148923,-200,6,2,1,30,0,0
150461,-100,6,2,1,30,0,0
156307,-166.666666666667,6,2,1,30,0,0
157846,-100,6,2,1,30,0,0
161538,-333.333333333333,6,2,1,30,0,0
176307,-250,6,2,1,30,0,0
176769,-200,6,2,1,30,0,0
177230,-66.6666666666667,6,2,1,30,0,0
188769,-80,6,2,1,30,0,0
189230,-100,6,2,1,30,0,0
189692,-133.333333333333,6,2,1,30,0,0
190153,-333.333333333333,6,2,1,30,0,0
191538,-100,6,2,1,30,0,0
192000,-40,6,2,1,60,0,1
192153,-50,6,2,1,60,0,1
192307,-66.6666666666667,6,2,1,60,0,1
192461,-33.3333333333333,6,2,1,60,0,1
192615,-40,6,2,1,60,0,1
192769,-50,6,2,1,60,0,1
193076,-66.6666666666667,6,2,1,60,0,1
193230,-100,6,2,1,60,0,1
193384,-100,6,2,1,60,0,0
193846,-40,6,2,1,60,0,1
194000,-50,6,2,1,60,0,1
194153,-66.6666666666667,6,2,1,60,0,1
194307,-33.3333333333333,6,2,1,60,0,1
194461,-40,6,2,1,60,0,1
194615,-50,6,2,1,60,0,1
194923,-66.6666666666667,6,2,1,60,0,1
195076,-100,6,2,1,60,0,1
195230,-100,6,2,1,60,0,0
195384,-200,6,2,1,60,0,0
195692,-40,6,2,1,60,0,1
195846,-50,6,2,1,60,0,1
196000,-66.6666666666667,6,2,1,60,0,1
196153,-33.3333333333333,6,2,1,60,0,1
196307,-40,6,2,1,60,0,1
196461,-50,6,2,1,60,0,1
196769,-66.6666666666667,6,2,1,60,0,1
196923,-100,6,2,1,60,0,1
197076,-100,6,2,1,60,0,0
197230,-66.6666666666667,6,2,1,60,0,0
197538,-40,6,2,1,60,0,1
197692,-50,6,2,1,60,0,1
197846,-66.6666666666667,6,2,1,60,0,1
198000,-33.3333333333333,6,2,1,60,0,1
198153,-40,6,2,1,60,0,1
198307,-50,6,2,1,60,0,1
198615,-66.6666666666667,6,2,1,60,0,1
198769,-100,6,2,1,60,0,1
198923,-100,6,2,1,60,0,0
199384,-40,6,2,1,60,0,1
199538,-50,6,2,1,60,0,1
199692,-66.6666666666667,6,2,1,60,0,1
199846,-33.3333333333333,6,2,1,60,0,1
200000,-40,6,2,1,60,0,1
200153,-50,6,2,1,60,0,1
200461,-66.6666666666667,6,2,1,60,0,1
200615,-100,6,2,1,60,0,1
200769,-100,6,2,1,60,0,0
201230,-40,6,2,1,60,0,1
201384,-50,6,2,1,60,0,1
201538,-66.6666666666667,6,2,1,60,0,1
201692,-33.3333333333333,6,2,1,60,0,1
201846,-40,6,2,1,60,0,1
202000,-50,6,2,1,60,0,1
202307,-66.6666666666667,6,2,1,60,0,1
202461,-100,6,2,1,60,0,1
202615,-100,6,2,1,60,0,0
202769,-133.333333333333,6,2,1,60,0,0
203076,-40,6,2,1,60,0,1
203230,-50,6,2,1,60,0,1
203384,-66.6666666666667,6,2,1,60,0,1
203538,-33.3333333333333,6,2,1,60,0,1
203692,-40,6,2,1,60,0,1
203846,-50,6,2,1,60,0,1
204153,-66.6666666666667,6,2,1,60,0,1
204307,-100,6,2,1,60,0,1
204461,-100,6,2,1,60,0,0
204615,-66.6666666666667,6,2,1,60,0,0
204923,-40,6,2,1,60,0,1
205384,-50,6,2,1,50,0,1
205846,-66.6666666666667,6,2,1,40,0,1
206307,-66.6666666666667,6,2,1,60,0,0
206769,-50,6,2,1,60,0,1
213692,-100,6,2,1,60,0,0
214153,-50,6,2,1,60,0,1
219692,-66.6666666666667,6,2,1,60,0,1
221076,-33.3333333333333,6,2,1,60,0,0
221230,-50,6,2,1,60,0,0
221384,-100,6,2,1,60,0,0
221538,-40,6,2,1,60,0,1
234923,-50,6,2,1,60,0,1
235384,-66.6666666666667,6,2,1,60,0,1
235846,-100,6,2,1,60,0,1
236307,-100,6,2,1,60,0,0

[Colours]
Combo1 : 95,230,91
Combo2 : 225,220,125
Combo3 : 170,231,152

[HitObjects]
101,27,0,6,0,P|148:34|177:96,1,120,2|2,0:0|0:3,0:0:0:0:
249,128,1230,2,0,P|232:147|224:163,1,40,2|2,0:0|0:0,0:0:0:0:
367,190,1846,6,0,P|337:227|269:221,1,120,2|2,0:0|0:3,0:0:0:0:
206,267,3076,2,0,P|198:242|188:227,1,40,2|2,0:0|0:0,0:0:0:0:
93,339,3692,6,0,P|75:294|114:238,1,120,2|2,0:0|0:3,0:0:0:0:
107,160,4923,2,0,P|131:165|149:164,1,40,2|2,0:0|0:0,0:0:0:0:
177,94,5538,6,0,P|208:85|250:55,1,80,2|2,0:0|0:0,0:0:0:0:
297,154,6461,2,0,P|328:163|370:193,1,80,2|2,0:3|0:0,0:0:0:0:
464,20,7384,6,0,P|443:59|453:190,1,179.999994506836,2|2,0:0|0:3,0:0:0:0:
414,257,8615,2,0,P|390:241|377:205,1,59.9999981689454,2|2,0:0|0:0,0:0:0:0:
307,170,9230,6,0,P|229:258|228:376,1,240,2|2,0:0|0:3,0:0:0:0:
296,344,10461,2,0,P|285:314|231:308,1,80,2|2,0:0|0:0,0:0:0:0:
218,214,11076,6,0,P|192:311|5:296,1,300,2|2,0:0|0:3,0:0:0:0:
67,251,12307,2,0,P|106:291|73:335,1,100,2|2,0:0|0:0,0:0:0:0:
119,180,12923,6,0,P|92:119|207:137,1,239.999992675781,2|2,0:0|0:0,0:0:0:0:
256,192,13846,1,2,0:3:0:0:
481,349,14769,6,0,B|412:381|331:339|413:292|322:252|206:272|186:365|310:403|362:360|425:277|364:188,1,450.000017166138,0|10,1:0|0:0,0:0:0:0:
411,135,15846,5,2,0:0:0:0:
424,141,16000,1,2,0:0:0:0:
434,151,16153,1,2,0:0:0:0:
442,163,16307,1,2,0:0:0:0:
447,177,16461,1,2,0:0:0:0:
376,212,16615,6,0,B|309:275|163:240|146:139|203:43|203:43|183:99|217:134,1,450.000017166138,0|10,1:0|0:0,0:0:0:0:
355,62,17692,5,2,0:0:0:0:
340,79,17846,1,2,0:0:0:0:
320,89,18000,1,2,0:0:0:0:
297,88,18153,1,2,0:0:0:0:
276,78,18307,1,2,0:0:0:0:
211,127,18461,6,0,B|118:26|-84:59|-38:246|78:267|156:159|81:82,1,450.000017166138,0|10,1:0|0:0,0:0:0:0:
169,203,19538,5,2,0:0:0:0:
157,230,19692,1,2,0:0:0:0:
156,260,19846,1,2,0:0:0:0:
168,287,20000,1,2,0:0:0:0:
193,301,20153,1,2,0:0:0:0:
354,332,20307,6,0,B|292:287|196:313|267:353|138:395|63:326,1,300.000011444092,0|0,1:0|1:0,0:0:0:0:
1,181,21230,2,0,P|23:217|35:260,1,75.0000028610231,10|2,0:0|0:0,0:0:0:0:
49,99,21538,5,2,1:2:0:0:
134,182,21692,1,2,0:0:0:0:
105,298,21846,1,2,1:2:0:0:
134,96,22000,5,2,1:2:0:0:
134,96,22076,1,0,1:0:0:0:
134,96,22153,2,0,B|200:50|274:84|231:137|325:170|407:84|407:84|360:149|390:223,1,450.000017166138,0|10,1:0|0:0,0:0:0:0:
484,362,23230,5,2,0:0:0:0:
454,339,23384,1,2,0:0:0:0:
418,327,23538,1,2,0:0:0:0:
380,325,23692,1,2,0:0:0:0:
345,338,23846,1,2,0:0:0:0:
388,220,24000,6,0,B|328:235|306:318|333:370|333:370|281:331|305:262,1,300.000011444092,0|0,1:0|1:0,0:0:0:0:
493,232,24923,5,10,0:0:0:0:
449,238,25076,1,2,0:0:0:0:
413,212,25230,1,2,0:0:0:0:
397,171,25384,1,2,0:0:0:0:
360,146,25538,1,2,0:0:0:0:
316,156,25692,1,2,0:0:0:0:
304,263,25846,6,0,B|352:256|400:290|394:401|263:422|160:333|210:224|210:224|193:261|158:278,1,450.000017166138,0|10,1:0|0:0,0:0:0:0:
91,49,26923,5,2,0:0:0:0:
140,66,27076,1,2,0:0:0:0:
171,108,27230,1,2,0:0:0:0:
163,159,27384,1,2,0:0:0:0:
127,197,27538,1,2,0:0:0:0:
164,274,27692,6,0,B|219:245|265:268|277:322|277:322|234:260|269:134|391:121|458:184,1,450.000017166138,0|2,1:0|0:0,0:0:0:0:
499,128,28769,6,0,P|493:100|496:76,1,50,2|2,0:0|0:0,0:0:0:0:
413,76,29076,6,0,P|414:63|420:52,1,25,2|2,0:0|0:0,0:0:0:0:
352,12,29384,5,2,0:0:0:0:
155,5,29538,6,0,P|163:54|177:102,1,100,0|2,1:0|0:3,0:0:0:0:
38,151,29846,2,0,P|58:105|83:62,1,100,2|2,0:3|0:3,0:0:0:0:
325,97,30153,2,0,P|283:69|245:36,1,100,2|2,0:3|0:3,0:0:0:0:
111,194,30461,5,10,0:0:0:0:
129,186,30615,1,2,0:0:0:0:
168,182,30769,1,2,0:0:0:0:
226,197,30923,1,2,0:0:0:0:
284,252,31076,1,2,0:0:0:0:
319,335,31230,1,2,0:0:0:0:
466,277,31384,6,0,P|397:276|354:260,1,100,0|2,1:0|0:3,0:0:0:0:
367,266,31615,1,2,0:3:0:0:
367,266,31692,1,2,0:3:0:0:
138,334,31846,2,0,P|186:321|236:323,1,100,2|2,0:3|0:3,0:0:0:0:
340,189,32153,1,2,0:3:0:0:
72,156,32307,5,10,0:0:0:0:
84,172,32461,1,2,0:0:0:0:
116,197,32615,1,2,0:0:0:0:
173,216,32769,1,2,0:0:0:0:
254,216,32923,1,2,0:0:0:0:
340,189,33076,1,2,0:0:0:0:
463,12,33230,6,0,P|476:58|483:134,1,100,0|2,1:0|0:3,0:0:0:0:
434,166,33461,1,2,0:3:0:0:
434,166,33538,1,2,0:3:0:0:
330,20,33692,1,2,0:3:0:0:
340,189,33846,2,0,P|346:139|359:91,1,100,2|2,0:3|0:3,0:0:0:0:
473,350,34153,5,10,0:0:0:0:
456,361,34307,1,2,0:0:0:0:
416,368,34461,1,2,0:0:0:0:
359,348,34615,1,2,0:0:0:0:
296,297,34769,1,2,0:0:0:0:
254,216,34923,1,2,0:0:0:0:
177,170,35076,6,0,P|107:200|48:202,1,100,0|2,1:0|0:3,0:0:0:0:
30,33,35307,1,2,0:3:0:0:
30,33,35384,2,0,P|100:3|159:1,1,100,2|2,0:3|0:3,0:0:0:0:
181,78,35692,2,0,B|75:89|157:117|7:120,1,150,2|0,1:3|0:0,0:0:0:0:
22,226,36000,5,10,0:0:0:0:
39,211,36153,5,2,0:0:0:0:
83,203,36307,5,2,0:0:0:0:
141,237,36461,5,2,0:0:0:0:
231,246,36615,5,2,0:0:0:0:
322,178,36769,5,2,0:0:0:0:
367,8,36923,6,0,P|361:73|367:126,1,100,0|2,1:0|0:3,0:0:0:0:
473,350,37230,2,0,P|479:285|473:232,1,100,2|2,0:3|0:3,0:0:0:0:
322,178,37538,1,2,0:3:0:0:
496,173,37692,1,2,0:3:0:0:
390,248,37846,5,10,0:0:0:0:
372,258,38000,1,2,0:0:0:0:
334,272,38153,1,2,0:0:0:0:
274,274,38307,1,2,0:0:0:0:
198,248,38461,1,2,0:0:0:0:
122,181,38615,1,2,0:0:0:0:
65,18,38769,6,0,P|74:85|77:146,1,100,0|2,1:0|0:3,0:0:0:0:
76,117,39000,1,2,0:3:0:0:
76,117,39076,1,2,0:3:0:0:
119,264,39230,2,0,P|110:331|107:392,1,100,2|2,0:3|0:3,0:0:0:0:
163,109,39538,1,2,0:3:0:0:
6,246,39692,5,10,0:0:0:0:
25,240,39846,1,2,0:0:0:0:
65,241,40000,1,2,0:0:0:0:
119,264,40153,1,2,0:0:0:0:
180,315,40307,1,2,0:0:0:0:
272,352,40461,1,2,0:0:0:0:
395,302,40615,6,0,P|472:297|511:302,1,100,0|2,1:0|0:3,0:0:0:0:
494,299,40846,1,2,0:3:0:0:
494,299,40923,1,2,0:3:0:0:
343,369,41076,1,2,0:3:0:0:
316,171,41230,2,0,P|266:173|216:168,1,100,2|2,0:3|0:3,0:0:0:0:
393,16,41538,5,10,0:0:0:0:
381,32,41692,1,2,0:0:0:0:
368,69,41846,1,2,0:0:0:0:
358,128,42000,1,2,0:0:0:0:
364,207,42153,1,2,0:0:0:0:
395,302,42307,1,2,0:0:0:0:
474,218,42461,6,0,P|475:144|466:76,1,125,0|0,1:0|0:0,0:0:0:0:
256,192,42769,2,0,B|273:104|239:159|260:27,1,125,0|0,1:0|0:0,0:0:0:0:
38,218,43076,2,0,P|37:144|46:76,1,125,0|0,1:0|0:0,0:0:0:0:
321,237,43384,5,10,0:0:0:0:
191,237,43538,1,2,0:0:0:0:
256,278,43692,5,2,1:2:0:0:
117,302,43846,5,2,0:0:0:0:
395,302,44000,1,2,1:2:0:0:
256,361,44153,5,2,1:2:0:0:
256,361,44230,1,0,1:0:0:0:
256,361,44307,1,2,1:2:0:0:
82,56,45000,6,0,P|70:89|67:122,1,60,0|2,0:0|0:3,0:0:0:0:
0,18,45461,2,0,P|27:74|50:191,1,180,0|2,0:0|0:0,0:0:0:0:
49,188,47076,1,2,0:3:0:0:
9,294,47692,6,0,P|40:291|71:282,1,60,0|0,0:0|0:0,0:0:0:0:
67,283,48000,2,0,P|119:296|170:355,1,120,2|0,0:0|0:0,0:0:0:0:
150,219,48923,2,0,P|202:205|253:146,1,120,2|0,0:3|0:0,0:0:0:0:
228,287,49846,2,0,P|268:323|286:398,1,120,2|0,0:0|0:0,0:0:0:0:
299,229,50769,6,0,B|353:229|411:149|373:62|309:80|320:142|394:162,1,240,2|2,0:3|0:0,0:0:0:0:
384,310,52615,5,2,0:3:0:0:
507,327,52846,2,0,P|456:327|327:383,1,180,0|2,0:0|0:0,0:0:0:0:
337,374,54461,1,2,0:3:0:0:
271,280,55076,6,0,P|278:254|308:222,1,60,0|0,0:0|0:0,0:0:0:0:
298,228,55384,2,0,P|256:244|167:236,1,120,2|0,0:0|0:0,0:0:0:0:
431,277,56307,2,0,P|479:311|512:361,1,120,2|0,0:3|0:0,0:0:0:0:
380,207,57230,2,0,P|385:147|412:94,1,120,2|0,0:0|0:0,0:0:0:0:
182,241,58153,6,0,P|169:196|128:184,1,80,2|0,0:3|0:0,0:0:0:0:
235,299,58615,2,0,P|267:265|257:223,1,80,0|0,0:0|0:0,0:0:0:0:
1,104,59076,6,0,P|35:110|63:123,5,59.9999981689454,8|2|2|2|2|2,1:0|0:3|0:3|0:3|0:3|0:3,0:0:0:0:
132,88,60000,5,2,0:3:0:0:
198,43,60153,2,0,P|227:89|79:229,1,299.999990844727,2|2,0:3|0:3,0:0:0:0:
25,291,61076,6,0,P|61:317|68:335,4,59.9999981689454,2|2|2|2|2,0:3|0:3|0:3|0:3|0:3,0:0:0:0:
130,375,61846,2,0,P|145:349|144:320,5,59.9999981689454,2|2|2|2|2|2,0:3|0:3|0:3|0:3|0:3|0:3,0:0:0:0:
313,267,62769,6,0,P|350:271|392:287,2,59.9999981689454,2|2|2,0:3|0:3|0:3,0:0:0:0:
443,314,63230,2,0,P|480:310|522:294,2,59.9999981689454,2|2|2,0:3|0:3|0:3,0:0:0:0:
276,195,63692,6,0,P|239:199|197:215,2,59.9999981689454,2|2|2,0:3|0:3|0:3,0:0:0:0:
146,242,64153,2,0,P|109:238|67:222,2,59.9999981689454,2|2|2,0:3|0:3|0:3,0:0:0:0:
331,144,64615,6,0,P|336:109|332:75,2,59.9999981689454,2|2|2,0:3|0:3|0:3,0:0:0:0:
420,48,65076,2,0,P|415:83|419:117,2,59.9999981689454,2|2|2,0:3|0:3|0:3,0:0:0:0:
254,107,65538,6,0,P|249:72|253:38,2,59.9999981689454,2|2|2,0:3|0:3|0:3,0:0:0:0:
165,11,66000,2,0,P|170:46|166:80,2,59.9999981689454,2|2|2,0:3|0:3|0:3,0:0:0:0:
92,126,66461,6,0,P|56:139|-3:150,5,80,2|2|2|2|2|2,0:3|0:3|0:3|0:3|0:3|0:3,0:0:0:0:
167,147,67384,5,2,0:3:0:0:
229,97,67538,2,0,B|326:112|418:242|410:343|410:343|386:292|345:276,1,400,2|2,0:3|0:3,0:0:0:0:
292,269,68461,6,0,P|276:312|279:355,4,80,2|2|2|2|2,0:3|0:3|0:3|0:3|0:3,0:0:0:0:
199,369,69230,2,0,P|183:326|186:283,5,80,2|2|2|2|2|2,0:3|0:3|0:3|0:3|0:3|0:3,0:0:0:0:
111,235,70153,6,0,P|74:260|34:258,2,80,2|2|2,0:3|0:3|0:3,0:0:0:0:
67,103,70615,2,0,P|88:137|125:153,2,80,2|2|2,0:3|0:3|0:3,0:0:0:0:
251,24,71076,6,0,P|214:-1|174:1,2,80,2|2|2,0:3|0:3|0:3,0:0:0:0:
207,155,71538,2,0,P|227:121|264:105,2,80,2|2|2,0:3|0:3|0:3,0:0:0:0:
386,212,72000,6,0,P|349:237|309:235,2,80,2|2|2,1:3|0:3|0:3,0:0:0:0:
342,80,72461,2,0,P|362:113|399:129,2,80,2|2|2,1:3|0:3|0:3,0:0:0:0:
469,246,72923,6,0,P|458:285|457:329,1,80,2|2,1:3|0:3,0:0:0:0:
460,167,73230,1,2,0:3:0:0:
314,236,73384,6,0,P|303:197|302:153,1,80,2|2,1:3|0:3,0:0:0:0:
275,359,73692,1,2,0:3:0:0:
214,111,73846,5,8,0:1:0:0:
198,113,74000,1,2,0:3:0:0:
182,115,74153,1,2,0:3:0:0:
165,115,74307,1,2,0:3:0:0:
149,112,74461,1,2,0:3:0:0:
135,102,74615,1,2,0:3:0:0:
62,139,74769,5,2,1:3:0:0:
166,21,74923,2,0,B|271:46|257:164|257:164|246:158|246:158|250:295|353:315,1,400,2|2,0:3|1:3,0:0:0:0:
493,224,75692,6,0,P|434:256|336:176,1,200,2|2,1:3|1:3,0:0:0:0:
274,246,76153,2,0,P|212:261|171:287,1,100,2|2,1:3|1:3,0:0:0:0:
256,161,76461,1,2,1:3:0:0:
113,370,76615,6,0,P|100:296|72:244,1,100,2|2,1:3|0:3,0:0:0:0:
22,247,76923,1,2,0:3:0:0:
150,204,77076,6,0,P|163:130|191:78,1,100,2|2,0:3|0:3,0:0:0:0:
241,81,77384,1,2,0:3:0:0:
454,18,77538,5,2,1:3:0:0:
448,37,77692,1,2,0:3:0:0:
446,56,77846,1,2,0:3:0:0:
447,75,78000,1,2,0:3:0:0:
451,94,78153,1,2,0:3:0:0:
459,112,78307,1,2,0:3:0:0:
396,166,78461,5,2,1:3:0:0:
500,222,78615,2,0,B|391:270|275:243|217:159|217:159|242:185|306:186,1,400,2|2,0:3|1:3,0:0:0:0:
314,23,79384,6,0,B|352:17|347:-45|273:-26|227:50|292:110,1,200,2|2,1:3|1:3,0:0:0:0:
133,205,79846,2,0,P|117:131|76:104,1,100,2|2,1:3|1:3,0:0:0:0:
201,262,80153,1,2,1:3:0:0:
322,173,80307,6,0,P|244:165|190:126,1,100,2|2,1:3|0:3,0:0:0:0:
187,384,80615,1,2,0:3:0:0:
427,320,80769,6,0,P|363:274|336:213,1,100,2|2,0:3|1:3,0:0:0:0:
315,380,81076,1,2,0:3:0:0:
486,98,81230,5,2,1:3:0:0:
459,112,81384,1,2,0:3:0:0:
442,136,81538,1,2,0:3:0:0:
435,164,81692,1,2,0:3:0:0:
441,194,81846,1,2,0:3:0:0:
452,221,82000,1,2,0:3:0:0:
500,299,82153,6,0,B|458:360|358:348|282:314|267:203|313:134|357:84|357:84|321:110|268:100,1,500,2|2,1:3|1:3,0:0:0:0:
107,20,83076,6,0,P|186:25|221:60,1,100,2|2,1:3|0:3,0:0:0:0:
233,176,83384,5,2,1:3:0:0:
276,244,83538,2,0,P|231:264|182:259,1,100,2|2,1:3|1:3,0:0:0:0:
166,113,83846,1,2,1:3:0:0:
18,339,84000,6,0,P|57:275|69:226,1,100,2|2,1:3|0:3,0:0:0:0:
12,68,84307,1,2,0:3:0:0:
138,299,84461,6,0,P|139:224|125:175,1,100,2|2,0:3|0:3,0:0:0:0:
62,148,84769,1,2,0:3:0:0:
233,176,84923,5,2,1:3:0:0:
270,164,85076,1,2,0:3:0:0:
309,172,85230,1,2,0:3:0:0:
339,198,85384,1,2,0:3:0:0:
375,215,85538,1,2,0:3:0:0:
414,207,85692,1,2,0:3:0:0:
484,52,85846,5,2,1:3:0:0:
494,293,86000,2,0,P|504:229|485:170,1,100,2|2,0:3|0:3,0:0:0:0:
427,340,86307,5,2,0:3:0:0:
343,23,86461,2,0,P|378:77|384:139,1,100,2|2,0:3|0:3,0:0:0:0:
291,354,86769,6,0,P|271:288|349:308,1,179.999994506836,0|0,0:0|0:0,0:0:0:0:
65,55,88615,6,0,P|23:94|6:169,1,100,6|0,1:0|0:0,0:0:0:0:
98,129,88769,2,0,P|100:186|147:247,1,100,2|0,0:1|0:0,0:0:0:0:
160,382,88923,6,0,P|118:343|101:268,1,100,2|0,0:1|0:0,0:0:0:0:
193,308,89076,2,0,P|195:250|242:189,1,100,2|0,0:1|0:0,0:0:0:0:
188,40,89230,6,0,P|180:96|216:165,1,100,2|0,0:1|0:0,0:0:0:0:
260,75,89384,2,0,P|299:117|374:134,1,100,2|0,0:1|0:0,0:0:0:0:
484,52,89538,5,8,0:1:0:0:
427,340,89846,6,0,P|390:324|359:316,1,59.9999981689454,2|2,0:0|0:0,0:0:0:0:
15,324,90461,6,0,P|105:329|145:272,1,100,6|0,1:0|0:0,0:0:0:0:
174,377,90615,2,0,P|211:344|223:296,1,100,2|0,0:1|0:0,0:0:0:0:
303,247,90769,6,0,P|393:242|433:299,1,100,2|0,0:1|0:0,0:0:0:0:
462,194,90923,2,0,P|499:226|511:274,1,100,2|0,0:1|0:0,0:0:0:0:
230,217,91076,6,0,P|247:156|238:96,1,100,2|0,0:1|0:0,0:0:0:0:
181,0,91230,2,0,P|164:61|173:121,1,100,2|0,0:1|0:0,0:0:0:0:
328,156,91384,5,8,0:1:0:0:
0,136,91692,6,0,P|10:178|8:208,1,59.9999981689454,2|0,0:0|0:0,0:0:0:0:
85,114,92000,2,0,P|81:157|96:219,1,89.9999972534181,2|0,0:0|0:0,0:0:0:0:
303,247,92307,6,0,P|269:275|214:281,1,100,6|0,1:0|0:0,0:0:0:0:
89,279,92461,2,0,P|117:320|163:339,1,100,2|0,0:1|0:0,0:0:0:0:
231,199,92615,6,0,P|193:176|168:126,1,100,2|0,0:1|0:0,0:0:0:0:
326,53,92769,2,0,P|297:93|295:142,1,100,2|0,0:1|0:0,0:0:0:0:
372,350,92923,6,0,P|364:306|387:255,1,100,2|0,0:1|0:0,0:0:0:0:
450,147,93076,2,0,P|401:151|362:182,1,100,2|0,0:1|0:0,0:0:0:0:
462,375,93230,5,8,0:1:0:0:
272,322,93538,6,0,P|232:360|152:319,1,134.999995880127,2|0,0:0|0:0,0:0:0:0:
154,262,93846,2,0,P|194:224|274:265,1,134.999995880127,2|0,0:0|0:0,0:0:0:0:
359,161,94153,6,0,P|364:204|395:270,1,100,6|0,1:0|0:0,0:0:0:0:
488,232,94307,2,0,P|483:189|452:123,1,100,2|0,0:1|0:0,0:0:0:0:
294,58,94461,6,0,P|289:101|258:167,1,100,2|0,0:1|0:0,0:0:0:0:
165,129,94615,2,0,P|170:86|201:20,1,100,2|0,0:1|0:0,0:0:0:0:
431,58,94769,6,0,B|369:28|268:75|329:117|251:178|151:121,1,300,2|0,1:0|0:0,0:0:0:0:
21,13,95076,6,0,P|41:47|40:120,1,100,8|0,0:1|0:0,0:0:0:0:
140,26,95230,2,0,P|147:64|121:133,1,100,0|0,0:0|0:0,0:0:0:0:
176,337,95384,6,0,P|187:301|185:264,1,75.0000028610231,2|0,0:0|0:0,0:0:0:0:
279,316,95538,2,0,P|277:279|263:245,1,75.0000028610231,2|0,0:0|0:0,0:0:0:0:
380,181,95692,6,0,P|373:205|359:226,1,50,2|0,0:0|0:0,0:0:0:0:
455,244,95846,2,0,P|439:263|418:277,1,50,2|0,0:0|0:0,0:0:0:0:
110,211,96000,6,0,P|81:187|18:227,1,100,6|0,1:0|0:0,0:0:0:0:
22,284,96153,2,0,P|51:308|114:268,1,100,2|0,0:1|0:0,0:0:0:0:
258,141,96307,6,0,P|229:165|166:125,1,100,2|0,0:1|0:0,0:0:0:0:
170,68,96461,2,0,P|199:44|262:84,1,100,2|0,0:1|0:0,0:0:0:0:
361,268,96615,6,0,P|332:244|269:284,1,100,2|0,0:1|0:0,0:0:0:0:
273,341,96769,2,0,P|302:365|365:325,1,100,2|0,0:1|0:0,0:0:0:0:
483,204,96923,5,8,0:1:0:0:
432,377,97230,6,0,P|433:346|448:308,1,59.9999981689454,2|2,0:0|0:0,0:0:0:0:
482,89,97846,6,0,P|449:135|378:146,1,100,6|0,1:0|0:0,0:0:0:0:
312,7,98000,2,0,P|343:53|329:124,1,100,2|0,0:1|0:0,0:0:0:0:
264,130,98153,6,0,P|221:105|172:109,1,100,2|0,0:1|0:0,0:0:0:0:
137,185,98307,2,0,P|157:229|148:278,1,100,2|0,0:1|0:0,0:0:0:0:
312,249,98461,6,0,P|271:210|223:224,1,100,2|0,0:1|0:0,0:0:0:0:
0,209,98615,2,0,P|41:248|89:234,1,100,2|0,0:1|0:0,0:0:0:0:
169,28,98769,5,8,0:1:0:0:
62,154,99076,6,0,P|57:122|45:97,1,59.9999981689454,2|0,0:0|0:0,0:0:0:0:
148,278,99384,2,0,P|136:235|140:178,1,89.9999972534181,2|0,0:0|0:0,0:0:0:0:
138,95,99692,6,0,P|196:127|257:131,1,100,6|0,1:0|0:0,0:0:0:0:
220,234,99846,2,0,P|278:202|339:198,1,100,2|0,0:1|0:0,0:0:0:0:
317,100,100000,6,0,P|281:67|258:23,1,100,2|0,0:1|0:0,0:0:0:0:
403,223,100153,2,0,P|367:256|344:301,1,100,2|0,0:1|0:0,0:0:0:0:
405,126,100307,6,0,P|391:78|393:29,1,100,2|0,0:1|0:0,0:0:0:0:
466,274,100461,2,0,P|452:322|454:372,1,100,2|0,0:1|0:0,0:0:0:0:
472,68,100615,5,8,0:1:0:0:
343,301,100923,6,0,P|341:318|340:333,1,29.9999990844727,2|0,0:0|0:0,0:0:0:0:
270,235,101230,6,0,P|265:310|246:394,1,134.999995880127,2|0,0:0|0:0,0:0:0:0:
105,279,101538,6,0,P|162:236|141:177,1,100,6|0,1:0|0:0,0:0:0:0:
270,235,101692,2,0,P|247:167|184:168,1,100,2|0,0:1|0:0,0:0:0:0:
121,1,101846,6,0,P|99:68|151:104,1,100,2|0,0:1|0:0,0:0:0:0:
13,134,102000,2,0,P|71:175|121:137,1,100,2|0,0:1|0:0,0:0:0:0:
225,159,102153,6,0,B|162:130|173:50|302:23|376:79|377:215,1,300,2|0,1:0|0:0,0:0:0:0:
485,14,102461,6,0,P|452:45|445:129,1,100,8|0,0:1|0:0,0:0:0:0:
321,72,102615,2,0,P|331:116|400:164,1,100,0|0,0:0|0:0,0:0:0:0:
297,302,102769,6,0,P|276:270|269:234,1,75.0000028610231,2|0,0:0|0:0,0:0:0:0:
159,243,102923,2,0,P|175:209|204:185,1,75.0000028610231,2|0,0:0|0:0,0:0:0:0:
112,88,103076,6,0,P|95:106|84:128,1,50,2|0,0:0|0:0,0:0:0:0:
7,139,103230,2,0,P|14:162|28:183,1,50,2|0,0:0|0:0,0:0:0:0:
208,323,103384,6,0,P|167:323|127:334,1,75,0|0,1:0|0:0,0:0:0:0:
1,359,103692,6,0,P|8:309|5:240,1,100,2|0,0:1|0:0,0:0:0:0:
113,328,103846,2,0,P|102:278|76:214,1,100,2|0,0:1|0:0,0:0:0:0:
230,219,104000,2,0,P|196:181|141:139,1,100,2|0,0:1|0:0,0:0:0:0:
308,13,104153,2,0,P|258:6|189:9,1,100,2|0,0:1|0:0,0:0:0:0:
83,128,104307,5,8,0:1:0:0:
265,85,104461,5,2,0:0:0:0:
303,268,104615,5,2,0:0:0:0:
408,198,104769,5,2,0:0:0:0:
485,254,104923,5,2,0:0:0:0:
510,168,105076,5,2,0:0:0:0:
408,284,105230,6,0,P|380:330|303:368,1,100,2|0,1:0|0:0,0:0:0:0:
306,170,105384,2,0,P|314:223|279:301,1,100,2|0,0:1|0:0,0:0:0:0:
234,133,105538,6,0,P|195:163|148:177,1,100,2|0,0:1|0:0,0:0:0:0:
158,70,105692,2,0,P|109:68|64:48,1,100,2|0,0:1|0:0,0:0:0:0:
362,31,105846,6,0,P|304:63|332:132,1,100,2|0,0:1|0:0,0:0:0:0:
71,152,106000,2,0,P|69:218|143:228,1,100,2|0,0:1|0:0,0:0:0:0:
269,340,106153,5,8,0:1:0:0:
58,312,106307,5,2,0:0:0:0:
157,174,106461,5,2,0:0:0:0:
338,295,106615,5,2,0:0:0:0:
200,292,106769,5,2,0:0:0:0:
269,255,106923,5,2,0:0:0:0:
422,341,107076,6,0,P|426:283|453:218,1,100,2|0,1:0|0:0,0:0:0:0:
480,27,107230,2,0,P|484:85|511:150,1,100,2|0,0:1|0:0,0:0:0:0:
328,199,107384,6,0,P|388:183|435:145,1,100,2|0,0:1|0:0,0:0:0:0:
266,70,107538,2,0,P|326:86|373:124,1,100,2|0,0:1|0:0,0:0:0:0:
274,359,107692,6,0,P|317:341|333:271,1,100,2|0,0:1|0:0,0:0:0:0:
181,261,107846,2,0,P|186:214|134:165,1,100,2|0,0:1|0:0,0:0:0:0:
0,27,108000,5,8,0:1:0:0:
188,50,108153,5,2,0:0:0:0:
9,142,108307,5,2,0:0:0:0:
120,107,108461,5,2,0:0:0:0:
74,229,108615,5,2,0:0:0:0:
143,192,108769,5,2,0:0:0:0:
23,294,108923,6,0,P|75:335|108:378,1,100,2|0,1:0|0:0,0:0:0:0:
285,284,109076,2,0,P|287:350|275:403,1,100,2|0,0:1|0:0,0:0:0:0:
184,346,109230,6,0,P|205:283|209:229,1,100,2|0,0:1|0:0,0:0:0:0:
397,182,109384,2,0,P|362:125|323:87,1,100,2|0,0:1|0:0,0:0:0:0:
369,327,109538,6,0,B|399:403|500:403|552:326|491:234|368:264,1,300,2|0,1:0|0:0,0:0:0:0:
251,159,109846,5,8,0:1:0:0:
506,201,110000,5,2,0:0:0:0:
212,242,110153,5,2,0:0:0:0:
465,132,110307,5,2,0:0:0:0:
198,81,110461,6,0,B|252:139|256:283|172:276|119:218|208:141|277:161,1,300,2|0,0:0|0:0,0:0:0:0:
275,294,110769,5,0,1:0:0:0:
26,381,110923,5,0,1:0:0:0:
8,345,111000,5,0,1:0:0:0:
12,305,111076,5,0,1:0:0:0:
111,263,111230,6,0,P|110:300|91:332,1,75.0000028610231,0|0,1:0|1:0,0:0:0:0:
191,321,111538,5,0,1:0:0:0:
19,223,111692,5,8,0:1:0:0:
214,235,111846,5,2,0:0:0:0:
192,32,112000,5,2,0:0:0:0:
80,167,112153,5,2,0:0:0:0:
166,172,112307,5,2,0:0:0:0:
132,97,112461,5,2,0:0:0:0:
288,272,112615,6,0,P|305:214|308:142,1,100,2|0,1:0|0:0,0:0:0:0:
445,218,112769,2,0,P|411:167|358:119,1,100,2|0,0:1|0:0,0:0:0:0:
193,247,112923,6,0,P|210:305|213:377,1,100,2|0,0:1|0:0,0:0:0:0:
373,306,113076,2,0,P|339:356|286:404,1,100,2|0,0:1|0:0,0:0:0:0:
224,163,113230,6,0,P|146:147|108:116,1,100,2|0,0:1|0:0,0:0:0:0:
384,139,113384,2,0,P|462:155|500:186,1,100,2|0,0:1|0:0,0:0:0:0:
209,72,113538,5,8,0:1:0:0:
109,226,113692,5,2,0:0:0:0:
39,129,113846,5,2,0:0:0:0:
130,136,114000,5,2,0:0:0:0:
65,294,114153,5,2,0:0:0:0:
190,199,114307,5,2,0:0:0:0:
76,30,114461,6,0,P|133:56|213:46,1,100,2|0,1:0|0:0,0:0:0:0:
189,198,114615,2,0,P|238:203|283:226,1,100,2|0,0:1|0:0,0:0:0:0:
308,314,114769,6,0,P|365:288|445:298,1,100,2|0,0:1|0:0,0:0:0:0:
239,95,114923,2,0,P|288:90|332:67,1,100,2|0,0:1|0:0,0:0:0:0:
479,343,115076,6,0,P|491:280|525:228,1,100,2|0,0:1|0:0,0:0:0:0:
404,107,115230,2,0,P|392:170|358:222,1,100,2|0,0:1|0:0,0:0:0:0:
250,378,115384,5,8,0:1:0:0:
167,208,115538,5,2,0:0:0:0:
53,226,115692,5,2,0:0:0:0:
246,260,115846,5,2,0:0:0:0:
116,281,116000,5,2,0:0:0:0:
102,153,116153,5,2,0:0:0:0:
0,367,116307,6,0,P|61:363|124:372,1,119.999996337891,2|2,1:2|0:0,0:0:0:0:
246,260,117230,2,0,P|305:267|365:263,1,119.999996337891,2|2,0:0|0:0,0:0:0:0:
512,352,118153,5,4,0:0:0:0:
116,281,132923,6,0,P|104:354|105:397,1,100,2|0,1:2|0:0,0:0:0:0:
56,200,133230,6,0,P|114:197|137:148,1,100,0|0,0:0|0:0,0:0:0:0:
257,332,133538,2,0,P|199:335|176:384,1,100,0|0,0:0|0:0,0:0:0:0:
146,88,133846,5,8,0:0:0:0:
420,375,134153,6,0,P|425:350|447:297,1,80,0|0,0:0|0:0,0:0:0:0:
365,272,135076,2,0,P|360:297|338:350,1,80,0|0,0:0|0:0,0:0:0:0:
215,141,135692,6,0,B|266:120|330:133|283:166|359:188|428:142,2,200,2|0|0,1:2|0:0|0:0,0:0:0:0:
505,121,136615,6,0,P|481:169|470:220,1,100,2|0,1:2|0:0,0:0:0:0:
354,77,136923,6,0,P|410:62|466:35,1,100,0|0,0:0|0:0,0:0:0:0:
258,216,137230,2,0,P|202:231|146:258,1,100,0|0,0:0|0:0,0:0:0:0:
277,44,137538,5,8,0:0:0:0:
333,262,137846,5,0,0:0:0:0:
403,226,138000,2,0,P|419:282|410:341,1,100,0|0,0:0|0:0,0:0:0:0:
487,353,138307,1,0,0:0:0:0:
245,313,138461,6,0,P|242:263|257:215,1,100,2|0,1:2|0:0,0:0:0:0:
83,366,138769,6,0,P|150:365|217:378,1,100,0|0,0:0|0:0,0:0:0:0:
432,265,139076,2,0,P|365:266|298:253,1,100,0|0,0:0|0:0,0:0:0:0:
102,269,139384,6,0,P|76:223|165:244,2,200,8|0|0,0:0|0:0|0:0,0:0:0:0:
277,44,140307,6,0,P|212:73|164:76,1,100,2|0,1:2|0:0,0:0:0:0:
354,112,140615,6,0,P|364:50|375:-3,1,100,0|0,0:0|0:0,0:0:0:0:
121,157,140923,2,0,P|111:95|100:42,1,100,0|0,0:0|0:0,0:0:0:0:
420,165,141230,5,8,0:0:0:0:
166,235,141538,6,0,P|137:243|77:234,1,80,0|0,0:0|0:0,0:0:0:0:
94,328,142461,2,0,P|123:320|183:329,1,80,0|0,0:0|0:0,0:0:0:0:
237,166,143076,6,0,B|222:93|255:25|255:25|228:39|212:70,2,200,2|0|0,1:2|0:0|0:0,0:0:0:0:
402,247,144000,6,0,P|326:230|274:231,1,100,2|0,1:2|0:0,0:0:0:0:
372,58,144307,6,0,P|361:109|358:174,1,100,0|0,0:0|0:0,0:0:0:0:
247,285,144615,2,0,P|258:336|261:401,1,100,0|0,0:0|0:0,0:0:0:0:
177,237,144923,5,8,0:0:0:0:
470,294,145230,5,0,0:0:0:0:
402,247,145384,2,0,P|375:303|373:359,1,100,0|0,0:0|0:0,0:0:0:0:
367,170,145692,1,0,0:0:0:0:
109,190,145846,5,2,1:2:0:0:
177,237,146000,2,0,P|204:181|206:125,1,100,0|0,0:0|0:0,0:0:0:0:
162,349,146307,6,0,P|116:288|-10:288,1,200,0|0,0:0|0:0,0:0:0:0:
38,113,146769,5,8,0:0:0:0:
11,187,146923,2,0,P|49:197|119:185,1,100,0|0,0:0|0:0,0:0:0:0:
233,305,147230,2,0,P|311:292|433:367,1,200,0|0,0:0|0:0,0:0:0:0:
377,0,147692,6,0,P|354:47|341:123,1,100,2|0,1:2|0:0,0:0:0:0:
475,173,148000,6,0,P|435:119|422:76,1,100,0|0,0:0|0:0,0:0:0:0:
182,69,148307,2,0,P|247:53|284:28,1,100,0|0,0:0|0:0,0:0:0:0:
379,173,148615,5,8,0:0:0:0:
105,20,148923,6,0,P|97:64|107:128,1,100,0|0,0:0|0:0,0:0:0:0:
17,167,149846,2,0,P|25:123|15:59,1,100,0|0,0:0|0:0,0:0:0:0:
281,198,150461,6,0,B|247:198|217:184|217:184|161:220|161:220|131:201|64:198,2,200,2|0|0,1:2|0:0|0:0,0:0:0:0:
9,314,151384,6,0,P|57:285|111:282,1,100,2|0,1:2|0:0,0:0:0:0:
157,128,151692,6,0,P|169:79|187:33,1,100,0|0,0:0|0:0,0:0:0:0:
231,272,152000,2,0,P|249:318|261:366,1,100,0|0,0:0|0:0,0:0:0:0:
94,202,152307,5,8,0:0:0:0:
324,264,152615,5,0,0:0:0:0:
484,238,152769,2,0,P|427:262|395:300,1,100,0|0,0:0|0:0,0:0:0:0:
506,158,153076,1,0,0:0:0:0:
298,145,153230,6,0,P|333:179|380:196,1,100,2|0,1:2|0:0,0:0:0:0:
390,12,153538,6,0,P|379:70|376:133,1,100,0|0,0:0|0:0,0:0:0:0:
268,340,153846,2,0,P|279:282|282:219,1,100,0|0,0:0|0:0,0:0:0:0:
184,116,154153,6,0,B|131:96|69:126|115:149|45:179|-11:151,2,200,8|0|0,0:0|0:0|0:0,0:0:0:0:
34,364,155076,6,0,P|93:359|157:369,1,100,2|0,1:2|0:0,0:0:0:0:
152,188,155384,6,0,P|150:260|155:317,1,100,0|0,0:0|0:0,0:0:0:0:
261,43,155692,2,0,P|263:115|258:172,1,100,0|0,0:0|0:0,0:0:0:0:
69,238,156000,5,8,0:0:0:0:
351,257,156307,6,0,P|400:265|469:258,1,119.999996337891,0|0,0:0|0:0,0:0:0:0:
270,288,157230,2,0,P|221:280|152:287,1,119.999996337891,0|0,0:0|0:0,0:0:0:0:
407,130,157846,6,0,P|329:112|307:239,1,200,2|0,1:2|0:0,0:0:0:0:
151,287,158307,2,0,P|73:305|51:178,1,200,0|0,0:0|0:0,0:0:0:0:
192,188,158769,6,0,P|222:249|196:393,1,200,2|0,1:2|0:0,0:0:0:0:
399,313,159230,2,0,P|337:300|299:263,1,100,0|0,0:0|0:0,0:0:0:0:
213,99,159538,1,0,0:0:0:0:
346,145,159692,6,0,B|317:212|211:247|139:216|139:216|185:209|215:155,1,300,8|0,0:0|0:0,0:0:0:0:
96,39,160307,2,0,P|122:95|125:148,1,100,0|0,0:0|0:0,0:0:0:0:
76,383,160615,6,0,P|52:314|67:177,1,200,2|0,1:2|0:0,0:0:0:0:
207,327,161076,2,0,P|151:338|141:287,1,100,0|0,0:0|0:0,0:0:0:0:
213,99,161384,1,0,0:0:0:0:
191,187,161538,6,0,P|164:177|154:174,1,29.9999990844727,8|0,0:0|0:0,0:0:0:0:
154,43,161846,1,0,0:0:0:0:
85,82,162000,2,0,P|64:76|31:56,1,59.9999981689454,0|0,0:0|0:0,0:0:0:0:
231,16,162461,5,4,1:0:0:0:
499,180,163230,5,0,0:0:0:0:
441,132,163384,2,0,P|449:107|468:76,2,59.9999981689454,0|0|0,0:0|0:0|0:0,0:0:0:0:
367,159,164307,2,0,P|349:116|350:36,1,119.999996337891,0|0,0:0|0:0,0:0:0:0:
330,226,165230,1,0,0:0:0:0:
11,141,165846,6,0,P|16:164|15:182,1,29.9999990844727,0|0,0:0|0:0,0:0:0:0:
80,212,166153,2,0,P|67:246|57:303,1,89.9999972534181,0|0,0:0|0:0,0:0:0:0:
145,267,167076,2,0,P|150:302|170:357,1,89.9999972534181,0|0,0:0|0:0,0:0:0:0:
211,207,168000,6,0,P|216:171|236:116,1,89.9999972534181,0|0,0:0|0:0,0:0:0:0:
294,191,168923,2,0,P|316:162|361:125,1,89.9999972534181,0|0,0:0|0:0,0:0:0:0:
495,220,169846,6,0,P|465:197|409:184,1,89.9999972534181,0|0,0:0|0:0,0:0:0:0:
246,373,170769,5,0,0:0:0:0:
311,329,170923,2,0,P|311:309|314:291,1,29.9999990844727,0|0,0:0|0:0,0:0:0:0:
383,352,171230,2,0,P|394:322|423:298,1,59.9999981689454,0|0,0:0|0:0,0:0:0:0:
495,220,171692,6,0,P|455:212|397:147,1,119.999996337891,0|0,0:0|0:0,0:0:0:0:
428,85,172461,1,0,0:0:0:0:
372,27,172615,1,0,0:0:0:0:
294,272,173230,6,0,P|272:264|253:262,1,29.9999990844727,0|0,0:0|0:0,0:0:0:0:
205,215,173538,2,0,P|190:245|176:307,1,89.9999972534181,0|0,0:0|0:0,0:0:0:0:
0,136,174461,2,0,P|15:166|29:228,1,89.9999972534181,0|0,0:0|0:0,0:0:0:0:
174,97,175384,2,0,P|149:120|115:173,1,89.9999972534181,0|0,0:0|0:0,0:0:0:0:
0,372,176307,6,0,P|23:370|72:338,1,80,0|0,0:0|0:0,0:0:0:0:
151,369,176769,6,0,P|174:336|186:267,1,100,0|0,0:0|0:0,0:0:0:0:
0,47,177230,6,0,B|75:9|165:66|98:100|185:160|315:95,1,300.000011444092,8|0,1:0|0:0,0:0:0:0:
186,278,177692,2,0,B|261:316|351:259|284:225|371:165|501:230,1,300.000011444092,8|0,1:0|0:0,0:0:0:0:
389,27,178153,6,0,P|361:98|426:94,2,150.000005722046,8|0|0,1:0|0:0|0:0,0:0:0:0:
465,321,178615,5,8,1:0:0:0:
366,187,178769,1,8,1:0:0:0:
203,221,178923,1,8,1:0:0:0:
125,75,179076,6,0,B|9:70|-35:189|-35:189|7:149|79:164,1,300.000011444092,8|0,1:0|0:0,0:0:0:0:
218,187,179538,2,0,B|140:272|202:383|202:383|199:325|257:279,1,300.000011444092,8|0,1:0|0:0,0:0:0:0:
366,187,180000,2,0,B|381:301|506:325|506:325|459:289|461:216,1,300.000011444092,8|0,1:0|0:0,0:0:0:0:
483,29,180461,5,8,1:0:0:0:
319,53,180615,1,8,1:0:0:0:
155,78,180769,1,8,1:0:0:0:
58,211,180923,6,0,B|-5:141|35:43|84:29|84:29|126:68|195:33,1,300.000011444092,8|0,1:0|0:0,0:0:0:0:
199,277,181384,2,0,B|169:366|65:380|28:345|28:345|41:289|-23:247,1,300.000011444092,8|0,1:0|0:0,0:0:0:0:
186,122,181846,2,0,B|278:102|342:186|330:235|330:235|275:252|271:329,1,300.000011444092,8|0,1:0|0:0,0:0:0:0:
500,342,182307,5,8,1:0:0:0:
355,313,182461,2,0,P|430:290|490:238,1,150.000005722046,8|0,1:0|0:0,0:0:0:0:
332,12,182769,6,0,B|285:86|353:78|289:162,1,150.000005722046,8|0,1:0|0:0,0:0:0:0:
497,165,183076,2,0,B|455:87|428:150|388:52,1,150.000005722046,8|0,1:0|0:0,0:0:0:0:
281,231,183384,2,0,B|368:233|328:179|432:193,1,150.000005722046,8|0,1:0|0:0,0:0:0:0:
248,302,183692,6,0,P|207:372|180:246,1,300.000011444092,8|0,1:0|0:0,0:0:0:0:
129,178,184153,2,0,P|88:107|61:233,1,300.000011444092,8|0,1:0|0:0,0:0:0:0:
157,358,184615,6,0,B|124:390|68:385|100:364|40:360|-7:391,1,150.000005722046,8|0,1:0|0:0,0:0:0:0:
281,231,184923,1,8,1:0:0:0:
321,304,185076,2,0,B|247:340|148:286|220:254|126:199|12:243,1,300.000011444092,8|0,1:0|0:0,0:0:0:0:
411,198,185538,6,0,P|398:280|406:356,1,150.000005722046,8|0,1:0|0:0,0:0:0:0:
323,157,185846,2,0,P|336:75|328:-1,1,150.000005722046,8|0,1:0|0:0,0:0:0:0:
55,232,186153,6,0,P|68:314|60:390,1,150.000005722046,8|0,1:0|0:0,0:0:0:0:
143,191,186461,2,0,P|130:109|138:33,1,150.000005722046,8|0,1:0|0:0,0:0:0:0:
214,250,186769,5,8,1:0:0:0:
264,188,186923,2,0,B|309:130|408:92|486:134|486:134|445:132|410:157,1,300.000011444092,8|0,1:0|0:0,0:0:0:0:
279,301,187384,2,0,B|234:359|135:397|57:355|57:355|98:357|133:332,1,300.000011444092,8|8,1:0|1:0,0:0:0:0:
161,111,187846,6,0,P|198:183|215:267,1,150.000005722046,0|8,0:0|1:0,0:0:0:0:
205,38,188153,1,0,0:0:0:0:
385,74,188307,6,0,P|392:38|418:-9,1,75.0000028610231,8|0,1:0|0:0,0:0:0:0:
303,69,188461,2,0,P|285:36|274:-15,1,75.0000028610231,8|0,0:0|0:0,0:0:0:0:
445,131,188615,2,0,P|473:107|523:88,1,75.0000028610231,8|0,0:0|3:0,3:0:0:0:
361,296,188769,6,0,P|366:326|378:355,1,62.5,8|0,1:0|0:0,0:0:0:0:
279,301,188923,2,0,P|263:327|253:357,1,62.5,8|0,0:0|0:0,0:0:0:0:
420,239,189076,2,0,P|443:259|471:273,1,62.5,8|0,0:0|3:0,3:0:0:0:
132,269,189230,6,0,P|116:242|106:212,1,50,8|0,1:0|0:0,0:0:0:0:
65,317,189384,2,0,P|35:306|9:289,1,50,8|0,0:0|0:0,0:0:0:0:
213,249,189538,2,0,P|218:218|230:189,1,50,8|0,0:0|3:0,3:0:0:0:
65,24,189692,6,0,P|85:27|119:44,1,37.5000014305115,8|0,1:0|0:0,0:0:0:0:
80,110,189846,1,8,0:0:0:0:
80,110,189923,1,0,0:0:0:0:
80,110,190000,2,0,P|60:107|26:90,1,37.5000014305115,8|8,0:0|0:0,0:0:0:0:
256,32,190153,6,0,P|250:68|256:134,1,89.9999972534181,0|0,0:0|0:0,0:0:0:0:
352,352,191076,5,0,0:0:0:0:
160,352,191230,1,0,0:0:0:0:
256,352,191384,6,0,P|258:366|258:376,1,14.9999995422363,0|0,1:0|0:0,0:0:0:0:
256,267,191538,6,0,P|257:254|256:235,1,25,8|0,1:0|0:0,0:0:0:0:
0,150,192000,6,0,P|41:151|76:236,1,125,6|0,1:0|0:0,0:0:0:0:
183,206,192153,2,0,P|181:250|123:276,1,100,2|0,0:1|0:0,0:0:0:0:
164,379,192307,2,0,P|129:379|104:341,1,75.0000028610231,2|0,0:1|0:0,0:0:0:0:
136,277,192461,6,0,P|222:276|299:312,1,150.000005722046,10|0,0:1|0:0,0:0:0:0:
237,135,192615,2,0,P|284:160|360:166,1,125,2|0,0:1|0:0,0:0:0:0:
321,54,192769,2,0,P|367:56|422:78,1,100,2|0,0:1|0:0,0:0:0:0:
494,287,192923,6,0,P|460:251|462:202,1,100,2|0,1:0|0:0,0:0:0:0:
320,227,193076,2,0,P|334:180|373:162,1,75.0000028610231,2|0,0:1|0:0,0:0:0:0:
274,62,193230,2,0,P|306:50|334:61,1,50,2|0,0:1|0:0,0:0:0:0:
503,131,193384,5,10,0:1:0:0:
394,364,193538,5,2,0:0:0:0:
382,286,193692,1,2,0:0:0:0:
205,251,193846,6,0,P|236:186|220:90,1,125,6|0,1:0|0:0,0:0:0:0:
383,158,194000,2,0,P|333:189|319:250,1,100,2|0,0:1|0:0,0:0:0:0:
92,129,194153,2,0,P|129:149|142:200,1,75.0000028610231,2|0,0:1|0:0,0:0:0:0:
269,349,194307,6,0,P|182:327|108:322,1,150.000005722046,10|0,0:1|0:0,0:0:0:0:
340,307,194461,2,0,P|370:350|443:354,1,125,2|0,0:1|0:0,0:0:0:0:
512,203,194615,2,0,P|471:229|397:209,1,100,2|0,0:1|0:0,0:0:0:0:
414,17,194769,6,0,P|439:60|436:122,1,100,2|0,1:0|0:0,0:0:0:0:
298,88,194923,2,0,P|278:131|236:166,1,75.0000028610231,2|0,0:1|0:0,0:0:0:0:
165,34,195076,2,0,P|141:41|116:45,1,50,2|0,0:1|0:0,0:0:0:0:
42,7,195230,5,10,0:1:0:0:
29,188,195384,6,0,P|25:175|21:164,1,25,2|0,0:0|0:0,0:0:0:0:
99,152,195538,2,0,P|96:140|91:128,1,25,2|0,0:0|0:0,0:0:0:0:
140,356,195692,6,0,P|100:289|98:214,1,125,6|0,1:0|0:0,0:0:0:0:
225,140,195846,2,0,P|180:190|188:267,1,100,2|0,0:1|0:0,0:0:0:0:
36,362,196000,2,0,P|8:320|7:270,1,75.0000028610231,2|0,0:1|0:0,0:0:0:0:
205,295,196153,6,0,P|260:303|349:349,1,150.000005722046,10|0,0:1|0:0,0:0:0:0:
511,305,196307,2,0,P|456:297|367:251,1,125,2|0,0:1|0:0,0:0:0:0:
307,167,196461,2,0,P|362:175|451:221,1,100,2|0,0:1|0:0,0:0:0:0:
207,25,196615,6,0,P|247:71|237:141,1,100,2|0,1:0|0:0,0:0:0:0:
367,24,196769,2,0,P|360:63|323:88,1,75.0000028610231,2|0,0:1|0:0,0:0:0:0:
485,44,196923,2,0,P|478:61|433:73,1,50,2|0,0:1|0:0,0:0:0:0:
172,100,197076,5,10,0:1:0:0:
452,164,197230,6,0,B|360:137|406:207|265:153,1,150.000005722046,2|2,0:0|0:0,0:0:0:0:
28,313,197538,6,0,P|84:317|135:261,1,125,6|0,1:0|0:0,0:0:0:0:
172,100,197692,2,0,P|156:146|172:192,1,100,2|0,0:1|0:0,0:0:0:0:
287,286,197846,2,0,P|256:265|219:261,1,75.0000028610231,2|0,0:1|0:0,0:0:0:0:
102,29,198000,6,0,P|57:112|-4:126,1,150.000005722046,10|0,0:1|0:0,0:0:0:0:
281,71,198153,2,0,P|209:67|161:132,1,125,2|0,0:1|0:0,0:0:0:0:
430,2,198307,2,0,P|399:48|353:47,1,100,2|0,0:1|0:0,0:0:0:0:
246,144,198461,6,0,P|280:201|283:281,1,100,2|0,1:0|0:0,0:0:0:0:
400,131,198615,2,0,P|371:165|357:237,1,75.0000028610231,2|0,0:1|0:0,0:0:0:0:
158,216,198769,2,0,P|194:223|224:252,1,50,2|0,0:1|0:0,0:0:0:0:
423,238,198923,5,10,0:1:0:0:
159,295,199076,5,2,0:0:0:0:
154,374,199230,1,2,0:0:0:0:
0,206,199384,6,0,P|62:189|132:118,1,125,6|0,1:0|0:0,0:0:0:0:
219,42,199538,2,0,P|197:89|187:177,1,100,2|0,0:1|0:0,0:0:0:0:
40,104,199692,2,0,P|9:52|-29:22,1,75.0000028610231,2|0,0:1|0:0,0:0:0:0:
302,248,199846,6,0,P|179:215|91:227,1,150.000005722046,10|0,0:1|0:0,0:0:0:0:
397,222,200000,2,0,P|362:160|294:100,1,125,2|0,0:1|0:0,0:0:0:0:
494,252,200153,2,0,P|498:210|486:148,1,100,2|0,0:1|0:0,0:0:0:0:
284,335,200307,6,0,P|349:321|391:287,1,100,2|0,1:0|0:0,0:0:0:0:
324,121,200461,2,0,P|269:117|226:133,1,75.0000028610231,2|0,0:1|0:0,0:0:0:0:
204,377,200615,2,0,P|206:351|198:312,1,50,2|0,0:1|0:0,0:0:0:0:
40,104,200769,5,10,0:1:0:0:
131,357,200923,5,2,0:0:0:0:
53,340,201076,1,2,0:0:0:0:
126,108,201230,6,0,P|114:178|128:279,1,125,6|0,1:0|0:0,0:0:0:0:
397,222,201384,2,0,P|401:153|383:89,1,100,2|0,0:1|0:0,0:0:0:0:
208,135,201538,2,0,P|199:176|204:231,1,75.0000028610231,2|0,0:1|0:0,0:0:0:0:
333,63,201692,6,0,P|257:60|169:30,1,150.000005722046,10|0,0:1|0:0,0:0:0:0:
335,283,201846,2,0,P|284:289|196:319,1,125,2|0,0:1|0:0,0:0:0:0:
469,86,202000,2,0,P|455:68|417:-10,1,100,2|0,0:1|0:0,0:0:0:0:
397,222,202153,6,0,P|338:201|275:167,1,100,2|0,1:0|0:0,0:0:0:0:
429,312,202307,2,0,P|403:339|354:370,1,75.0000028610231,2|0,0:1|0:0,0:0:0:0:
507,339,202461,2,0,P|501:358|485:383,1,50,2|0,0:1|0:0,0:0:0:0:
465,169,202615,5,10,0:1:0:0:
273,321,202769,6,0,P|282:344|286:366,1,37.5000014305115,2|0,0:0|0:0,0:0:0:0:
210,379,202923,2,0,P|201:356|197:334,1,37.5000014305115,2|0,0:0|0:0,0:0:0:0:
246,0,203076,6,0,P|295:15|310:122,1,125,6|0,1:0|0:0,0:0:0:0:
174,95,203230,2,0,P|180:131|143:182,1,100,2|0,0:1|0:0,0:0:0:0:
55,115,203384,2,0,P|35:145|-9:155,1,75.0000028610231,2|0,0:1|0:0,0:0:0:0:
210,379,203538,6,0,P|114:362|9:374,1,150.000005722046,10|0,0:1|0:0,0:0:0:0:
180,206,203692,2,0,P|101:200|46:187,1,125,2|0,0:1|0:0,0:0:0:0:
170,14,203846,2,0,P|125:4|64:2,1,100,2|0,0:1|0:0,0:0:0:0:
325,287,204000,6,0,P|280:297|219:299,1,100,2|0,1:0|0:0,0:0:0:0:
329,116,204153,2,0,P|276:107|228:103,1,75.0000028610231,2|0,0:1|0:0,0:0:0:0:
333,205,204307,2,0,P|294:203|259:205,1,50,2|0,0:1|0:0,0:0:0:0:
411,204,204461,5,10,0:1:0:0:
512,31,204615,6,0,B|420:16|466:63|355:39,1,150.000005722046,2|2,0:0|0:0,0:0:0:0:
4,50,204923,6,0,P|26:105|33:190,1,125,6|0,1:0|0:0,0:0:0:0:
117,151,205076,2,0,P|109:89|86:31,1,125,2|0,0:1|0:0,0:0:0:0:
170,14,205230,2,0,P|192:69|199:154,1,125,2|0,0:1|0:0,0:0:0:0:
465,146,205384,6,0,P|451:185|439:258,1,100,2|0,0:1|0:0,0:0:0:0:
362,223,205538,2,0,P|370:173|386:126,1,100,2|0,0:1|0:0,0:0:0:0:
307,106,205692,2,0,P|290:153|282:202,1,100,2|0,0:1|0:0,0:0:0:0:
70,311,205846,6,0,P|87:344|100:397,1,75.0000028610231,2|0,0:1|0:0,0:0:0:0:
172,357,206000,2,0,P|161:321|144:287,1,75.0000028610231,2|0,0:1|0:0,0:0:0:0:
220,265,206153,2,0,P|237:298|250:351,1,75.0000028610231,2|0,0:1|0:0,0:0:0:0:
325,363,206307,5,10,0:1:0:0:
495,304,206461,5,2,0:0:0:0:
512,380,206615,1,2,0:0:0:0:
401,41,206769,6,0,B|276:68|222:245|299:336|522:319|474:137|396:116,1,500,6|0,1:0|0:0,0:0:0:0:
202,254,207230,2,0,P|225:301|205:370,1,100,8|0,0:1|0:0,0:0:0:0:
134,302,207384,2,0,P|121:353|61:393,1,100,0|0,0:0|0:0,0:0:0:0:
222,174,207538,2,0,P|270:195|299:261,1,100,0|0,0:0|0:0,0:0:0:0:
10,288,207692,5,0,1:0:0:0:
75,242,207846,2,0,B|145:214|249:254|164:295|262:346|380:298,1,300,0|0,0:0|0:0,0:0:0:0:
362,174,208153,2,0,P|304:203|306:272,1,100,8|0,0:1|0:0,0:0:0:0:
428,227,208307,2,0,P|482:262|540:226,1,100,0|0,0:0|0:0,0:0:0:0:
441,144,208461,2,0,P|444:79|384:46,1,100,0|0,0:0|0:0,0:0:0:0:
199,140,208615,6,0,B|138:105|87:7|92:-94|254:-73|216:122|181:212|56:248,1,500,2|0,1:0|0:0,0:0:0:0:
218,227,209076,2,0,B|279:262|330:360|325:461|163:440|201:245|236:155|361:119,1,500,8|0,0:1|0:0,0:0:0:0:
479,11,209538,5,2,1:0:0:0:
284,52,209692,5,0,0:0:0:0:
441,85,209846,5,0,0:0:0:0:
341,219,210000,5,10,0:1:0:0:
502,238,210153,5,0,0:0:0:0:
419,191,210307,5,0,0:0:0:0:
511,372,210461,6,0,B|411:292|265:274|170:316|170:316|264:305|311:382,1,500,2|0,1:0|0:0,0:0:0:0:
270,220,210923,2,0,P|198:227|143:248,1,100,8|0,0:1|0:0,0:0:0:0:
6,156,211076,2,0,P|54:168|104:171,1,100,0|0,0:0|0:0,0:0:0:0:
249,80,211230,2,0,P|177:87|122:108,1,100,0|0,0:0|0:0,0:0:0:0:
88,258,211384,5,0,1:0:0:0:
151,319,211538,2,0,B|181:227|152:109|84:39,1,300,0|0,0:0|0:0,0:0:0:0:
272,4,211846,2,0,P|215:6|173:55,1,100,8|0,0:1|0:0,0:0:0:0:
243,217,212000,2,0,P|300:215|342:166,1,100,0|0,0:0|0:0,0:0:0:0:
259,103,212153,2,0,P|210:120|160:152,1,100,0|0,0:0|0:0,0:0:0:0:
512,354,212307,6,0,B|442:308|428:192|487:136|487:136|436:196|345:202|345:202|335:244|370:306,1,500,2|0,1:0|0:0,0:0:0:0:
100,125,212769,2,0,B|170:171|184:287|125:343|125:343|176:283|266:276|266:276|277:235|242:173,1,500,8|0,0:1|0:0,0:0:0:0:
512,63,213230,5,2,1:0:0:0:
224,82,213384,5,0,0:0:0:0:
432,27,213538,5,0,0:0:0:0:
313,120,213692,6,0,B|347:175|343:264|303:210|292:279|337:360,1,250,10|0,0:1|0:0,0:0:0:0:
438,327,214153,6,0,B|317:376|212:290|212:290|225:279|225:279|108:182|-26:239,1,500,6|0,1:0|0:0,0:0:0:0:
60,178,214615,2,0,P|96:234|87:307,1,100,8|0,0:1|0:0,0:0:0:0:
207,187,214769,2,0,P|198:253|144:303,1,100,0|0,0:0|0:0,0:0:0:0:
313,288,214923,2,0,P|264:333|190:336,1,100,0|0,0:0|0:0,0:0:0:0:
137,138,215076,6,0,B|40:33|219:-76|281:23|304:148|256:248|167:285,1,500,0|0,1:0|0:0,0:0:0:0:
0,367,215538,2,0,P|62:357|136:379,1,100,8|0,0:1|0:0,0:0:0:0:
81,274,215692,2,0,P|143:284|217:262,1,100,0|0,0:0|0:0,0:0:0:0:
207,187,215846,2,0,P|269:177|343:199,1,100,0|0,0:0|0:0,0:0:0:0:
319,260,216000,6,0,B|222:365|401:474|463:375|486:250|438:150|349:113,1,500,2|0,1:0|0:0,0:0:0:0:
182,31,216461,2,0,P|244:41|318:19,1,100,8|0,0:1|0:0,0:0:0:0:
263,124,216615,2,0,P|325:114|399:136,1,100,0|0,0:0|0:0,0:0:0:0:
389,211,216769,2,0,P|451:221|525:199,1,100,0|0,0:0|0:0,0:0:0:0:
439,22,216923,5,2,1:0:0:0:
312,192,217076,5,0,0:0:0:0:
452,105,217230,5,0,0:0:0:0:
335,276,217384,5,10,0:1:0:0:
253,99,217538,5,0,0:0:0:0:
389,211,217692,5,0,0:0:0:0:
512,363,217846,6,0,P|358:299|14:293,1,500,2|0,1:0|0:0,0:0:0:0:
51,365,218307,5,8,0:1:0:0:
24,146,218461,5,0,0:0:0:0:
107,307,218615,5,0,0:0:0:0:
174,136,218769,6,0,P|138:85|101:134,1,100,0|0,1:0|0:0,0:0:0:0:
266,356,218923,2,0,P|130:311|120:139,1,300,0|0,0:0|0:0,0:0:0:0:
331,233,219230,6,0,P|295:283|258:234,1,100,8|0,0:1|0:0,0:0:0:0:
423,13,219384,2,0,P|287:58|277:230,1,300,0|0,0:0|0:0,0:0:0:0:
414,264,219692,6,0,B|450:317|510:309|510:309|479:368|364:386|299:311|362:280|301:238|205:209|174:298|174:298|255:315|363:246|360:14|173:-17|36:47|11:182|85:268|85:268|73:178|139:125|139:125,1,1275.00004863739,6|0,1:0|0:0,0:0:0:0:
378,35,221076,6,0,P|332:50|381:41,1,150.000005722046,8|0,1:0|0:0,0:0:0:0:
455,112,221230,6,0,P|451:146|459:114,1,100,0|0,1:0|0:0,0:0:0:0:
501,215,221384,6,0,P|485:228|504:219,1,50,0|0,1:0|0:0,0:0:0:0:
512,356,221538,6,0,B|408:258|157:221|35:298|35:298|98:280|229:317,1,625,6|0,1:0|0:0,0:0:0:0:
216,348,222000,6,0,P|236:260|206:193,1,125,8|0,0:1|0:0,0:0:0:0:
343,239,222153,2,0,P|350:201|273:151,1,125,0|0,0:0|0:0,0:0:0:0:
398,108,222307,2,0,P|399:70|330:93,1,125,0|0,0:0|0:0,0:0:0:0:
152,299,222461,5,0,1:0:0:0:
96,96,222615,5,0,0:0:0:0:
98,367,222769,5,0,0:0:0:0:
290,148,222923,6,0,B|218:215|107:77|241:-13|385:24|410:142,1,375,10|0,0:1|0:0,0:0:0:0:
465,22,223230,2,0,B|455:97|489:63|468:154,1,125,2|0,0:0|0:0,0:0:0:0:
315,238,223384,6,0,B|444:373|345:446|250:379|215:277|441:256|464:182|490:20|306:48|303:88|347:197|446:217,1,625,2|0,1:0|0:0,0:0:0:0:
504,279,223846,6,0,P|445:314|488:357,1,125,8|0,0:1|0:0,0:0:0:0:
279,163,224000,2,0,P|228:192|229:275,1,125,0|0,0:0|0:0,0:0:0:0:
61,170,224153,2,0,P|50:255|71:326,1,125,0|0,0:0|0:0,0:0:0:0:
286,305,224307,5,0,1:0:0:0:
13,362,224461,5,0,0:0:0:0:
214,356,224615,5,0,0:0:0:0:
17,97,224769,6,0,B|78:71|152:93|92:142|177:163|257:125,2,250,10|2|2,0:1|0:0|0:0,0:0:0:0:
64,286,225230,6,0,B|17:308|14:364|14:364|-18:285|17:214|181:85|378:282|188:405|83:356,1,625,2|0,1:0|0:0,0:0:0:0:
17,97,225692,6,0,P|67:85|87:163,1,125,8|0,0:1|0:0,0:0:0:0:
204,0,225846,2,0,P|183:48|190:139,1,125,0|0,0:0|0:0,0:0:0:0:
352,95,226000,2,0,P|285:95|280:189,1,166.666666666667,0|0,0:0|0:0,0:0:0:0:
512,0,226153,6,0,P|460:2|479:68,1,125,2|0,1:0|0:0,0:0:0:0:
428,131,226307,2,0,P|274:123|377:15,1,375,0|0,0:0|0:0,0:0:0:0:
318,240,226615,6,0,P|266:238|285:172,1,125,8|0,0:1|0:0,0:0:0:0:
234,109,226769,2,0,P|80:117|183:225,1,375,0|0,0:0|0:0,0:0:0:0:
464,351,227076,6,0,B|350:410|178:333|297:284|146:227|10:285|10:285|116:300|178:374,1,625,2|0,1:0|0:0,0:0:0:0:
28,158,227538,2,0,B|142:99|314:176|195:225|346:282|482:224|482:224|376:209|314:135,1,625,8|0,0:1|0:0,0:0:0:0:
325,18,228000,5,0,1:0:0:0:
271,244,228153,5,0,0:0:0:0:
254,72,228307,5,0,0:0:0:0:
340,296,228461,5,8,0:1:0:0:
108,240,228615,5,2,0:1:0:0:
420,267,228769,5,0,0:0:0:0:
137,337,228923,6,0,B|45:247|78:82|186:27|186:27|128:99|164:201|279:176|298:87|224:42,1,625,6|0,1:0|0:0,0:0:0:0:
397,7,229384,6,0,P|347:9|366:86,1,125,8|0,0:1|0:0,0:0:0:0:
497,102,229538,2,0,P|431:105|383:178,1,125,0|0,0:0|0:0,0:0:0:0:
512,263,229692,2,0,P|449:242|359:240,1,125,0|0,0:0|0:0,0:0:0:0:
311,147,229846,5,0,1:0:0:0:
355,348,230000,5,0,0:0:0:0:
288,227,230153,5,0,0:0:0:0:
183,362,230307,5,8,0:1:0:0:
247,96,230461,5,0,0:0:0:0:
264,375,230615,5,0,0:0:0:0:
172,253,230769,6,0,B|136:278|98:269|98:269|152:302|253:289|284:154|223:53|113:69|113:69|55:110|78:189|130:197,1,625,2|0,1:0|0:0,0:0:0:0:
13,340,231230,6,0,P|69:367|150:367,1,125,8|0,0:1|0:0,0:0:0:0:
151,131,231384,2,0,P|130:187|205:224,1,125,0|0,0:0|0:0,0:0:0:0:
289,78,231538,2,0,P|262:98|319:141,1,125,0|0,0:0|0:0,0:0:0:0:
340,8,231692,5,2,1:0:0:0:
193,46,231846,5,0,0:0:0:0:
420,49,232000,5,0,0:0:0:0:
285,244,232153,5,8,0:1:0:0:
468,117,232307,5,0,0:0:0:0:
361,228,232461,5,0,0:0:0:0:
505,39,232615,6,0,B|447:59|418:126|441:210|441:210|438:158|344:97|372:148|305:113|294:47|294:47|313:63|302:133|235:175|163:164,1,625,2|0,1:0|0:0,0:0:0:0:
0,50,233076,6,0,P|53:45|33:111,1,125,8|0,0:1|0:0,0:0:0:0:
94,281,233230,2,0,P|84:220|104:162,1,125,0|0,0:0|0:0,0:0:0:0:
215,26,233384,2,0,P|162:81|165:4,1,125,0|0,0:0|0:0,0:0:0:0:
8,217,233538,5,2,1:0:0:0:
294,259,233692,5,0,0:0:0:0:
17,307,233846,5,0,0:0:0:0:
177,149,234000,5,8,0:1:0:0:
252,332,234153,5,0,0:0:0:0:
227,71,234307,5,0,0:0:0:0:
252,332,234461,6,0,P|92:346|-9:283,2,250,2|0|0,1:0|0:0|0:0,0:0:0:0:
328,113,234923,6,0,P|224:62|123:66,2,200,0|0|0,0:0|0:0|0:0,0:0:0:0:
421,292,235384,6,0,P|378:352|289:388,2,150.000005722046,0|0|0,0:0|0:0|0:0,0:0:0:0:
458,160,235846,6,0,P|412:82|380:63,2,100,0|0|0,0:0|0:0|0:0,0:0:0:0:
493,244,236307,5,4,1:0:0:0:
