osu file format v14

[General]
AudioFilename: audio.mp3
AudioLeadIn: 0
PreviewTime:0
Countdown: 0
SampleSet: Normal
StackLeniency: 0.7
Mode: 1
LetterboxInBreaks: 0
WidescreenStoryboard: 1

[Editor]
Bookmarks: 17673
DistanceSpacing: 1.3
BeatDivisor: 4
GridSize: 32
TimelineZoom: 2.7

[Metadata]
Title:Le Fishe au Chocolat (Chiptune Ver.)
TitleUnicode:Le Fishe au Chocolat (Chiptune Ver.)
Artist:yifo
ArtistUnicode:yifō
Creator:Phob
Version:Muzukashii
Source:
Tags:electronic instrumental french novelty chiptune short version 8bit 8-bit 16bit 16-bit happy day in paris traditionnel musette maurice roger larcange jean-claude pierric remix meme la fish chocolate poisson yifei yifo123
BeatmapID:3905458
BeatmapSetID:1895056

[Difficulty]
HPDrainRate:9
CircleSize:4
OverallDifficulty:5
ApproachRate:10
SliderMultiplier:1.4
SliderTickRate:1

[Events]
//Background and Video events
0,0,"mmmmmhmmm so yummy mmmmmmmmhhhhh.jpg",0,-48
//Break Periods
//Storyboard Layer 0 (Background)
//Storyboard Layer 1 (Fail)
//Storyboard Layer 2 (Pass)
//Storyboard Layer 3 (Foreground)
//Storyboard Layer 4 (Overlay)
//Storyboard Sound Samples

[TimingPoints]
-41,285.714285714286,14,1,0,40,1,8
3959,285.714285714286,3,1,0,70,1,0

[HitObjects]
256,192,209,12,0,1816,0:0:0:0:
256,192,3244,5,8,0:0:0:0:
256,192,3387,1,0,0:0:0:0:
256,192,3530,1,0,0:0:0:0:
256,192,3673,1,8,0:0:0:0:
256,192,3959,1,0,0:0:0:0:
256,192,4030,1,0,0:0:0:0:
256,192,4101,1,0,0:0:0:0:
256,192,4244,1,8,0:0:0:0:
256,192,4530,1,0,0:0:0:0:
256,192,4601,1,0,0:0:0:0:
256,192,4673,1,0,0:0:0:0:
256,192,4816,1,8,0:0:0:0:
256,192,5101,1,0,0:0:0:0:
256,192,5244,1,0,0:0:0:0:
256,192,5387,1,8,0:0:0:0:
256,192,5673,1,8,0:0:0:0:
256,192,5744,1,8,0:0:0:0:
256,192,5816,1,8,0:0:0:0:
256,192,5959,1,0,0:0:0:0:
256,192,6244,1,8,0:0:0:0:
256,192,6316,1,8,0:0:0:0:
256,192,6387,1,8,0:0:0:0:
256,192,6530,1,0,0:0:0:0:
256,192,7101,1,8,0:0:0:0:
256,192,7387,1,0,0:0:0:0:
256,192,7459,1,0,0:0:0:0:
256,192,7530,1,0,0:0:0:0:
256,192,7673,1,8,0:0:0:0:
256,192,7959,1,0,0:0:0:0:
256,192,8030,1,0,0:0:0:0:
256,192,8101,1,0,0:0:0:0:
256,192,8244,1,8,0:0:0:0:
256,192,8530,1,8,0:0:0:0:
256,192,8673,1,0,0:0:0:0:
256,192,8816,1,8,0:0:0:0:
256,192,9101,1,8,0:0:0:0:
256,192,9173,1,8,0:0:0:0:
256,192,9244,1,8,0:0:0:0:
256,192,9387,1,0,0:0:0:0:
256,192,9673,1,8,0:0:0:0:
256,192,9744,1,8,0:0:0:0:
256,192,9816,1,8,0:0:0:0:
256,192,9959,1,0,0:0:0:0:
256,192,10530,1,8,0:0:0:0:
256,192,10816,1,0,0:0:0:0:
256,192,10887,1,0,0:0:0:0:
256,192,10959,1,0,0:0:0:0:
256,192,11101,1,8,0:0:0:0:
256,192,11387,1,0,0:0:0:0:
256,192,11673,1,0,0:0:0:0:
256,192,11816,1,0,0:0:0:0:
256,192,11959,1,8,0:0:0:0:
256,192,12101,1,0,0:0:0:0:
256,192,12244,1,8,0:0:0:0:
256,192,12530,1,8,0:0:0:0:
256,192,12601,1,8,0:0:0:0:
256,192,12673,1,8,0:0:0:0:
256,192,12816,1,0,0:0:0:0:
256,192,13101,1,0,0:0:0:0:
256,192,13530,1,8,0:0:0:0:
256,192,13601,1,8,0:0:0:0:
256,192,13673,1,8,0:0:0:0:
256,192,13816,1,0,0:0:0:0:
256,192,13959,1,8,0:0:0:0:
256,192,14244,1,0,0:0:0:0:
256,192,14387,1,0,0:0:0:0:
256,192,14530,1,8,0:0:0:0:
256,192,14673,1,8,0:0:0:0:
256,192,14816,1,0,0:0:0:0:
256,192,15101,1,0,0:0:0:0:
256,192,15244,1,0,0:0:0:0:
256,192,15387,1,8,0:0:0:0:
256,192,15530,1,0,0:0:0:0:
256,192,15673,1,8,0:0:0:0:
256,192,15959,1,8,0:0:0:0:
256,192,16030,1,8,0:0:0:0:
256,192,16101,1,8,0:0:0:0:
256,192,16244,1,0,0:0:0:0:
256,192,16387,1,0,0:0:0:0:
256,192,16530,1,8,0:0:0:0:
256,192,16673,1,8,0:0:0:0:
256,192,16816,1,0,0:0:0:0:
256,192,17387,1,8,0:0:0:0:
256,192,17673,1,0,0:0:0:0:
256,192,17816,1,8,0:0:0:0:
256,192,17887,1,8,0:0:0:0:
256,192,17959,1,8,0:0:0:0:
256,192,18101,1,8,0:0:0:0:
256,192,18244,1,0,0:0:0:0:
256,192,18530,1,8,0:0:0:0:
256,192,18816,1,0,0:0:0:0:
256,192,18959,1,0,0:0:0:0:
256,192,19101,1,8,0:0:0:0:
256,192,19387,1,8,0:0:0:0:
256,192,19459,1,8,0:0:0:0:
256,192,19530,1,8,0:0:0:0:
256,192,19673,1,0,0:0:0:0:
256,192,19959,1,8,0:0:0:0:
256,192,20030,1,8,0:0:0:0:
256,192,20101,1,8,0:0:0:0:
256,192,20244,1,0,0:0:0:0:
256,192,20816,1,0,0:0:0:0:
256,192,21101,1,8,0:0:0:0:
256,192,21173,1,8,0:0:0:0:
256,192,21244,1,8,0:0:0:0:
256,192,21387,1,0,0:0:0:0:
256,192,21673,1,8,0:0:0:0:
256,192,21744,1,8,0:0:0:0:
256,192,21816,1,8,0:0:0:0:
256,192,21959,1,0,0:0:0:0:
256,192,22101,1,0,0:0:0:0:
256,192,22244,1,8,0:0:0:0:
256,192,22387,1,8,0:0:0:0:
256,192,22530,1,0,0:0:0:0:
256,192,22816,1,0,0:0:0:0:
256,192,22887,1,0,0:0:0:0:
256,192,22959,1,0,0:0:0:0:
256,192,23101,1,8,0:0:0:0:
256,192,23387,1,0,0:0:0:0:
256,192,23459,1,0,0:0:0:0:
256,192,23530,1,0,0:0:0:0:
256,192,23673,1,8,0:0:0:0:
256,192,24244,1,0,0:0:0:0:
256,192,24530,1,8,0:0:0:0:
256,192,24673,1,8,0:0:0:0:
256,192,24816,1,0,0:0:0:0:
256,192,24959,1,0,0:0:0:0:
256,192,25101,1,8,0:0:0:0:
256,192,25387,1,8,0:0:0:0:
256,192,25530,1,0,0:0:0:0:
256,192,25673,1,8,0:0:0:0:
256,192,25816,1,0,0:0:0:0:
256,192,25959,1,8,0:0:0:0:
256,192,26244,1,8,0:0:0:0:
256,192,26387,1,0,0:0:0:0:
256,192,26530,1,8,0:0:0:0:
256,192,26673,1,8,0:0:0:0:
256,192,26816,1,0,0:0:0:0:
256,192,27101,1,0,0:0:0:0:
256,192,27244,1,0,0:0:0:0:
256,192,27387,1,8,0:0:0:0:
256,192,27530,1,0,0:0:0:0:
256,192,27673,1,8,0:0:0:0:
256,192,27959,1,0,0:0:0:0:
256,192,28244,1,0,0:0:0:0:
256,192,28530,1,0,0:0:0:0:
256,192,28816,1,8,0:0:0:0:
256,192,29101,1,8,0:0:0:0:
256,192,29387,1,0,0:0:0:0:
256,192,29673,1,8,0:0:0:0:
256,192,29959,1,0,0:0:0:0:
256,192,30244,1,0,0:0:0:0:
256,192,30530,1,0,0:0:0:0:
