osu file format v14

[General]
AudioFilename: audio.mp3
AudioLeadIn: 0
PreviewTime:0
Countdown: 0
SampleSet: Normal
StackLeniency: 0.7
Mode: 1
LetterboxInBreaks: 0
WidescreenStoryboard: 1

[Editor]
Bookmarks: 17673
DistanceSpacing: 1.3
BeatDivisor: 4
GridSize: 32
TimelineZoom: 2.7

[Metadata]
Title:Le Fishe au Chocolat (Chiptune Ver.)
TitleUnicode:Le Fishe au Chocolat (Chiptune Ver.)
Artist:yifo
ArtistUnicode:yifō
Creator:Phob
Version:Kantan
Source:
Tags:electronic instrumental french novelty chiptune short version 8bit 8-bit 16bit 16-bit happy day in paris traditionnel musette maurice roger larcange jean-claude pierric remix meme la fish chocolate poisson yifei yifo123
BeatmapID:3905457
BeatmapSetID:1895056

[Difficulty]
HPDrainRate:10
CircleSize:4
OverallDifficulty:3
ApproachRate:10
SliderMultiplier:1.4
SliderTickRate:1

[Events]
//Background and Video events
0,0,"mmmmmhmmm so yummy mmmmmmmmhhhhh.jpg",0,-48
//Break Periods
//Storyboard Layer 0 (Background)
//Storyboard Layer 1 (Fail)
//Storyboard Layer 2 (Pass)
//Storyboard Layer 3 (Foreground)
//Storyboard Layer 4 (Overlay)
//Storyboard Sound Samples

[TimingPoints]
-41,285.714285714286,14,1,0,40,1,8
3959,285.714285714286,3,1,0,70,1,0

[HitObjects]
256,192,209,12,0,1816,0:0:0:0:
256,192,3959,5,8,0:0:0:0:
256,192,4530,1,0,0:0:0:0:
256,192,5101,1,8,0:0:0:0:
256,192,5387,1,0,0:0:0:0:
256,192,5673,1,8,0:0:0:0:
256,192,6530,1,0,0:0:0:0:
256,192,7387,1,8,0:0:0:0:
256,192,7958,1,0,0:0:0:0:
256,192,8530,1,8,0:0:0:0:
256,192,8816,1,0,0:0:0:0:
256,192,9101,1,8,0:0:0:0:
256,192,9673,1,8,0:0:0:0:
256,192,9959,1,0,0:0:0:0:
256,192,10816,1,8,0:0:0:0:
256,192,11387,1,0,0:0:0:0:
256,192,11959,1,0,0:0:0:0:
256,192,12244,1,8,0:0:0:0:
256,192,12530,1,0,0:0:0:0:
256,192,13101,1,0,0:0:0:0:
256,192,13673,1,8,0:0:0:0:
256,192,13959,1,8,0:0:0:0:
256,192,14244,1,0,0:0:0:0:
256,192,14816,1,0,0:0:0:0:
256,192,15673,1,0,0:0:0:0:
256,192,15959,1,8,0:0:0:0:
256,192,16530,1,8,0:0:0:0:
256,192,16816,1,0,0:0:0:0:
256,192,17673,1,8,0:0:0:0:
256,192,17959,1,8,0:0:0:0:
256,192,18244,1,0,0:0:0:0:
256,192,18816,1,0,0:0:0:0:
256,192,19101,1,0,0:0:0:0:
256,192,19387,1,8,0:0:0:0:
256,192,20244,1,0,0:0:0:0:
256,192,21101,1,8,0:0:0:0:
256,192,21387,1,0,0:0:0:0:
256,192,21673,1,8,0:0:0:0:
256,192,22244,1,8,0:0:0:0:
256,192,22530,1,8,0:0:0:0:
256,192,22816,1,0,0:0:0:0:
256,192,23387,1,8,0:0:0:0:
256,192,23673,1,0,0:0:0:0:
256,192,24530,1,8,0:0:0:0:
256,192,25101,1,0,0:0:0:0:
256,192,25387,1,8,0:0:0:0:
256,192,25959,1,8,0:0:0:0:
256,192,26244,1,0,0:0:0:0:
256,192,26816,1,0,0:0:0:0:
256,192,27101,1,0,0:0:0:0:
256,192,27673,1,8,0:0:0:0:
256,192,27959,1,0,0:0:0:0:
256,192,28816,1,8,0:0:0:0:
256,192,29673,1,8,0:0:0:0:
256,192,30244,1,0,0:0:0:0:
256,192,30530,1,0,0:0:0:0:
