osu file format v14

[General]
AudioFilename: uokbBPOA0mG6.128.mp3
AudioLeadIn: 0
PreviewTime: 4712
Countdown: 0
SampleSet: Soft
StackLeniency: 0.7
Mode: 2
LetterboxInBreaks: 0
WidescreenStoryboard: 0

[Editor]
Bookmarks: 31020,31250
DistanceSpacing: 2
BeatDivisor: 4
GridSize: 4
TimelineZoom: 1

[Metadata]
Title:wh
TitleUnicode:wh
Artist:yes we cant
ArtistUnicode:yes we cant
Creator:Negri_sk
Version:Magic
Source:
Tags:-Neptune- - Magic Bomb - soundclown barney spaghetti boss yakety sax boots randolph sidney samson riverside
BeatmapID:670336
BeatmapSetID:298711

[Difficulty]
HPDrainRate:7
CircleSize:4
OverallDifficulty:9
ApproachRate:9
SliderMultiplier:1.4
SliderTickRate:1

[Events]
//Background and Video events
0,0,"boxxy-298363-2042x1276.jpg",0,0
//Break Periods
//Storyboard Layer 0 (Background)
//Storyboard Layer 1 (Fail)
//Storyboard Layer 2 (Pass)
//Storyboard Layer 3 (Foreground)
//Storyboard Sound Samples

[TimingPoints]
1020,461.538461538462,4,2,0,80,1,0
7481,-50,4,2,0,80,0,0
7943,-100,4,2,0,80,0,0
10712,-66.6666666666667,4,2,0,80,0,0
11173,-50,4,2,0,80,0,0
12096,-100,4,2,0,80,0,0
23173,-100,4,1,0,80,0,1
30558,-66.6666666666667,4,1,0,80,0,1
34250,-100,4,2,0,80,0,0

[HitObjects]
136,108,1020,5,8,0:0:0:0:
320,136,1250,2,0,L|420:164,2,70
236,60,1943,1,8,0:0:0:0:
136,140,2173,1,0,0:0:0:0:
360,188,2404,1,8,0:0:0:0:
56,212,2635,1,0,0:0:0:0:
236,152,2866,6,0,L|292:132,2,35
60,280,3212,1,0,0:0:0:0:
300,320,3558,1,0,0:0:0:0:
60,280,3673,1,0,0:0:0:0:
184,60,3789,1,0,0:0:0:0:
348,88,4020,6,0,L|408:92,2,35
212,80,4366,2,0,L|232:112,1,35
420,184,4596,1,0,0:0:0:0:
148,136,4712,6,4,P|136:172|148:224,1,70
316,204,5058,1,8,0:0:0:0:
504,228,5173,2,4,P|492:268|448:292,1,70
272,316,5520,1,8,0:0:0:0:
112,260,5635,2,4,P|112:212|128:188,1,70
304,88,5981,1,8,0:0:0:0:
472,116,6097,2,4,P|448:168|416:200,1,70
236,208,6443,6,2,L|184:208,2,35
444,200,6789,2,0,P|424:236|396:272,1,70
224,296,7250,2,2,L|176:296,2,35
408,128,7712,5,0,0:0:0:0:
336,136,7827,1,0,0:0:0:0:
268,144,7943,1,8,0:0:0:0:
120,92,8173,6,0,L|140:136,1,35
336,44,8404,1,0,0:0:0:0:
20,20,8635,1,0,0:0:0:0:
152,260,8866,5,0,0:0:0:0:
320,232,9096,1,8,0:0:0:0:
152,192,9327,1,0,0:0:0:0:
344,164,9558,1,8,0:0:0:0:
168,124,9789,1,0,0:0:0:0:
384,100,10020,1,8,0:0:0:0:
184,56,10250,5,0,0:0:0:0:
296,56,10366,1,0,0:0:0:0:
416,36,10481,1,8,0:0:0:0:
312,0,10596,1,0,0:0:0:0:
216,0,10712,1,0,0:0:0:0:
312,76,10827,1,8,0:0:0:0:
92,64,10943,5,0,0:0:0:0:
212,136,11058,1,0,0:0:0:0:
252,324,11173,1,0,0:0:0:0:
124,260,11289,1,0,0:0:0:0:
368,96,11404,1,8,0:0:0:0:
496,244,11520,1,0,0:0:0:0:
176,160,11635,6,0,L|123:205,1,70
312,156,11866,2,0,L|366:200,1,70
72,248,12096,6,2,L|32:244,2,35
276,264,12558,1,8,0:0:0:0:
92,136,12789,1,0,0:0:0:0:
364,68,13020,1,8,0:0:0:0:
188,56,13250,1,0,0:0:0:0:
440,216,13481,1,8,0:0:0:0:
88,288,13712,1,0,0:0:0:0:
456,164,13943,6,8,P|472:220|448:252,1,70
104,136,14404,2,8,P|104:192|124:216,1,70
360,104,14866,1,8,0:0:0:0:
12,180,15096,1,8,0:0:0:0:
240,336,15327,1,8,0:0:0:0:
432,276,15558,6,0,P|404:228|368:208,1,70
56,240,16020,2,8,P|92:192|132:184,1,70
496,132,16481,2,0,L|416:132,1,70
208,168,16943,1,8,0:0:0:0:
272,200,17173,1,0,0:0:0:0:
152,128,17404,1,8,0:0:0:0:
336,236,17635,5,0,0:0:0:0:
156,260,17866,1,8,0:0:0:0:
468,160,18096,1,0,0:0:0:0:
96,240,18327,1,8,0:0:0:0:
408,128,18558,2,4,L|244:132,1,140
296,280,19481,5,0,0:0:0:0:
64,176,19712,1,8,0:0:0:0:
148,48,19943,1,0,0:0:0:0:
352,124,20173,1,8,0:0:0:0:
484,272,20404,1,8,0:0:0:0:
152,276,20635,1,0,0:0:0:0:
468,96,20866,1,8,0:0:0:0:
168,128,21096,1,0,0:0:0:0:
256,192,21327,12,0,22250,0:0:0:0:
140,220,22481,6,4,P|160:140|292:152,1,210
396,168,23289,5,0,0:0:0:0:
372,304,23404,1,8,0:0:0:0:
176,296,23520,1,0,0:0:0:0:
48,176,23635,1,8,0:0:0:0:
232,148,23750,5,0,0:0:0:0:
164,120,23866,1,8,0:0:0:0:
232,148,23981,1,0,0:0:0:0:
164,120,24096,1,8,0:0:0:0:
292,40,24212,5,0,0:0:0:0:
428,52,24327,1,8,0:0:0:0:
344,128,24443,1,0,0:0:0:0:
208,128,24558,1,8,0:0:0:0:
88,164,24673,1,0,0:0:0:0:
204,280,24789,5,8,0:0:0:0:
428,240,24904,1,0,0:0:0:0:
364,176,25020,1,8,0:0:0:0:
64,216,25135,1,0,0:0:0:0:
112,160,25250,1,8,0:0:0:0:
408,48,25366,6,0,P|432:76|440:168,1,105
240,204,25827,1,0,0:0:0:0:
240,204,25943,1,8,0:0:0:0:
128,136,26404,5,0,0:0:0:0:
196,184,26520,1,8,0:0:0:0:
388,168,26635,1,0,0:0:0:0:
440,232,26750,1,8,0:0:0:0:
392,296,26866,5,0,0:0:0:0:
36,216,27096,1,4,0:0:0:0:
396,140,27327,1,0,0:0:0:0:
308,132,27443,1,8,0:0:0:0:
344,44,27558,1,0,0:0:0:0:
260,40,27673,1,8,0:0:0:0:
68,128,27789,5,0,0:0:0:0:
148,128,27904,1,8,0:0:0:0:
352,128,28020,1,0,0:0:0:0:
268,124,28135,1,8,0:0:0:0:
152,180,28250,1,0,0:0:0:0:
212,136,28366,1,8,0:0:0:0:
0,304,28481,1,0,0:0:0:0:
292,228,28596,6,8,P|308:232|356:236,1,35
104,248,28943,1,0,0:0:0:0:
52,144,29058,1,8,0:0:0:0:
320,52,29173,1,0,0:0:0:0:
384,80,29289,1,8,0:0:0:0:
112,56,29404,2,0,P|84:76|68:96,1,35
208,176,29635,1,8,0:0:0:0:
416,136,30096,6,2,L|464:132,3,35
304,232,30558,6,8,L|368:232,1,52.5000020027161
172,232,30789,2,4,L|108:232,1,52.5000020027161
432,232,31020,2,8,L|500:232,1,52.5000020027161
80,232,31250,2,4,L|12:232,1,52.5000020027161
304,232,31481,6,8,L|356:232,1,52.5000020027161
172,232,31712,2,4,L|119:232,1,52.5000020027161
432,232,31943,2,8,L|484:232,1,52.5000020027161
80,232,32173,2,4,L|27:232,1,52.5000020027161
220,160,32404,6,0,P|356:148|380:140,4,105.000004005432
236,72,33443,1,0,0:0:0:0:
332,246,33558,2,0,L|364:204,1,52.5000020027161
92,151,33789,2,0,L|64:196,1,52.5000020027161
240,96,34250,5,0,0:0:0:0:
240,96,34366,1,0,0:0:0:0:
416,96,34481,1,8,0:0:0:0:
468,144,34597,1,0,0:0:0:0:
168,76,34712,1,8,0:0:0:0:
108,120,34827,1,0,0:0:0:0:
376,84,35173,5,8,0:0:0:0:
324,132,35289,1,0,0:0:0:0:
88,36,35404,1,0,0:0:0:0:
152,28,35520,1,8,0:0:0:0:
364,48,35635,2,0,P|356:128|352:144,1,70
208,176,36096,6,0,L|156:168,2,35
488,200,36443,2,0,L|509:228,1,35
268,188,36673,2,0,L|240:209,1,35
46,80,36904,2,0,L|11:80,1,35
324,76,37135,2,0,L|359:76,2,35
24,248,37481,6,4,P|16:304|28:336,1,70
