osu file format v14

[General]
AudioFilename: audio.mp3
AudioLeadIn: 0
PreviewTime: 93618
Countdown: 0
SampleSet: Normal
StackLeniency: 0.7
Mode: 1
LetterboxInBreaks: 0
WidescreenStoryboard: 0

[Editor]
Bookmarks: 94249,124565,149828,160723,195302,228776,259091,284354
DistanceSpacing: 0.9
BeatDivisor: 4
GridSize: 32
TimelineZoom: 3.5

[Metadata]
Title:Littleroot Happy Tune
TitleUnicode:Littleroot Happy Tune
Artist:yaseta
ArtistUnicode:yaseta
Creator:WitchRabbit
Version:The Beginning of Spring
Source:ポケットモンスター ルビー・サファイア
Tags:Littleroot town emerald omega ruby alpha sapphire pokémon pokemon Instrumental electronic PMM Second Story RSE Portable Memories March SBFR-0056 video game music vgm SBFR Junichi Masuda 増田順 Go Gou Ichinose 之瀬剛 Morikazu Aoki 青木森 yaseta ミシロタウン
BeatmapID:3414767
BeatmapSetID:1671882

[Difficulty]
HPDrainRate:5.5
CircleSize:5
OverallDifficulty:6.5
ApproachRate:5
SliderMultiplier:1.4
SliderTickRate:1

[Events]
//Background and Video events
0,0,"2d616f1f1e535b1c54095b917cf1ef3d85a322b3.jpg",0,-70
//Break Periods
//Storyboard Layer 0 (Background)
//Storyboard Layer 1 (Fail)
//Storyboard Layer 2 (Pass)
//Storyboard Layer 3 (Foreground)
//Storyboard Layer 4 (Overlay)
//Storyboard Sound Samples

[TimingPoints]
145,315.789473684211,4,1,0,100,1,8
145,-125,4,1,0,60,0,8
301,-124.842665806035,4,1,0,60,0,0
459,-124.683717706974,4,1,0,60,0,0
776,315.789473684211,4,1,0,100,1,0
776,-124.366033034602,4,1,0,100,0,0
1249,-123.895009928896,4,1,0,60,0,0
1407,-123.738464245158,4,1,0,60,0,0
1565,-123.5823136641,4,1,0,60,0,0
1881,-123.271191841938,4,1,0,60,0,0
2039,-123.116217635545,4,1,0,60,0,0
2512,-122.654596475652,4,1,0,60,0,0
2670,-122.501167771101,4,1,0,60,0,0
2828,-122.348122435102,4,1,0,60,0,0
3144,-122.043176135602,4,1,0,60,0,0
3302,-121.891272323363,4,1,0,60,0,0
3776,-121.437821292626,4,1,0,60,0,0
3933,-121.288370488822,4,1,0,60,0,0
4091,-121.13833868316,4,1,0,60,0,0
4407,-120.839385845712,4,1,0,60,0,0
4565,-120.690462076066,4,1,0,60,0,0
5039,-120.24588507748,4,1,0,60,0,0
5197,-120.098419696358,4,1,0,60,0,0
5354,-119.952245470684,4,1,0,60,0,0
5512,-119.805498989555,4,1,0,60,0,0
5670,-119.659111121422,4,1,0,60,0,0
5828,-119.513080553346,4,1,0,60,0,0
6302,-119.077119615826,4,1,0,60,0,0
6460,-118.932505246005,4,1,0,60,0,0
6618,-118.78824170678,4,1,0,60,0,0
6933,-118.501669576938,4,1,0,60,0,0
7091,-118.358448711084,4,1,0,60,0,0
7565,-117.930855766592,4,1,0,60,0,0
7723,-117.789010520546,4,1,0,60,0,0
7881,-117.647506082725,4,1,0,60,0,0
8197,-117.365514730423,4,1,0,60,0,0
8354,-117.225913495413,4,1,0,60,0,0
8828,-116.806449908279,4,1,0,60,0,0
8986,-116.667295004713,4,1,0,60,0,0
9144,-116.528471265147,4,1,0,60,0,0
9302,-116.38997750882,4,1,0,60,0,0
9460,-116.251812560575,4,1,0,60,0,0
9618,-116.113975250831,4,1,0,60,0,0
10091,-115.703282733867,4,1,0,60,0,0
10249,-115.566742351816,4,1,0,60,0,0
10407,-115.430523850022,4,1,0,60,0,0
10565,-115.294626091622,4,1,0,60,0,0
10723,-115.159047945104,4,1,0,60,0,0
10881,-115.02378828427,4,1,0,60,0,0
11354,-114.620758113384,4,1,0,60,0,0
11511,-114.4876063633,4,1,0,60,0,0
11669,-114.353918467496,4,1,0,60,0,0
11986,-114.0866359447,4,1,0,60,0,0
12144,-113.953882297489,4,1,0,60,0,0
12618,-113.557468607117,4,1,0,60,0,0
12776,-113.425942894843,4,1,0,60,0,0
12933,-113.29555106464,4,1,0,60,0,0
13249,-113.034013207878,4,1,0,60,0,0
13407,-112.903696569035,4,1,0,60,0,0
13881,-112.514543339151,4,1,0,60,0,0
14039,-112.385421054925,4,1,0,60,0,0
14197,-112.256594793813,4,1,0,60,0,0
14512,-112.000636984169,4,1,0,60,0,0
14670,-111.872690858874,4,1,0,60,0,0
15144,-111.490600433771,4,1,0,60,0,0
15302,-111.363816296126,4,1,0,60,0,0
15460,-111.237320182029,4,1,0,60,0,0
15618,-111.111111111111,4,1,0,60,0,0
15776,-110.985188107449,4,1,0,60,0,0
15933,-110.860344481701,4,1,0,60,0,0
16407,-110.485126315639,4,1,0,60,0,0
16565,-110.360617386095,4,1,0,60,0,0
16723,-110.23638876619,4,1,0,60,0,0
17039,-109.988768677405,4,1,0,60,0,0
17197,-109.865375330171,4,1,0,60,0,0
17670,-109.497625770475,4,1,0,60,0,0
17828,-109.375331349361,4,1,0,60,0,0
17986,-109.253309796999,4,1,0,60,0,0
18302,-109.010081653645,4,1,0,60,0,0
18460,-108.88887325034,4,1,0,60,0,0
18933,-108.527621131779,4,1,0,60,0,0
19091,-108.407482659567,4,1,0,60,0,0
19249,-108.287609876267,4,1,0,60,0,0
19407,-108.168001901486,4,1,0,60,0,0
19565,-108.048657858719,4,1,0,60,0,0
19723,-107.929576875323,4,1,0,60,0,0
20197,-107.573903612448,4,1,0,60,0,0
20354,-107.456612474218,4,1,0,60,0,0
20512,-107.338832196794,4,1,0,60,0,0
20670,-107.221309828216,4,1,0,60,0,0
20828,-107.104044522278,4,1,0,60,0,0
20986,-106.987035436474,4,1,0,60,0,0
21460,-106.637537129822,4,1,0,60,0,0
21618,-106.521544572723,4,1,0,60,0,0
21776,-106.405804077984,4,1,0,60,0,0
22091,-106.175804570095,4,1,0,60,0,0
22249,-106.060813774951,4,1,0,60,0,0
22723,-105.717331001216,4,1,0,60,0,0
22881,-105.603330603331,4,1,0,60,0,0
23039,-105.489575805506,4,1,0,60,0,0
23354,-105.263515949739,4,1,0,60,0,0
23512,-105.15049167182,4,1,0,60,0,0
23986,-104.812870448772,4,1,0,60,0,0
24144,-104.700811324713,4,1,0,60,0,0
24302,-104.588991557445,4,1,0,60,0,0
24618,-104.366067032248,4,1,0,60,0,0
24776,-104.254960751946,4,1,0,60,0,0
25249,-103.923754768685,4,1,0,60,0,0
25407,-103.813587751432,4,1,0,60,0,0
25565,-103.703654057532,4,1,0,60,0,0
25881,-103.484483681113,4,1,0,60,0,0
26039,-103.375245527065,4,1,0,60,0,0
26512,-103.049596739282,4,1,0,60,0,0
26670,-102.941274308258,4,1,0,60,0,0
26828,-102.833179368234,4,1,0,60,0,0
27144,-102.617669100628,4,1,0,60,0,0
27302,-102.510252350256,4,1,0,60,0,0
27776,-102.189347158472,4,1,0,60,0,0
27933,-102.083498271449,4,1,0,60,0,0
28091,-101.977196335596,4,1,0,60,0,0
28407,-101.7652552517,4,1,0,60,0,0
28565,-101.659614727602,4,1,0,60,0,0
29039,-101.344005030194,4,1,0,60,0,0
29197,-101.239236829019,4,1,0,60,0,0
29354,-101.135346061585,4,1,0,60,0,0
29670,-100.926886223248,4,1,0,60,0,0
29828,-100.822978229847,4,1,0,60,0,0
30460,-100.40947702451,4,1,0,60,0,0
31091,-100,4,1,0,70,0,0
51302,-100,4,1,0,75,0,0
51618,-100,4,1,0,75,0,0
51776,-100,4,1,0,75,0,0
51933,-100,4,1,0,75,0,0
52091,-100,4,1,0,75,0,0
52170,-100,4,1,0,75,0,0
52249,-100,4,1,0,75,0,0
52407,-100,4,1,0,76,0,0
52565,-100,4,1,0,76,0,0
52881,-100,4,1,0,76,0,0
53039,-100,4,1,0,76,0,0
53197,-100,4,1,0,76,0,0
53354,-100,4,1,0,76,0,0
53433,-100,4,1,0,76,0,0
53512,-100,4,1,0,76,0,0
53670,-100,4,1,0,76,0,0
53828,-100,4,1,0,76,0,0
54144,-100,4,1,0,76,0,0
54302,-100,4,1,0,76,0,0
54460,-100,4,1,0,77,0,0
54618,-100,4,1,0,77,0,0
54697,-100,4,1,0,77,0,0
54776,-100,4,1,0,77,0,0
54933,-100,4,1,0,77,0,0
55091,-100,4,1,0,77,0,0
55565,-100,4,1,0,77,0,0
56039,-100,4,1,0,77,0,0
56276,-100,4,1,0,77,0,0
56354,-100,4,1,0,77,0,0
56670,-100,4,1,0,78,0,0
56828,-100,4,1,0,78,0,0
56986,-100,4,1,0,78,0,0
57144,-100,4,1,0,78,0,0
57223,-100,4,1,0,78,0,0
57302,-100,4,1,0,78,0,0
57460,-100,4,1,0,78,0,0
57618,-100,4,1,0,78,0,0
57933,-100,4,1,0,78,0,0
58091,-100,4,1,0,78,0,0
58249,-100,4,1,0,78,0,0
58407,-100,4,1,0,79,0,0
58486,-100,4,1,0,79,0,0
58565,-100,4,1,0,79,0,0
58723,-100,4,1,0,79,0,0
58881,-100,4,1,0,79,0,0
59039,-98.460339115182,4,1,0,79,0,0
59197,-96.967370441459,4,1,0,79,0,0
59354,-95.5280325234,4,1,0,79,0,0
59512,-94.122030740568,4,1,0,79,0,0
59670,-92.756816304048,4,1,0,79,0,0
59828,-91.430639761108,4,1,0,79,0,0
59986,-90.141850298867,4,1,0,79,0,0
60144,-88.888888888889,4,1,0,80,0,0
60223,-88.275380045431,4,1,0,80,0,0
60302,-87.670281995662,4,1,0,80,0,0
60381,-87.073422957601,4,1,0,80,0,0
60460,-86.4846357956,4,1,0,80,0,0
60539,-85.903757864309,4,1,0,80,0,0
60618,-85.33063085888,4,1,0,80,0,0
60697,-84.765100671141,4,1,0,80,0,0
60776,-84.207017251438,4,1,0,80,0,0
60933,-83.119447186575,4,1,0,80,0,0
61091,-82.05294786422,4,1,0,80,0,0
61249,-81.013470173188,4,1,0,80,0,0
61407,-80,4,1,0,100,0,0
61881,-151.515151515152,4,1,0,30,0,0
62039,-151.515151515152,4,1,0,30,0,0
62197,-151.515151515152,4,1,0,30,0,0
62354,-151.515151515152,4,1,0,30,0,0
62512,-151.515151515152,4,1,0,30,0,0
62670,-151.515151515152,4,1,0,31,0,0
63144,-151.515151515152,4,1,0,31,0,0
63302,-151.515151515152,4,1,0,31,0,0
63618,-151.515151515152,4,1,0,31,0,0
63776,-151.515151515152,4,1,0,31,0,0
63933,-151.515151515152,4,1,0,31,0,0
64249,-151.515151515152,4,1,0,32,0,0
64565,-151.515151515152,4,1,0,32,0,0
64881,-151.515151515152,4,1,0,32,0,0
65039,-151.515151515152,4,1,0,32,0,0
65197,-151.515151515152,4,1,0,32,0,0
65354,-151.515151515152,4,1,0,32,0,0
65512,-151.515151515152,4,1,0,32,0,0
65670,-151.515151515152,4,1,0,33,0,0
65828,-151.515151515152,4,1,0,33,0,0
66144,-151.515151515152,4,1,0,33,0,0
66302,-151.515151515152,4,1,0,33,0,0
66460,-151.515151515152,4,1,0,33,0,0
67091,-151.515151515152,4,1,0,34,0,0
67249,-151.515151515152,4,1,0,34,0,0
67407,-151.515151515152,4,1,0,34,0,0
67565,-151.515151515152,4,1,0,34,0,0
67723,-151.515151515152,4,1,0,34,0,0
68354,-151.515151515152,4,1,0,34,0,0
68512,-151.515151515152,4,1,0,35,0,0
68670,-151.515151515152,4,1,0,35,0,0
68828,-151.515151515152,4,1,0,35,0,0
68986,-151.515151515152,4,1,0,35,0,0
69933,-151.515151515152,4,1,0,35,0,0
70091,-151.515151515152,4,1,0,36,0,0
70249,-151.515151515152,4,1,0,36,0,0
70723,-151.515151515152,4,1,0,36,0,0
70881,-151.515151515152,4,1,0,36,0,0
71039,-151.515151515152,4,1,0,36,0,0
71197,-151.515151515152,4,1,0,36,0,0
71354,-151.515151515152,4,1,0,36,0,0
71512,-151.515151515152,4,1,0,37,0,0
71986,-150.446008550978,4,1,0,37,0,0
72144,-150.092972690386,4,1,0,37,0,0
72302,-149.74158981532,4,1,0,37,0,0
72460,-149.391848343474,4,1,0,38,0,0
72618,-149.0437368005,4,1,0,38,0,0
72933,-148.35453592599,4,1,0,38,0,0
72973,-148.267474171295,4,1,0,38,0,0
73249,-147.669521864032,4,1,0,38,0,0
73407,-147.32938161313,4,1,0,38,0,0
73565,-146.990804711385,4,1,0,38,0,0
73723,-146.653780405337,4,1,0,38,0,0
73881,-146.31829803992,4,1,0,38,0,0
74039,-145.984347057345,4,1,0,39,0,0
74354,-145.3230871881,4,1,0,39,0,0
74670,-144.665719978929,4,1,0,39,0,0
74986,-144.014273173957,4,1,0,39,0,0
75144,-143.690744985184,4,1,0,39,0,0
75302,-143.368667150899,4,1,0,39,0,0
75460,-143.048029940154,4,1,0,39,0,0
75618,-142.728823708859,4,1,0,39,0,0
75776,-142.411038898816,4,1,0,40,0,0
75933,-142.096663976401,4,1,0,40,0,0
76249,-141.468098985674,4,1,0,40,0,0
76407,-141.155897232473,4,1,0,40,0,0
76565,-141.700318355661,4,1,0,50,0,0
77197,-140.561482932123,4,1,0,50,0,0
77354,-140.281408905923,4,1,0,50,0,0
77512,-140.000675515925,4,1,0,50,0,0
77670,-139.721063498083,4,1,0,50,0,0
77828,-139.442566146911,4,1,0,50,0,0
78460,-138.339591155611,4,1,0,50,0,0
78618,-138.066568404573,4,1,0,50,0,0
78776,-137.794621189455,4,1,0,50,0,0
78933,-137.52545423629,4,1,0,50,0,0
79091,-137.255632406568,4,1,0,50,0,0
80039,-135.658676877887,4,1,0,50,0,0
80197,-135.396123489758,4,1,0,50,0,0
80354,-135.136236561769,4,1,0,50,0,0
80828,-134.357627915269,4,1,0,50,0,0
80986,-134.100081689435,4,1,0,50,0,0
81302,-133.587940022399,4,1,0,50,0,0
81460,-133.333333333333,4,1,0,50,0,0
81618,-80,4,1,0,100,0,0
82249,-133.333333333333,4,1,0,60,0,0
84144,-80,4,1,0,100,0,0
84933,-133.333333333333,4,1,0,70,0,0
86670,-80,4,1,0,100,0,0
87302,-133.333333333333,4,1,0,100,0,0
87460,-131.735618672026,4,1,0,80,0,0
87618,-130.175740997489,4,1,0,80,0,0
87776,-128.652371958671,4,1,0,80,0,0
87933,-127.173554929165,4,1,0,100,0,0
88091,-125.719248724351,4,1,0,80,0,0
88249,-124.297828187055,4,1,0,80,0,0
88407,-122.908190341412,4,1,0,80,0,0
88565,-121.549280990868,4,1,0,100,0,0
88881,-118.9196590559,4,1,0,90,0,0
89039,-117.647058823529,4,1,0,90,0,0
89197,-114.501233015812,4,1,0,90,0,0
89354,-111.537646310732,4,1,0,90,0,0
89512,-108.706130787064,4,1,0,90,0,0
89670,-106.01481879435,4,1,0,90,0,0
89828,-103.453548570305,4,1,0,90,0,0
89986,-101.013117201664,4,1,0,90,0,0
90144,-98.685170136067,4,1,0,90,0,0
90302,-96.462105627635,4,1,0,90,0,0
90460,-94.336991813238,4,1,0,90,0,0
90539,-93.309165418867,4,1,0,90,0,0
90618,-92.303494513633,4,1,0,90,0,0
90697,-91.31927037137,4,1,0,90,0,0
90776,-90.355814175331,4,1,0,90,0,0
90854,-89.424293347935,4,1,0,90,0,0
90933,-88.500205553687,4,1,0,90,0,0
91012,-87.595020992472,4,1,0,90,0,0
91091,-86.70816550714,4,1,0,90,0,0
91170,-85.83908795969,4,1,0,90,0,0
91249,-84.987259089115,4,1,0,90,0,0
91328,-84.152170436575,4,1,0,90,0,0
91407,-83.333333333333,4,1,0,90,0,0
91565,-84.906787762906,4,1,0,90,0,0
91723,-86.540803897686,4,1,0,90,0,0
92197,-91.843329886246,4,1,0,90,0,0
92354,-93.745876764745,4,1,0,90,0,0
92512,-95.741813771729,4,1,0,90,0,0
92670,-97.824590389646,4,1,0,90,0,0
92828,-100,4,1,0,90,0,0
92986,-97.295446764807,4,1,0,90,0,0
93302,-92.302695680416,4,1,0,90,0,0
93618,-87.79734321903,4,1,0,90,0,0
93697,-86.738898214558,4,1,0,90,0,0
93776,-85.705669481303,4,1,0,90,0,0
93854,-84.709388971684,4,1,0,90,0,0
93933,-83.723670643688,4,1,0,90,0,0
94091,-81.819490427523,4,1,0,90,0,0
94249,-80,4,1,0,100,0,1
94486,-80.86702030364,4,1,0,100,0,1
94565,-81.160218458855,4,1,0,100,0,1
94723,-81.753039619065,4,1,0,100,0,1
94881,-82.354584827458,4,1,0,100,0,1
94960,-82.658689352155,4,1,0,100,0,1
95039,-82.965048088201,4,1,0,100,0,1
95118,-83.273686193257,4,1,0,100,0,1
95197,-83.584629200737,4,1,0,100,0,1
95354,-84.209523809524,4,1,0,100,0,1
95512,-84.847903272239,4,1,0,100,0,1
95749,-85.823829167678,4,1,0,100,0,1
95828,-86.15414596122,4,1,0,100,0,1
95986,-86.822466614297,4,1,0,100,0,1
96144,-87.501237011381,4,1,0,100,0,1
96460,-88.891122951644,4,1,0,100,0,1
96618,-89.602756384272,4,1,0,100,0,1
96776,-90.325875983247,4,1,0,100,0,1
97012,-91.427980560438,4,1,0,100,0,1
97091,-91.80293827545,4,1,0,100,0,1
97249,-92.562156503533,4,1,0,100,0,1
97407,-93.33403705072,4,1,0,100,0,1
97486,-93.7248251007,4,1,0,100,0,1
97565,-94.118899356006,4,1,0,100,0,1
97723,-94.91707369438,4,1,0,100,0,1
97881,-95.728901640232,4,1,0,100,0,1
98039,-96.554736554737,4,1,0,100,0,1
98118,-96.97302039921,4,1,0,100,0,1
98197,-97.394944098695,4,1,0,100,0,1
98276,-97.820555371169,4,1,0,100,0,1
98354,-98.244444444444,4,1,0,100,0,1
98512,-99.114449052797,4,1,0,100,0,1
98670,-100,4,1,0,100,0,1
143513,-100.007912018356,4,1,0,100,0,1
143591,-100.62893081761,4,1,0,100,0,1
143670,-101.26582278481,4,1,0,100,0,1
143749,-101.910828025478,4,1,0,100,0,1
143828,-102.564102564103,4,1,0,100,0,1
143986,-103.896103896104,4,1,0,100,0,1
144144,-105.263157894737,4,1,0,100,0,1
144302,-106.666666666667,4,1,0,100,0,1
144460,-108.108108108108,4,1,0,100,0,1
144618,-109.58904109589,4,1,0,100,0,1
144776,-111.111111111111,4,1,0,80,0,0
149828,-111.111111111111,4,1,0,90,0,0
149986,-109.803044979261,4,1,0,90,0,0
150144,-108.525419152122,4,1,0,90,0,0
150302,-107.27718327631,4,1,0,90,0,0
150460,-106.0573347727,4,1,0,90,0,0
150618,-104.864916150763,4,1,0,90,0,0
150776,-103.699012502052,4,1,0,90,0,0
150933,-102.558749159069,4,1,0,90,0,0
151091,-101.443289506895,4,1,0,90,0,0
151249,-100.358667029874,4,1,0,90,0,0
151407,-99.290302295288,4,1,0,90,0,0
151565,-98.244444444444,4,1,0,90,0,0
151723,-97.22038967322,4,1,0,90,0,0
151881,-96.217463219291,4,1,0,90,0,0
152039,-95.235017879454,4,1,0,90,0,0
152197,-94.272432616854,4,1,0,90,0,0
152354,-93.33502227289,4,1,0,90,0,0
152433,-92.870347029661,4,1,0,90,0,0
152512,-92.410275704939,4,1,0,90,0,0
152591,-91.949002724569,4,1,0,90,0,0
152670,-91.503673807306,4,1,0,90,0,0
152749,-91.05701103971,4,1,0,90,0,0
152828,-90.61468773699,4,1,0,90,0,0
152907,-90.176640966018,4,1,0,90,0,0
152986,-89.74280900473,4,1,0,90,0,0
153065,-89.313131313131,4,1,0,90,0,0
153144,-88.887548505137,4,1,0,90,0,0
153223,-88.466002321207,4,1,0,90,0,0
153302,-88.048435601761,4,1,0,90,0,0
153381,-87.634792261338,4,1,0,90,0,0
153460,-87.22501726349,4,1,0,90,0,0
153539,-86.819056596363,4,1,0,90,0,0
153618,-86.416857248969,4,1,0,90,0,0
154881,-80.457887457232,4,1,0,100,0,0
154960,-80.1123493703,4,1,0,100,0,0
155039,-79.769766518711,4,1,0,100,0,0
155118,-79.430101151656,4,1,0,100,0,0
155197,-79.09331615858,4,1,0,100,0,0
155276,-78.759375055671,4,1,0,100,0,0
155354,-78.432416130005,4,1,0,100,0,0
155433,-78.10402091725,4,1,0,100,0,0
155512,-77.778364208934,4,1,0,100,0,0
155591,-77.455411892498,4,1,0,100,0,0
155670,-77.135130419611,4,1,0,100,0,0
155749,-76.817486794551,4,1,0,100,0,0
155828,-76.502448562875,4,1,0,100,0,0
155907,-76.189983800365,4,1,0,100,0,0
155986,-75.880061102243,4,1,0,100,0,0
156065,-75.57264957265,4,1,0,100,0,0
156144,-75.267718814376,4,1,0,100,0,0
156223,-74.965238918846,4,1,0,100,0,0
156302,-74.665180456334,4,1,0,100,0,0
156381,-74.367514466424,4,1,0,100,0,0
156460,-74.072212448689,4,1,0,100,0,0
156539,-73.779246353593,4,1,0,100,0,0
156618,-73.488588573613,4,1,0,100,0,0
156697,-73.200211934565,4,1,0,100,0,0
156776,-72.914089687134,4,1,0,100,0,0
156854,-72.63377528053,4,1,0,100,0,0
156933,-72.352055511914,4,1,0,100,0,0
157012,-72.072512675046,4,1,0,100,0,0
157091,-71.79512163435,4,1,0,100,0,0
157170,-71.519857639731,4,1,0,100,0,0
157249,-71.246696319216,4,1,0,100,0,0
157328,-70.975613671756,4,1,0,100,0,0
157407,-70.706586060199,4,1,0,100,0,0
157486,-70.43959020442,4,1,0,100,0,0
157565,-70.174603174603,4,1,0,100,0,0
157644,-69.91160238468,4,1,0,100,0,0
157723,-69.650565585909,4,1,0,100,0,0
157802,-69.391470860605,4,1,0,100,0,0
157881,-69.134296616,4,1,0,100,0,0
157960,-68.87902157825,4,1,0,100,0,0
158039,-68.625624786564,4,1,0,100,0,0
158118,-68.374085587467,4,1,0,100,0,0
158197,-68.124383629191,4,1,0,100,0,0
158276,-67.876498856187,4,1,0,100,0,0
158354,-67.633515382379,4,1,0,100,0,0
158433,-67.389183586367,4,1,0,100,0,0
158512,-67.146610774441,4,1,0,100,0,0
158591,-66.905778019916,4,1,0,100,0,0
158670,-66.666666666667,4,1,0,100,0,0
158749,-68.086253369272,4,1,0,100,0,0
158828,-69.567612228036,4,1,0,100,0,0
158907,-71.114864864865,4,1,0,100,0,0
158986,-72.732507918226,4,1,0,100,0,0
159065,-74.425456688273,4,1,0,100,0,0
159144,-76.199095022624,4,1,0,100,0,0
159223,-78.059332509271,4,1,0,100,0,0
159302,-80.012670256573,4,1,0,100,0,0
159381,-82.066276803119,4,1,0,100,0,0
159460,-84.228076025342,4,1,0,100,0,0
159539,-86.506849315068,4,1,0,100,0,0
159618,-88.912354804646,4,1,0,100,0,0
159723,-90.9090909090909,4,1,0,100,0,0
159828,-92.5925925925926,4,1,0,100,0,0
159933,-94.3396226415094,4,1,0,100,0,0
160723,-100,4,1,0,80,0,0
161197,-100,4,1,0,100,0,0
161670,-151.515151515152,4,1,0,30,0,0
161829,-151.515151515152,4,1,0,30,0,0
161987,-151.515151515152,4,1,0,30,0,0
162144,-151.515151515152,4,1,0,30,0,0
162302,-151.515151515152,4,1,0,30,0,0
162460,-151.515151515152,4,1,0,31,0,0
162934,-151.515151515152,4,1,0,31,0,0
163092,-151.515151515152,4,1,0,31,0,0
163408,-151.515151515152,4,1,0,31,0,0
163566,-151.515151515152,4,1,0,31,0,0
163723,-151.515151515152,4,1,0,31,0,0
164039,-151.515151515152,4,1,0,32,0,0
164355,-151.515151515152,4,1,0,32,0,0
164671,-151.515151515152,4,1,0,32,0,0
164829,-151.515151515152,4,1,0,32,0,0
164987,-151.515151515152,4,1,0,32,0,0
165144,-151.515151515152,4,1,0,32,0,0
165302,-151.515151515152,4,1,0,32,0,0
165460,-151.515151515152,4,1,0,33,0,0
165618,-151.515151515152,4,1,0,33,0,0
165934,-151.515151515152,4,1,0,33,0,0
166092,-151.515151515152,4,1,0,33,0,0
166250,-151.515151515152,4,1,0,33,0,0
166881,-151.515151515152,4,1,0,34,0,0
167039,-151.515151515152,4,1,0,34,0,0
167197,-151.515151515152,4,1,0,34,0,0
167355,-151.515151515152,4,1,0,34,0,0
167512,-151.515151515152,4,1,0,34,0,0
168144,-151.515151515152,4,1,0,34,0,0
168302,-151.515151515152,4,1,0,35,0,0
168460,-151.515151515152,4,1,0,35,0,0
168618,-151.515151515152,4,1,0,35,0,0
168776,-151.515151515152,4,1,0,35,0,0
169723,-151.515151515152,4,1,0,35,0,0
169881,-151.515151515152,4,1,0,36,0,0
170039,-151.515151515152,4,1,0,36,0,0
170513,-151.515151515152,4,1,0,36,0,0
170671,-151.515151515152,4,1,0,36,0,0
170829,-151.515151515152,4,1,0,36,0,0
170986,-151.515151515152,4,1,0,36,0,0
171144,-151.515151515152,4,1,0,36,0,0
171302,-151.515151515152,4,1,0,37,0,0
171776,-150.631142950339,4,1,0,37,0,0
171933,-150.340608242167,4,1,0,37,0,0
172091,-150.049352289517,4,1,0,37,0,0
172249,-149.759222659381,4,1,0,38,0,0
172407,-149.470212830926,4,1,0,38,0,0
172723,-148.895526746443,4,1,0,38,0,0
172762,-148.824906509379,4,1,0,38,0,0
173039,-148.325242865541,4,1,0,38,0,0
173197,-148.041735974595,4,1,0,38,0,0
173354,-147.761094911223,4,1,0,38,0,0
173512,-147.479738483324,4,1,0,38,0,0
173670,-147.199451497856,4,1,0,38,0,0
173828,-146.920227868921,4,1,0,39,0,0
174144,-146.364946567077,4,1,0,39,0,0
174460,-145.813846804606,4,1,0,39,0,0
174776,-145.266881525139,4,1,0,39,0,0
174933,-144.996652784113,4,1,0,39,0,0
175091,-144.725715941412,4,1,0,39,0,0
175249,-144.455789740835,4,1,0,39,0,0
175407,-144.186868538101,4,1,0,40,0,0
175565,-143.918946730879,4,1,0,40,0,0
175723,-143.652018758401,4,1,0,40,0,0
176039,-143.121122280114,4,1,0,40,0,0
176197,-142.857142857143,4,1,0,40,0,0
176354,-142.857142857143,4,1,0,50,0,0
176986,-141.592176422787,4,1,0,50,0,0
177144,-141.279427389141,4,1,0,50,0,0
177302,-140.968056911703,4,1,0,50,0,0
177460,-140.65805589578,4,1,0,50,0,0
177618,-140.349415326501,4,1,0,50,0,0
178249,-139.130195354984,4,1,0,50,0,0
178407,-138.828216223642,4,1,0,50,0,0
178565,-138.527545131797,4,1,0,50,0,0
178723,-138.228173599048,4,1,0,50,0,0
178881,-137.930093218141,4,1,0,50,0,0
179828,-136.170098092056,4,1,0,50,0,0
179986,-135.880818565628,4,1,0,50,0,0
180144,-135.592765523534,4,1,0,50,0,0
180618,-134.735887795643,4,1,0,50,0,0
180776,-134.452663509127,4,1,0,50,0,0
181091,-133.891545992925,4,1,0,50,0,0
181249,-133.611856631014,4,1,0,50,0,0
181407,-80,4,1,0,100,0,0
182039,-133.333333333333,4,1,0,60,0,0
183933,-80,4,1,0,100,0,0
184723,-133.333333333333,4,1,0,70,0,0
186460,-80,4,1,0,100,0,0
187091,-133.333333333333,4,1,0,100,0,0
187249,-131.735618672026,4,1,0,80,0,0
187407,-130.175740997489,4,1,0,80,0,0
187565,-128.652371958671,4,1,0,80,0,0
187723,-127.164244664885,4,1,0,100,0,0
187881,-125.710150171883,4,1,0,80,0,0
188039,-124.28893420629,4,1,0,80,0,0
188197,-122.899494109739,4,1,0,80,0,0
188354,-121.549280990868,4,1,0,100,0,0
188670,-118.9196590559,4,1,0,90,0,0
188828,-117.647058823529,4,1,0,90,0,0
188986,-114.862840758334,4,1,0,90,0,0
189144,-112.207357859532,4,1,0,90,0,0
189302,-109.671883299963,4,1,0,90,0,0
189460,-107.248461599936,4,1,0,90,0,0
189618,-104.929825247273,4,1,0,90,0,0
189776,-102.709321904179,4,1,0,90,0,0
189933,-100.594044562712,4,1,0,90,0,0
190091,-98.551469643283,4,1,0,90,0,0
190249,-96.590193432299,4,1,0,90,0,0
190328,-95.638540478905,4,1,0,90,0,0
190407,-94.705456855031,4,1,0,90,0,0
190486,-93.790404305133,4,1,0,90,0,0
190565,-92.892865177289,4,1,0,90,0,0
190644,-92.012341446692,4,1,0,90,0,0
190723,-91.148353794169,4,1,0,90,0,0
190802,-90.30044073613,4,1,0,90,0,0
190881,-89.46815780263,4,1,0,90,0,0
190960,-88.65107676047,4,1,0,90,0,0
191039,-87.848784878488,4,1,0,90,0,0
191118,-87.060884232379,4,1,0,90,0,0
191197,-86.286991046599,4,1,0,90,0,0
191354,-84.500341926085,4,1,0,90,0,0
191512,-83.333333333333,4,1,0,90,0,0
192776,-96.775291994416,4,1,0,90,0,0
193091,-99.992963197523,4,1,0,90,0,0
193407,-103.443255441508,4,1,0,90,0,0
193486,-104.343356463634,4,1,0,90,0,0
193565,-105.259259259259,4,1,0,90,0,0
193644,-106.191383626649,4,1,0,90,0,0
193723,-107.140164367036,4,1,0,90,0,0
193881,-109.08951328113,4,1,0,90,0,0
195302,-80,4,1,0,100,0,1
196565,-80,4,1,0,100,0,1
204144,-80,4,1,0,100,0,1
204381,-84.215206758559,4,1,0,100,0,1
204618,-88.89931940859,4,1,0,100,0,1
204854,-94.111801242236,4,1,0,100,0,1
205091,-100,4,1,0,100,0,1
214250,-100.007918283316,4,1,0,100,0,1
214407,-101.266837716485,4,1,0,100,0,1
214486,-101.912369886226,4,1,0,100,0,1
214565,-102.566184830274,4,1,0,100,0,1
214723,-103.899308983218,4,1,0,100,0,1
214802,-104.578951726422,4,1,0,100,0,1
214881,-105.267544590765,4,1,0,100,0,1
215039,-106.672297297297,4,1,0,100,0,1
215197,-108.115048793015,4,1,0,100,0,1
215276,-108.85115918297,4,1,0,100,0,1
215354,-109.597362027074,4,1,0,100,0,1
215433,-110.344225056788,4,1,0,100,0,1
215512,-111.111111111111,4,1,0,80,0,0
219302,-80,4,1,0,100,0,1
220565,-100,4,1,0,80,0,0
223881,-111.111111111111,4,1,0,80,0,0
224039,-107.13476783692,4,1,0,80,0,0
224197,-103.433194839274,4,1,0,80,0,0
224354,-100,4,1,0,100,0,0
224591,-98.394852692177,4,1,0,100,0,0
224828,-96.840421277163,4,1,0,100,0,0
225065,-95.334339523591,4,1,0,100,0,0
225302,-93.874386146291,4,1,0,100,0,0
225618,-91.995947315096,4,1,0,100,0,0
225854,-90.641377589219,4,1,0,100,0,0
226091,-89.320627113434,4,1,0,100,0,0
226328,-88.037813598352,4,1,0,100,0,0
226565,-86.791325646693,4,1,0,90,0,0
226644,-86.383636579855,4,1,0,90,0,0
226723,-85.97975972066,4,1,0,90,0,0
226802,-85.579641847314,4,1,0,90,0,0
226881,-85.183230724128,4,1,0,90,0,0
227197,-83.633642277359,4,1,0,90,0,0
227512,-82.144068754947,4,1,0,90,0,0
227591,-81.778778497045,4,1,0,90,0,0
227670,-81.416722707913,4,1,0,90,0,0
227749,-81.057858617419,4,1,0,90,0,0
227828,-80.702144206199,4,1,0,90,0,0
227986,-80,4,1,0,90,0,0
228144,315.789473684211,4,1,0,100,1,8
228776,315.789473684211,4,1,0,100,1,0
228776,-100,4,1,0,100,0,1
241407,-76.923076923077,4,1,0,100,0,0
241723,-79.209783631232,4,1,0,100,0,0
242039,-81.636610432422,4,1,0,100,0,0
242354,-84.208420842084,4,1,0,100,0,0
242670,-86.95652173913,4,1,0,100,0,1
242749,-87.671803415244,4,1,0,100,0,1
242828,-88.398950131234,4,1,0,100,0,1
242907,-89.138259580775,4,1,0,100,0,1
242986,-89.890039500374,4,1,0,100,0,1
243065,-90.654608096469,4,1,0,100,0,1
243144,-91.432294494516,4,1,0,100,0,1
243223,-92.223439211391,4,1,0,100,0,1
243302,-93.028394652525,4,1,0,100,0,1
243381,-93.84752563531,4,1,0,100,0,1
243460,-94.681209940403,4,1,0,100,0,1
243539,-95.529838892671,4,1,0,100,0,1
243617,-96.382783882784,4,1,0,100,0,1
243775,-98.158078806249,4,1,0,100,0,1
243933,-100,4,1,0,100,0,1
247723,-100,4,1,0,100,0,1
247880,-101.900036306426,4,1,0,100,0,1
247960,-102.896248319687,4,1,0,100,0,1
248038,-103.886489821098,4,1,0,100,0,1
248196,-105.951931546496,4,1,0,100,0,1
248354,-108.101168314289,4,1,0,100,0,1
248512,-110.339405058315,4,1,0,100,0,1
248670,-112.672286899505,4,1,0,100,0,1
248828,-115.105946684894,4,1,0,100,0,1
248986,-116.279069767442,4,1,0,80,0,0
249618,-116.730942201304,4,1,0,80,0,0
249776,-116.504138024324,4,1,0,80,0,0
249934,-116.27821348356,4,1,0,80,0,0
250092,-116.05316347155,4,1,0,80,0,0
250250,-115.828982920299,4,1,0,80,0,0
250408,-115.605666800893,4,1,0,80,0,0
250723,-115.163007803953,4,1,0,80,0,0
250881,-114.942249830147,4,1,0,80,0,0
251197,-114.503263234228,4,1,0,80,0,0
251407,-114.213381555154,4,1,0,80,0,0
251513,-114.067617029474,4,1,0,80,0,0
251723,-113.779934186823,4,1,0,80,0,0
251828,-113.636636240419,4,1,0,80,0,0
252039,-113.349764303319,4,1,0,80,0,0
252144,-113.207547169811,4,1,0,80,0,0
252354,-112.924180840793,4,1,0,80,0,0
252460,-112.781686368344,4,1,0,80,0,0
252670,-112.500445299419,4,1,0,80,0,0
252776,-112.359017540531,4,1,0,80,0,0
252986,-112.079877911723,4,1,0,80,0,0
253091,-111.940827563391,4,1,0,80,0,0
253302,-111.66244327892,4,1,0,80,0,0
253407,-111.524426133019,4,1,0,80,0,0
253618,-111.248106527636,4,1,0,80,0,0
253723,-80,4,1,0,100,0,0
254039,-100,4,1,0,100,0,0
254670,-80,4,1,0,100,0,0
254828,-81.633708155616,4,1,0,100,0,0
254986,-83.335532392136,4,1,0,100,0,0
255144,-85.109823473925,4,1,0,100,0,0
255223,-86.02560610188,4,1,0,100,0,0
255302,-86.961310753132,4,1,0,100,0,0
255618,-90.916942565136,4,1,0,100,0,0
255933,-95.235223160434,4,1,0,100,0,0
256249,-100,4,1,0,100,0,0
256407,-100,4,1,0,80,0,0
259091,-100,4,1,0,100,0,1
272354,-66.666666666667,4,1,0,100,0,0
272670,-100,4,1,0,100,0,1
278039,-100,4,1,0,100,0,1
278196,-103.207354443309,4,1,0,100,0,1
278276,-104.922118380062,4,1,0,100,0,1
278354,-106.649778340722,4,1,0,100,0,1
278512,-110.329766324525,4,1,0,100,0,1
278670,-114.272788961773,4,1,0,100,0,1
278828,-118.508092892329,4,1,0,100,0,1
278986,-123.069427527406,4,1,0,100,0,1
279144,-127.99594628832,4,1,0,100,0,1
279302,-133.333333333333,4,1,0,80,0,0
284354,-133.333333333333,4,1,0,80,0,0
284591,-131.248763111023,4,1,0,80,0,0
284670,-130.568316051975,4,1,0,80,0,0
284828,-129.228371005456,4,1,0,80,0,0
284986,-127.915648707728,4,1,0,80,0,0
285065,-127.269238150067,4,1,0,80,0,0
285144,-126.62932790224,4,1,0,80,0,0
285302,-125.368620037807,4,1,0,80,0,0
285460,-124.132767656601,4,1,0,80,0,0
285618,-122.92104287656,4,1,0,80,0,0
285776,-121.740194578719,4,1,0,80,0,0
285933,-120.574510635719,4,1,0,80,0,0
286091,-119.430938231586,4,1,0,80,0,0
286249,-118.308854135696,4,1,0,80,0,0
286565,-116.126772894414,4,1,0,80,0,0
286723,-115.065641084958,4,1,0,80,0,0
286881,-114.023726288039,4,1,0,80,0,0
287118,-112.495759357684,4,1,0,80,0,0
287197,-112.001801396082,4,1,0,80,0,0
287354,-111.014395714764,4,1,0,80,0,0
287512,-110.044247787611,4,1,0,80,0,0
287591,-109.565504708409,4,1,0,80,0,0
287670,-109.090909090909,4,1,0,80,0,0
287828,-108.153946510111,4,1,0,80,0,0
287986,-107.232941683734,4,1,0,80,0,0
288144,-106.327490380505,4,1,0,80,0,0
288302,-105.43720190779,4,1,0,80,0,0
288460,-104.561698549506,4,1,0,80,0,0
288618,-103.700615031794,4,1,0,80,0,0
288776,-102.858915369901,4,1,0,80,0,0
290344,-100,4,1,0,40,0,0
290512,-100.76380160495,4,1,0,40,0,0
290670,-101.539360872954,4,1,0,40,0,0
291144,-103.939363717961,4,1,0,40,0,0
291302,-104.764776839566,4,1,0,40,0,0
291460,-105.603404600264,4,1,0,40,0,0
291618,-106.455566905005,4,1,0,40,0,0
291776,-107.321594068582,4,1,0,40,0,0
291933,-108.196210744874,4,1,0,40,0,0
292407,-110.925443031238,4,1,0,40,0,0
292565,-111.866044115279,4,1,0,40,0,0
292881,-113.795927280668,4,1,0,40,0,0
293039,-114.786056500909,4,1,0,40,0,0
293197,-115.793567024054,4,1,0,40,0,0
293512,-117.855931245053,4,1,0,40,0,0
293828,-120,4,1,0,40,0,0
294144,-122.223525272663,4,1,0,40,0,0
294302,-123.366477272727,4,1,0,40,0,0
294460,-124.531007288804,4,1,0,40,0,0
294618,-125.717732207479,4,1,0,40,0,0
294776,-126.927292656193,4,1,0,40,0,0
294933,-128.152474638795,4,1,0,40,0,0
295091,-129.40957347737,4,1,0,40,0,0
295407,-131.99924007346,4,1,0,40,0,0
295565,-133.333333333333,4,1,0,40,0,0
295723,-134.694668820678,4,1,0,40,0,0
296354,-140.420371867421,4,1,0,40,0,0
296512,-141.931090834809,4,1,0,40,0,0
296670,-143.474669603524,4,1,0,40,0,0
296828,-145.052192066806,4,1,0,40,0,0
296986,-146.664790318041,4,1,0,40,0,0
297618,-153.490427098675,4,1,0,40,0,0
297776,-155.297273133661,4,1,0,40,0,0
297933,-157.13531850735,4,1,0,40,0,0
298091,-159.02952620737,4,1,0,40,0,0
298249,-160.969959070199,4,1,0,40,0,0
299197,-173.685526206149,4,1,0,40,0,0
299354,-175.987841945289,4,1,0,40,0,0
299512,-178.36727708369,4,1,0,40,0,0
299986,-185.907955761684,4,1,0,40,0,0
300144,-188.565225257825,4,1,0,40,0,0
300302,-191.299559471366,4,1,0,40,0,0
300460,-194.114360216055,4,1,0,40,0,0
300618,-197.013232514178,4,1,0,40,0,0
300776,-200,4,1,0,40,0,0

[HitObjects]
199,179,301,5,0,0:0:0:0:
199,179,459,1,8,0:0:0:0:
199,179,776,1,12,0:0:0:0:
179,115,1249,1,0,0:0:0:0:
181,101,1407,1,8,0:0:0:0:
212,140,1565,1,0,0:0:0:0:
196,132,1881,1,0,0:0:0:0:
193,136,2039,1,8,0:0:0:0:
195,137,2512,1,0,0:0:0:0:
193,137,2670,1,8,0:0:0:0:
193,136,2828,1,0,0:0:0:0:
182,132,3144,1,8,0:0:0:0:
185,132,3302,1,0,0:0:0:0:
171,117,3776,1,0,0:0:0:0:
170,117,3933,1,8,0:0:0:0:
198,156,4091,1,0,0:0:0:0:
176,141,4407,1,8,0:0:0:0:
172,141,4565,1,0,0:0:0:0:
164,132,5039,1,0,0:0:0:0:
163,130,5197,1,8,0:0:0:0:
164,132,5354,1,0,0:0:0:0:
165,132,5512,1,8,0:0:0:0:
165,132,5670,1,8,0:0:0:0:
170,153,5828,1,0,0:0:0:0:
178,148,6302,1,0,0:0:0:0:
180,146,6460,1,8,0:0:0:0:
177,145,6618,1,8,0:0:0:0:
165,140,6933,1,8,0:0:0:0:
164,140,7091,1,0,0:0:0:0:
185,110,7565,1,0,0:0:0:0:
174,120,7723,1,8,0:0:0:0:
178,104,7881,1,8,0:0:0:0:
159,154,8197,1,8,0:0:0:0:
165,152,8354,1,0,0:0:0:0:
183,120,8828,1,0,0:0:0:0:
183,120,8986,1,8,0:0:0:0:
183,120,9144,1,0,0:0:0:0:
183,120,9302,1,8,0:0:0:0:
183,120,9460,1,8,0:0:0:0:
195,151,9618,1,0,0:0:0:0:
200,125,10091,1,0,0:0:0:0:
192,130,10249,1,8,0:0:0:0:
192,132,10407,1,0,0:0:0:0:
185,153,10565,1,8,0:0:0:0:
176,154,10723,1,0,0:0:0:0:
172,156,10881,1,8,0:0:0:0:
186,113,11354,1,0,0:0:0:0:
185,113,11511,1,8,0:0:0:0:
177,116,11669,1,0,0:0:0:0:
184,138,11986,1,0,0:0:0:0:
182,138,12144,1,8,0:0:0:0:
176,130,12618,1,0,0:0:0:0:
175,129,12776,1,8,0:0:0:0:
175,129,12933,1,0,0:0:0:0:
180,124,13249,1,8,0:0:0:0:
185,101,13407,1,0,0:0:0:0:
156,145,13881,1,0,0:0:0:0:
155,158,14039,1,8,0:0:0:0:
177,159,14197,1,0,0:0:0:0:
177,145,14512,1,8,0:0:0:0:
175,145,14670,1,0,0:0:0:0:
178,132,15144,1,0,0:0:0:0:
198,143,15302,1,8,0:0:0:0:
195,143,15460,1,0,0:0:0:0:
194,143,15618,1,8,0:0:0:0:
193,142,15776,1,8,0:0:0:0:
186,138,15933,1,0,0:0:0:0:
193,123,16407,1,0,0:0:0:0:
194,122,16565,1,8,0:0:0:0:
193,122,16723,1,8,0:0:0:0:
199,113,17039,1,0,0:0:0:0:
193,123,17197,1,8,0:0:0:0:
181,113,17670,1,0,0:0:0:0:
178,113,17828,1,8,0:0:0:0:
177,114,17986,1,0,0:0:0:0:
175,115,18302,1,0,0:0:0:0:
177,116,18460,1,8,0:0:0:0:
188,124,18933,1,0,0:0:0:0:
187,124,19091,1,8,0:0:0:0:
187,124,19249,1,8,0:0:0:0:
186,124,19407,1,0,0:0:0:0:
188,124,19565,1,8,0:0:0:0:
188,124,19723,1,0,0:0:0:0:
185,101,20197,1,0,0:0:0:0:
186,101,20354,1,8,0:0:0:0:
184,103,20512,1,0,0:0:0:0:
188,108,20670,1,8,0:0:0:0:
188,108,20828,1,8,0:0:0:0:
178,108,20986,1,12,0:0:0:0:
207,143,21460,1,0,0:0:0:0:
207,143,21618,1,8,0:0:0:0:
200,144,21776,1,8,0:0:0:0:
208,138,22091,1,8,0:0:0:0:
207,137,22249,1,0,0:0:0:0:
210,116,22723,1,8,0:0:0:0:
210,116,22881,1,8,0:0:0:0:
204,118,23039,1,0,0:0:0:0:
200,119,23354,1,0,0:0:0:0:
194,121,23512,1,8,0:0:0:0:
190,121,23986,1,8,0:0:0:0:
186,122,24144,1,0,0:0:0:0:
185,122,24302,1,8,0:0:0:0:
190,121,24618,1,8,0:0:0:0:
190,121,24776,1,0,0:0:0:0:
217,108,25249,1,0,0:0:0:0:
217,108,25407,1,8,0:0:0:0:
217,108,25565,1,8,0:0:0:0:
208,111,25881,1,0,0:0:0:0:
208,111,26039,1,8,0:0:0:0:
200,112,26512,1,0,0:0:0:0:
200,109,26670,1,8,0:0:0:0:
199,109,26828,1,0,0:0:0:0:
200,112,27144,1,8,0:0:0:0:
200,112,27302,1,0,0:0:0:0:
197,146,27776,1,8,0:0:0:0:
197,146,27933,1,0,0:0:0:0:
192,148,28091,1,0,0:0:0:0:
192,148,28407,1,0,0:0:0:0:
192,148,28565,1,8,0:0:0:0:
192,148,29039,1,0,0:0:0:0:
192,148,29197,1,8,0:0:0:0:
192,148,29354,1,8,0:0:0:0:
192,148,29670,1,0,0:0:0:0:
192,148,29828,1,8,0:0:0:0:
212,132,30460,1,0,0:0:0:0:
221,156,31091,1,12,0:0:0:0:
134,211,31407,1,0,0:0:0:0:
185,131,31565,1,0,0:0:0:0:
185,131,31723,1,8,0:0:0:0:
185,131,31881,1,0,0:0:0:0:
154,206,32039,1,0,0:0:0:0:
216,128,32197,1,0,0:0:0:0:
208,126,32354,1,8,0:0:0:0:
181,195,32670,1,0,0:0:0:0:
142,150,32828,1,0,0:0:0:0:
145,153,32986,1,8,0:0:0:0:
166,135,33144,1,0,0:0:0:0:
181,195,33302,1,8,0:0:0:0:
168,140,33460,1,8,0:0:0:0:
175,136,33618,1,0,0:0:0:0:
181,195,33933,1,0,0:0:0:0:
177,132,34091,1,0,0:0:0:0:
175,131,34249,1,8,0:0:0:0:
175,131,34407,1,0,0:0:0:0:
181,195,34565,1,0,0:0:0:0:
175,131,34723,1,8,0:0:0:0:
177,132,34881,1,0,0:0:0:0:
181,195,35197,1,0,0:0:0:0:
175,131,35354,1,0,0:0:0:0:
175,131,35512,1,8,0:0:0:0:
175,131,35670,1,0,0:0:0:0:
170,131,35828,1,8,0:0:0:0:
175,131,35986,1,8,0:0:0:0:
175,131,36144,1,0,0:0:0:0:
199,193,36460,1,0,0:0:0:0:
170,133,36618,1,0,0:0:0:0:
170,131,36776,1,8,0:0:0:0:
170,135,36933,1,8,0:0:0:0:
198,180,37091,1,0,0:0:0:0:
170,133,37249,1,8,0:0:0:0:
170,133,37407,1,0,0:0:0:0:
199,193,37723,1,0,0:0:0:0:
170,140,37881,1,0,0:0:0:0:
252,198,38039,1,8,0:0:0:0:
167,140,38197,1,8,0:0:0:0:
198,180,38354,1,0,0:0:0:0:
170,140,38512,1,8,0:0:0:0:
162,142,38670,1,0,0:0:0:0:
198,180,38986,1,0,0:0:0:0:
179,146,39144,1,0,0:0:0:0:
179,146,39302,1,8,0:0:0:0:
179,147,39460,1,8,0:0:0:0:
178,148,39618,1,0,0:0:0:0:
179,146,39776,1,0,0:0:0:0:
179,146,39933,1,4,0:0:0:0:
179,147,40407,1,4,0:0:0:0:
179,146,40881,1,4,0:0:0:0:
179,147,41039,1,4,0:0:0:0:
179,147,41197,1,12,0:0:0:0:
235,171,41512,1,0,0:0:0:0:
172,125,41670,1,0,0:0:0:0:
174,124,41828,1,8,0:0:0:0:
175,124,41986,1,0,0:0:0:0:
235,171,42144,1,8,0:0:0:0:
172,125,42302,1,0,0:0:0:0:
172,132,42460,1,8,0:0:0:0:
235,171,42776,1,0,0:0:0:0:
176,132,42933,1,0,0:0:0:0:
176,132,43091,1,8,0:0:0:0:
176,132,43249,1,8,0:0:0:0:
235,171,43407,1,0,0:0:0:0:
176,132,43565,1,8,0:0:0:0:
176,132,43723,1,0,0:0:0:0:
235,171,44039,1,0,0:0:0:0:
176,132,44197,1,0,0:0:0:0:
176,132,44354,1,8,0:0:0:0:
176,132,44512,1,8,0:0:0:0:
235,171,44670,1,0,0:0:0:0:
176,132,44828,1,8,0:0:0:0:
176,132,44986,1,0,0:0:0:0:
237,140,45302,1,0,0:0:0:0:
169,132,45460,1,0,0:0:0:0:
169,132,45618,1,8,0:0:0:0:
169,132,45776,1,8,0:0:0:0:
169,132,45933,1,0,0:0:0:0:
169,132,46091,1,0,0:0:0:0:
169,132,46249,1,0,0:0:0:0:
222,141,46565,1,0,0:0:0:0:
169,132,46723,1,0,0:0:0:0:
169,132,46881,1,8,0:0:0:0:
169,132,47039,1,8,0:0:0:0:
222,141,47197,1,0,0:0:0:0:
169,132,47354,1,8,0:0:0:0:
169,132,47512,1,8,0:0:0:0:
306,168,47828,1,0,0:0:0:0:
169,132,47986,1,0,0:0:0:0:
169,132,48144,1,8,0:0:0:0:
169,132,48302,1,8,0:0:0:0:
249,161,48460,1,0,0:0:0:0:
169,132,48618,1,8,0:0:0:0:
169,132,48776,1,8,0:0:0:0:
200,155,49091,1,0,0:0:0:0:
163,133,49249,1,0,0:0:0:0:
163,133,49407,1,8,0:0:0:0:
169,132,49565,1,8,0:0:0:0:
169,132,49723,1,0,0:0:0:0:
163,133,49881,1,0,0:0:0:0:
168,132,50039,1,4,0:0:0:0:
169,132,50670,1,4,0:0:0:0:
181,131,51302,1,8,0:0:0:0:
217,158,51618,1,0,0:0:0:0:
208,140,51776,1,8,0:0:0:0:
208,140,51933,1,8,0:0:0:0:
208,140,52091,1,8,0:0:0:0:
220,150,52170,1,8,0:0:0:0:
217,158,52249,1,0,0:0:0:0:
208,140,52407,1,8,0:0:0:0:
208,140,52565,1,0,0:0:0:0:
217,158,52881,1,0,0:0:0:0:
208,140,53039,1,8,0:0:0:0:
208,140,53197,1,8,0:0:0:0:
208,140,53354,1,0,0:0:0:0:
210,131,53433,1,0,0:0:0:0:
217,158,53512,1,8,0:0:0:0:
208,140,53670,1,0,0:0:0:0:
208,140,53828,1,8,0:0:0:0:
217,158,54144,1,8,0:0:0:0:
208,140,54302,1,8,0:0:0:0:
208,140,54460,1,0,0:0:0:0:
208,140,54618,1,0,0:0:0:0:
206,118,54697,1,0,0:0:0:0:
217,158,54776,1,8,0:0:0:0:
208,140,54933,1,8,0:0:0:0:
208,140,55091,1,4,0:0:0:0:
205,144,55565,1,4,0:0:0:0:
186,96,56039,1,4,0:0:0:0:
227,155,56276,1,0,0:0:0:0:
227,155,56354,1,8,0:0:0:0:
223,144,56670,1,0,0:0:0:0:
169,160,56828,1,8,0:0:0:0:
234,156,56986,1,8,0:0:0:0:
168,160,57144,1,8,0:0:0:0:
235,112,57223,1,0,0:0:0:0:
222,144,57302,1,0,0:0:0:0:
242,149,57460,1,8,0:0:0:0:
242,149,57618,1,0,0:0:0:0:
228,149,57933,1,0,0:0:0:0:
227,158,58091,1,8,0:0:0:0:
227,158,58249,1,8,0:0:0:0:
226,158,58407,1,8,0:0:0:0:
208,100,58486,1,8,0:0:0:0:
227,149,58565,1,0,0:0:0:0:
227,158,58723,1,8,0:0:0:0:
217,142,58881,1,4,0:0:0:0:
206,75,59039,1,0,0:0:0:0:
206,75,59197,1,0,0:0:0:0:
226,158,59354,1,0,0:0:0:0:
188,116,59512,1,8,0:0:0:0:
188,116,59670,1,0,0:0:0:0:
188,116,59828,1,0,0:0:0:0:
188,116,59986,1,0,0:0:0:0:
208,115,60144,1,8,0:0:0:0:
208,114,60223,1,0,0:0:0:0:
208,111,60302,1,0,0:0:0:0:
208,109,60381,1,0,0:0:0:0:
208,108,60460,1,8,0:0:0:0:
207,108,60539,1,8,0:0:0:0:
207,107,60618,1,0,0:0:0:0:
207,106,60697,1,0,0:0:0:0:
207,106,60776,1,8,0:0:0:0:
158,250,60933,1,0,0:0:0:0:
158,250,61091,1,8,0:0:0:0:
158,250,61249,1,8,0:0:0:0:
231,176,61407,1,4,0:0:0:0:
197,100,61881,1,0,0:0:0:0:
197,100,62039,1,8,0:0:0:0:
197,100,62197,1,0,0:0:0:0:
197,100,62354,1,8,0:0:0:0:
197,100,62512,1,8,0:0:0:0:
197,100,62670,1,8,0:0:0:0:
215,93,63144,1,8,0:0:0:0:
209,94,63302,1,0,0:0:0:0:
165,131,63618,1,0,0:0:0:0:
176,131,63776,1,8,0:0:0:0:
176,132,63933,1,8,0:0:0:0:
175,132,64249,1,0,0:0:0:0:
175,132,64565,1,8,0:0:0:0:
176,132,64881,1,8,0:0:0:0:
175,132,65039,1,8,0:0:0:0:
175,132,65197,1,0,0:0:0:0:
175,132,65354,1,0,0:0:0:0:
175,132,65512,1,8,0:0:0:0:
176,132,65670,1,0,0:0:0:0:
173,136,65828,1,8,0:0:0:0:
187,136,66144,1,0,0:0:0:0:
187,137,66302,1,0,0:0:0:0:
187,137,66460,1,8,0:0:0:0:
187,136,67091,1,8,0:0:0:0:
187,137,67249,1,0,0:0:0:0:
187,137,67407,1,0,0:0:0:0:
187,136,67565,1,8,0:0:0:0:
187,136,67723,1,0,0:0:0:0:
187,137,68354,1,8,0:0:0:0:
187,136,68512,1,8,0:0:0:0:
187,136,68670,1,8,0:0:0:0:
187,137,68828,1,0,0:0:0:0:
187,137,68986,1,0,0:0:0:0:
187,137,69933,1,8,0:0:0:0:
187,137,70091,1,0,0:0:0:0:
187,137,70249,1,8,0:0:0:0:
187,137,70723,1,0,0:0:0:0:
187,137,70881,1,8,0:0:0:0:
187,137,71039,1,0,0:0:0:0:
187,137,71197,1,8,0:0:0:0:
187,137,71354,1,0,0:0:0:0:
187,137,71512,1,0,0:0:0:0:
197,124,71986,1,0,0:0:0:0:
200,139,72144,1,8,0:0:0:0:
193,140,72302,1,8,0:0:0:0:
193,140,72460,1,0,0:0:0:0:
193,140,72618,1,8,0:0:0:0:
176,144,72933,1,0,0:0:0:0:
176,144,72973,1,0,0:0:0:0:
174,178,73249,1,8,0:0:0:0:
186,166,73407,1,0,0:0:0:0:
184,165,73565,1,0,0:0:0:0:
184,164,73723,1,8,0:0:0:0:
181,166,73881,1,0,0:0:0:0:
193,160,74039,1,8,0:0:0:0:
192,160,74354,1,8,0:0:0:0:
192,161,74670,1,8,0:0:0:0:
193,160,74986,1,8,0:0:0:0:
192,160,75144,1,8,0:0:0:0:
192,160,75302,1,0,0:0:0:0:
192,160,75460,1,0,0:0:0:0:
192,161,75618,1,8,0:0:0:0:
187,163,75776,1,0,0:0:0:0:
187,163,75933,1,8,0:0:0:0:
213,203,76249,1,0,0:0:0:0:
213,203,76407,1,0,0:0:0:0:
213,203,76565,1,8,0:0:0:0:
213,203,77197,1,8,0:0:0:0:
213,203,77354,1,0,0:0:0:0:
213,203,77512,1,0,0:0:0:0:
213,203,77670,1,8,0:0:0:0:
213,203,77828,1,0,0:0:0:0:
213,203,78460,1,8,0:0:0:0:
213,203,78618,1,8,0:0:0:0:
213,203,78776,1,8,0:0:0:0:
213,203,78933,1,0,0:0:0:0:
213,203,79091,1,0,0:0:0:0:
219,203,80039,1,8,0:0:0:0:
219,203,80197,1,0,0:0:0:0:
219,203,80354,1,8,0:0:0:0:
219,203,80828,1,0,0:0:0:0:
219,203,80986,1,8,0:0:0:0:
219,203,81302,1,0,0:0:0:0:
219,203,81460,1,0,0:0:0:0:
219,203,81618,1,12,0:0:0:0:
171,146,82249,1,8,0:0:0:0:
171,146,82407,1,8,0:0:0:0:
171,146,82565,1,0,0:0:0:0:
171,146,82723,1,0,0:0:0:0:
171,146,82881,1,8,0:0:0:0:
171,146,83039,1,8,0:0:0:0:
171,146,83354,1,8,0:0:0:0:
171,146,83512,1,0,0:0:0:0:
171,146,83828,1,0,0:0:0:0:
171,146,83986,1,8,0:0:0:0:
171,146,84144,1,4,0:0:0:0:
186,134,84933,1,8,0:0:0:0:
180,134,85090,1,0,0:0:0:0:
180,134,85248,1,8,0:0:0:0:
204,157,85407,1,0,0:0:0:0:
204,157,85565,1,0,0:0:0:0:
204,157,85881,1,0,0:0:0:0:
204,157,86039,1,8,0:0:0:0:
204,157,86354,1,0,0:0:0:0:
204,157,86512,1,8,0:0:0:0:
204,157,86670,1,12,0:0:0:0:
201,150,87302,1,4,0:0:0:0:
204,157,87460,1,0,0:0:0:0:
198,157,87618,1,8,0:0:0:0:
197,157,87776,1,0,0:0:0:0:
197,157,87933,1,12,0:0:0:0:
197,157,88091,1,8,0:0:0:0:
214,141,88249,1,0,0:0:0:0:
214,140,88407,1,8,0:0:0:0:
214,140,88565,1,4,0:0:0:0:
203,134,88881,1,0,0:0:0:0:
203,134,89039,1,8,0:0:0:0:
202,134,89197,1,4,0:0:0:0:
183,140,89354,1,0,0:0:0:0:
181,169,89512,1,8,0:0:0:0:
181,133,89670,1,0,0:0:0:0:
181,169,89828,1,8,0:0:0:0:
181,169,89986,1,8,0:0:0:0:
177,133,90144,1,0,0:0:0:0:
195,169,90302,1,8,0:0:0:0:
201,156,90460,1,0,0:0:0:0:
212,135,90539,1,0,0:0:0:0:
176,148,90618,1,0,0:0:0:0:
208,135,90697,1,0,0:0:0:0:
172,140,90776,1,0,0:0:0:0:
175,137,90854,1,0,0:0:0:0:
174,138,90933,1,0,0:0:0:0:
177,140,91012,1,0,0:0:0:0:
177,140,91091,1,0,0:0:0:0:
180,133,91170,1,0,0:0:0:0:
182,133,91249,1,0,0:0:0:0:
183,133,91328,1,0,0:0:0:0:
128,166,91407,1,8,0:0:0:0:
157,163,91565,1,0,0:0:0:0:
189,128,91723,1,8,0:0:0:0:
189,129,92197,1,0,0:0:0:0:
190,126,92354,1,8,0:0:0:0:
189,128,92512,1,0,0:0:0:0:
192,153,92670,1,8,0:0:0:0:
198,153,92828,1,8,0:0:0:0:
197,128,92986,1,4,0:0:0:0:
198,124,93302,1,12,0:0:0:0:
200,144,93618,1,0,0:0:0:0:
199,143,93697,1,0,0:0:0:0:
198,146,93776,1,8,0:0:0:0:
198,146,93854,1,0,0:0:0:0:
198,146,93933,1,8,0:0:0:0:
198,146,94091,1,8,0:0:0:0:
191,116,94249,1,4,0:0:0:0:
191,116,94486,1,8,0:0:0:0:
191,116,94565,1,0,0:0:0:0:
191,116,94723,1,8,0:0:0:0:
185,114,94881,1,0,0:0:0:0:
185,115,94960,1,0,0:0:0:0:
191,116,95039,1,8,0:0:0:0:
191,116,95118,1,8,0:0:0:0:
191,116,95197,1,0,0:0:0:0:
191,116,95354,1,8,0:0:0:0:
188,103,95512,1,0,0:0:0:0:
186,108,95749,1,8,0:0:0:0:
186,107,95828,1,0,0:0:0:0:
184,107,95986,1,8,0:0:0:0:
158,143,96144,1,0,0:0:0:0:
158,143,96460,1,0,0:0:0:0:
158,143,96618,1,8,0:0:0:0:
175,129,96776,1,0,0:0:0:0:
158,143,97012,1,8,0:0:0:0:
158,143,97091,1,0,0:0:0:0:
177,131,97249,1,0,0:0:0:0:
166,146,97407,1,8,0:0:0:0:
168,145,97486,1,8,0:0:0:0:
168,146,97565,1,0,0:0:0:0:
167,146,97723,1,8,0:0:0:0:
167,148,97881,1,0,0:0:0:0:
153,132,98039,1,0,0:0:0:0:
156,137,98118,1,0,0:0:0:0:
155,137,98197,1,8,0:0:0:0:
155,135,98276,1,8,0:0:0:0:
155,137,98354,1,0,0:0:0:0:
153,139,98512,1,0,0:0:0:0:
153,138,98670,1,8,0:0:0:0:
175,134,98986,1,0,0:0:0:0:
156,137,99144,1,8,0:0:0:0:
151,139,99302,1,0,0:0:0:0:
175,134,99539,1,8,0:0:0:0:
175,134,99618,1,0,0:0:0:0:
175,134,99776,1,0,0:0:0:0:
175,134,99933,1,8,0:0:0:0:
173,129,100091,1,8,0:0:0:0:
236,159,100170,1,8,0:0:0:0:
236,159,100249,1,0,0:0:0:0:
236,159,100407,1,8,0:0:0:0:
159,151,100565,1,0,0:0:0:0:
176,196,100802,1,8,0:0:0:0:
154,149,100881,1,0,0:0:0:0:
154,149,101039,1,0,0:0:0:0:
163,146,101197,1,8,0:0:0:0:
163,145,101354,1,8,0:0:0:0:
251,156,101433,1,8,0:0:0:0:
162,144,101512,1,0,0:0:0:0:
159,145,101670,1,8,0:0:0:0:
158,146,101828,1,0,0:0:0:0:
121,125,102065,1,8,0:0:0:0:
126,124,102144,1,0,0:0:0:0:
121,125,102302,1,0,0:0:0:0:
244,157,102460,1,8,0:0:0:0:
270,140,102539,1,0,0:0:0:0:
244,157,102618,1,8,0:0:0:0:
244,157,102697,1,8,0:0:0:0:
244,157,102776,1,0,0:0:0:0:
133,126,102933,1,0,0:0:0:0:
183,130,103091,1,8,0:0:0:0:
184,136,103407,1,8,0:0:0:0:
183,130,103565,1,0,0:0:0:0:
178,125,103723,1,8,0:0:0:0:
174,126,103802,1,8,0:0:0:0:
174,126,103881,1,0,0:0:0:0:
171,125,104039,1,8,0:0:0:0:
173,126,104197,1,8,0:0:0:0:
190,129,104354,1,0,0:0:0:0:
183,130,104591,1,8,0:0:0:0:
186,128,104670,1,0,0:0:0:0:
186,129,104828,1,8,0:0:0:0:
192,125,104986,1,0,0:0:0:0:
191,124,105065,1,0,0:0:0:0:
187,128,105144,1,8,0:0:0:0:
190,129,105302,1,0,0:0:0:0:
190,129,105460,1,8,0:0:0:0:
175,136,105618,1,0,0:0:0:0:
171,135,105776,1,8,0:0:0:0:
173,175,105815,1,8,0:0:0:0:
172,105,106091,1,8,0:0:0:0:
179,100,106249,1,0,0:0:0:0:
179,100,106328,1,0,0:0:0:0:
178,101,106407,1,0,0:0:0:0:
179,107,106565,1,8,0:0:0:0:
177,104,106723,1,8,0:0:0:0:
186,103,106881,1,0,0:0:0:0:
172,105,107039,1,0,0:0:0:0:
183,106,107197,1,8,0:0:0:0:
177,166,107354,1,0,0:0:0:0:
175,159,107512,1,8,0:0:0:0:
188,145,107670,1,0,0:0:0:0:
186,145,107828,1,8,0:0:0:0:
185,146,107907,1,8,0:0:0:0:
185,147,107986,1,0,0:0:0:0:
176,139,108144,1,8,0:0:0:0:
176,138,108302,1,8,0:0:0:0:
213,129,108381,1,0,0:0:0:0:
213,129,108460,1,8,0:0:0:0:
172,137,108618,1,0,0:0:0:0:
172,137,108776,1,8,0:0:0:0:
186,141,109091,1,0,0:0:0:0:
189,159,109249,1,8,0:0:0:0:
188,159,109407,1,0,0:0:0:0:
197,153,109644,1,8,0:0:0:0:
196,154,109723,1,0,0:0:0:0:
195,154,109881,1,0,0:0:0:0:
213,156,110039,1,8,0:0:0:0:
209,153,110197,1,0,0:0:0:0:
211,95,110276,1,0,0:0:0:0:
208,153,110354,1,8,0:0:0:0:
205,144,110512,1,0,0:0:0:0:
206,143,110670,1,8,0:0:0:0:
202,141,110907,1,0,0:0:0:0:
200,142,110986,1,8,0:0:0:0:
198,142,111144,1,0,0:0:0:0:
195,142,111302,1,8,0:0:0:0:
193,143,111460,1,0,0:0:0:0:
243,147,111539,1,0,0:0:0:0:
193,143,111618,1,8,0:0:0:0:
192,143,111776,1,8,0:0:0:0:
191,142,111933,1,0,0:0:0:0:
198,128,112170,1,8,0:0:0:0:
197,126,112249,1,0,0:0:0:0:
196,126,112407,1,0,0:0:0:0:
200,118,112565,1,8,0:0:0:0:
211,117,112644,1,8,0:0:0:0:
195,121,112723,1,0,0:0:0:0:
211,116,112802,1,0,0:0:0:0:
192,119,112881,1,8,0:0:0:0:
186,120,113039,1,8,0:0:0:0:
195,123,113197,1,0,0:0:0:0:
191,120,113354,1,8,0:0:0:0:
180,121,113433,1,0,0:0:0:0:
180,120,113512,1,8,0:0:0:0:
180,120,113670,1,0,0:0:0:0:
177,120,113828,1,8,0:0:0:0:
194,184,113986,1,0,0:0:0:0:
194,184,114065,1,0,0:0:0:0:
194,184,114144,1,8,0:0:0:0:
177,120,114302,1,8,0:0:0:0:
208,118,114460,1,0,0:0:0:0:
208,118,114697,1,8,0:0:0:0:
208,118,114776,1,0,0:0:0:0:
212,111,114933,1,8,0:0:0:0:
211,111,115091,1,8,0:0:0:0:
165,95,115249,1,0,0:0:0:0:
208,166,115328,1,0,0:0:0:0:
207,110,115407,1,8,0:0:0:0:
206,109,115565,1,0,0:0:0:0:
209,105,115723,1,8,0:0:0:0:
199,105,115881,1,8,0:0:0:0:
222,122,115960,1,8,0:0:0:0:
222,122,116039,1,0,0:0:0:0:
222,122,116197,1,8,0:0:0:0:
193,107,116354,1,0,0:0:0:0:
185,119,116670,1,0,0:0:0:0:
183,122,116828,1,8,0:0:0:0:
183,123,116986,1,0,0:0:0:0:
184,122,117223,1,8,0:0:0:0:
184,121,117302,1,0,0:0:0:0:
185,119,117460,1,8,0:0:0:0:
185,119,117618,1,0,0:0:0:0:
183,122,117776,1,8,0:0:0:0:
185,119,117854,1,8,0:0:0:0:
183,123,117933,1,0,0:0:0:0:
183,117,118091,1,8,0:0:0:0:
167,208,118249,1,0,0:0:0:0:
171,204,118407,1,0,0:0:0:0:
230,179,118486,1,0,0:0:0:0:
180,183,118565,1,0,0:0:0:0:
180,183,118723,1,8,0:0:0:0:
195,176,118881,1,0,0:0:0:0:
192,118,119197,1,0,0:0:0:0:
192,118,119354,1,8,0:0:0:0:
202,113,119512,1,0,0:0:0:0:
199,154,119749,1,8,0:0:0:0:
198,152,119828,1,0,0:0:0:0:
200,139,119986,1,8,0:0:0:0:
200,138,120144,1,0,0:0:0:0:
200,137,120223,1,0,0:0:0:0:
201,137,120302,1,8,0:0:0:0:
201,137,120460,1,0,0:0:0:0:
193,133,120618,1,8,0:0:0:0:
194,133,120776,1,8,0:0:0:0:
193,132,120933,1,8,0:0:0:0:
220,175,121012,1,8,0:0:0:0:
192,132,121091,1,0,0:0:0:0:
192,132,121249,1,8,0:0:0:0:
192,132,121407,1,0,0:0:0:0:
185,122,121723,1,0,0:0:0:0:
182,122,121881,1,8,0:0:0:0:
182,122,122039,1,0,0:0:0:0:
188,103,122276,1,8,0:0:0:0:
190,102,122354,1,0,0:0:0:0:
180,105,122512,1,8,0:0:0:0:
185,100,122670,1,0,0:0:0:0:
186,100,122828,1,8,0:0:0:0:
185,100,122907,1,0,0:0:0:0:
187,73,122986,1,0,0:0:0:0:
171,149,123144,1,8,0:0:0:0:
211,111,123302,1,0,0:0:0:0:
191,125,123381,1,0,0:0:0:0:
191,123,123460,1,0,0:0:0:0:
197,122,123539,1,0,0:0:0:0:
197,114,123618,1,0,0:0:0:0:
194,115,123776,1,8,0:0:0:0:
232,108,123933,1,0,0:0:0:0:
232,109,124249,1,8,0:0:0:0:
232,108,124407,1,0,0:0:0:0:
199,117,124565,1,12,0:0:0:0:
196,161,124723,1,0,0:0:0:0:
196,161,124802,1,0,0:0:0:0:
196,161,124881,1,8,0:0:0:0:
199,117,125039,1,8,0:0:0:0:
193,115,125197,1,0,0:0:0:0:
193,116,125276,1,8,0:0:0:0:
205,116,125354,1,0,0:0:0:0:
199,117,125433,1,0,0:0:0:0:
199,117,125512,1,8,0:0:0:0:
199,117,125670,1,8,0:0:0:0:
196,104,125828,1,0,0:0:0:0:
214,138,125986,1,8,0:0:0:0:
194,109,126065,1,8,0:0:0:0:
194,108,126144,1,0,0:0:0:0:
192,108,126302,1,8,0:0:0:0:
166,144,126460,1,0,0:0:0:0:
198,157,126539,1,0,0:0:0:0:
193,126,126618,1,8,0:0:0:0:
193,125,126697,1,0,0:0:0:0:
193,125,126776,1,8,0:0:0:0:
166,144,126933,1,8,0:0:0:0:
183,130,127091,1,8,0:0:0:0:
210,174,127249,1,0,0:0:0:0:
166,144,127328,1,0,0:0:0:0:
166,144,127407,1,8,0:0:0:0:
185,132,127565,1,0,0:0:0:0:
174,147,127723,1,8,0:0:0:0:
176,147,127881,1,0,0:0:0:0:
201,125,127960,1,8,0:0:0:0:
175,147,128039,1,8,0:0:0:0:
175,149,128197,1,0,0:0:0:0:
161,133,128354,1,0,0:0:0:0:
231,140,128433,1,8,0:0:0:0:
231,140,128512,1,8,0:0:0:0:
163,136,128591,1,0,0:0:0:0:
231,140,128670,1,8,0:0:0:0:
161,140,128828,1,0,0:0:0:0:
161,139,128986,1,8,0:0:0:0:
201,166,129144,1,0,0:0:0:0:
201,166,129302,1,8,0:0:0:0:
201,166,129460,1,8,0:0:0:0:
201,166,129618,1,0,0:0:0:0:
183,135,129776,1,0,0:0:0:0:
183,135,129854,1,0,0:0:0:0:
183,135,129933,1,8,0:0:0:0:
183,135,130091,1,0,0:0:0:0:
183,135,130249,1,8,0:0:0:0:
218,148,130328,1,0,0:0:0:0:
181,130,130407,1,8,0:0:0:0:
215,195,130486,1,8,0:0:0:0:
162,150,130565,1,8,0:0:0:0:
166,151,130723,1,0,0:0:0:0:
167,152,130881,1,0,0:0:0:0:
192,165,131039,1,0,0:0:0:0:
228,157,131118,1,8,0:0:0:0:
162,150,131197,1,0,0:0:0:0:
162,150,131354,1,0,0:0:0:0:
171,147,131512,1,8,0:0:0:0:
227,145,131591,1,0,0:0:0:0:
171,146,131670,1,8,0:0:0:0:
238,158,131749,1,8,0:0:0:0:
170,145,131828,1,0,0:0:0:0:
167,146,131986,1,0,0:0:0:0:
166,147,132144,1,0,0:0:0:0:
240,155,132223,1,0,0:0:0:0:
190,172,132302,1,8,0:0:0:0:
129,126,132381,1,8,0:0:0:0:
134,125,132460,1,0,0:0:0:0:
240,155,132539,1,0,0:0:0:0:
129,126,132618,1,8,0:0:0:0:
241,120,132697,1,0,0:0:0:0:
214,120,132776,1,8,0:0:0:0:
140,125,132854,1,0,0:0:0:0:
198,109,132933,1,0,0:0:0:0:
198,109,133012,1,0,0:0:0:0:
142,125,133091,1,8,0:0:0:0:
141,127,133249,1,0,0:0:0:0:
191,131,133407,1,8,0:0:0:0:
202,116,133565,1,0,0:0:0:0:
201,117,133644,1,0,0:0:0:0:
192,137,133723,1,8,0:0:0:0:
191,131,133881,1,0,0:0:0:0:
186,126,134039,1,8,0:0:0:0:
182,127,134118,1,8,0:0:0:0:
204,132,134276,1,0,0:0:0:0:
179,126,134354,1,8,0:0:0:0:
181,127,134512,1,8,0:0:0:0:
198,130,134670,1,0,0:0:0:0:
191,131,134828,1,8,0:0:0:0:
191,131,134907,1,8,0:0:0:0:
194,129,134986,1,0,0:0:0:0:
194,130,135144,1,8,0:0:0:0:
200,126,135302,1,0,0:0:0:0:
199,91,135381,1,8,0:0:0:0:
199,91,135460,1,0,0:0:0:0:
199,91,135539,1,0,0:0:0:0:
198,76,135618,1,8,0:0:0:0:
198,130,135776,1,8,0:0:0:0:
183,137,135933,1,0,0:0:0:0:
179,136,136091,1,8,0:0:0:0:
181,176,136131,1,8,0:0:0:0:
180,106,136407,1,8,0:0:0:0:
187,101,136565,1,0,0:0:0:0:
187,101,136644,1,0,0:0:0:0:
186,102,136723,1,0,0:0:0:0:
187,108,136881,1,8,0:0:0:0:
185,105,137039,1,8,0:0:0:0:
194,104,137197,1,0,0:0:0:0:
213,155,137276,1,0,0:0:0:0:
213,155,137354,1,8,0:0:0:0:
213,155,137433,1,0,0:0:0:0:
191,107,137512,1,8,0:0:0:0:
185,167,137670,1,0,0:0:0:0:
307,57,137828,1,8,0:0:0:0:
196,146,137986,1,0,0:0:0:0:
194,146,138144,1,8,0:0:0:0:
193,147,138223,1,0,0:0:0:0:
193,148,138302,1,0,0:0:0:0:
184,140,138460,1,8,0:0:0:0:
184,139,138618,1,8,0:0:0:0:
183,139,138776,1,0,0:0:0:0:
180,138,138933,1,0,0:0:0:0:
180,138,139091,1,8,0:0:0:0:
194,142,139407,1,0,0:0:0:0:
197,160,139565,1,8,0:0:0:0:
196,160,139723,1,8,0:0:0:0:
154,151,139881,1,0,0:0:0:0:
205,154,139960,1,0,0:0:0:0:
204,155,140039,1,8,0:0:0:0:
203,155,140197,1,0,0:0:0:0:
221,157,140354,1,8,0:0:0:0:
175,148,140433,1,0,0:0:0:0:
217,154,140512,1,8,0:0:0:0:
172,146,140591,1,0,0:0:0:0:
216,154,140670,1,8,0:0:0:0:
213,145,140828,1,0,0:0:0:0:
214,144,140986,1,8,0:0:0:0:
195,100,141144,1,0,0:0:0:0:
210,142,141223,1,0,0:0:0:0:
208,143,141302,1,8,0:0:0:0:
190,94,141460,1,8,0:0:0:0:
203,143,141618,1,8,0:0:0:0:
202,143,141697,1,0,0:0:0:0:
201,144,141776,1,0,0:0:0:0:
201,129,141854,1,8,0:0:0:0:
202,128,141933,1,0,0:0:0:0:
200,144,142091,1,8,0:0:0:0:
199,143,142249,1,0,0:0:0:0:
175,177,142328,1,0,0:0:0:0:
237,147,142407,1,8,0:0:0:0:
206,129,142486,1,8,0:0:0:0:
205,127,142565,1,0,0:0:0:0:
287,149,142644,1,8,0:0:0:0:
204,127,142723,1,0,0:0:0:0:
237,147,142802,1,0,0:0:0:0:
208,119,142881,1,8,0:0:0:0:
173,120,142960,1,0,0:0:0:0:
215,96,143039,1,8,0:0:0:0:
213,101,143118,1,8,0:0:0:0:
200,120,143197,1,0,0:0:0:0:
203,151,143276,1,0,0:0:0:0:
168,113,143354,1,8,0:0:0:0:
201,151,143433,1,8,0:0:0:0:
203,124,143512,1,0,0:0:0:0:
246,149,143591,1,8,0:0:0:0:
199,121,143670,1,8,0:0:0:0:
188,122,143749,1,8,0:0:0:0:
188,121,143828,1,0,0:0:0:0:
188,121,143986,1,0,0:0:0:0:
185,121,144144,1,8,0:0:0:0:
185,121,144302,1,8,0:0:0:0:
185,121,144460,1,0,0:0:0:0:
185,121,144618,1,8,0:0:0:0:
216,119,144776,1,0,0:0:0:0:
201,152,145091,1,0,0:0:0:0:
206,152,145249,1,0,0:0:0:0:
219,112,145407,1,8,0:0:0:0:
173,96,145565,1,0,0:0:0:0:
215,111,145723,1,8,0:0:0:0:
214,110,145881,1,0,0:0:0:0:
217,106,146039,1,8,0:0:0:0:
207,106,146197,1,8,0:0:0:0:
222,152,146354,1,0,0:0:0:0:
222,152,146512,1,8,0:0:0:0:
201,108,146670,1,0,0:0:0:0:
188,164,146986,1,0,0:0:0:0:
244,170,147144,1,8,0:0:0:0:
191,124,147302,1,0,0:0:0:0:
225,151,147618,1,0,0:0:0:0:
225,151,147776,1,8,0:0:0:0:
225,151,147933,1,0,0:0:0:0:
225,151,148091,1,0,0:0:0:0:
225,151,148249,1,8,0:0:0:0:
225,151,148407,1,0,0:0:0:0:
225,151,148565,1,8,0:0:0:0:
225,151,148723,1,8,0:0:0:0:
203,148,148881,1,0,0:0:0:0:
203,177,149039,1,0,0:0:0:0:
98,151,149197,1,8,0:0:0:0:
253,173,149512,1,0,0:0:0:0:
200,119,149670,1,8,0:0:0:0:
210,114,149828,1,4,0:0:0:0:
252,152,149986,1,0,0:0:0:0:
206,153,150144,1,0,0:0:0:0:
252,152,150302,1,0,0:0:0:0:
208,139,150460,1,0,0:0:0:0:
208,138,150618,1,0,0:0:0:0:
209,138,150776,1,0,0:0:0:0:
201,134,150933,1,0,0:0:0:0:
202,134,151091,1,8,0:0:0:0:
201,133,151249,1,0,0:0:0:0:
252,152,151407,1,0,0:0:0:0:
200,133,151565,1,0,0:0:0:0:
200,133,151723,1,8,0:0:0:0:
190,123,151881,1,0,0:0:0:0:
193,123,152039,1,0,0:0:0:0:
194,140,152197,1,0,0:0:0:0:
200,106,152354,1,0,0:0:0:0:
171,149,152433,1,0,0:0:0:0:
178,152,152512,1,0,0:0:0:0:
196,104,152591,1,0,0:0:0:0:
180,151,152670,1,0,0:0:0:0:
180,153,152749,1,0,0:0:0:0:
180,153,152828,1,0,0:0:0:0:
180,153,152907,1,0,0:0:0:0:
193,101,152986,1,0,0:0:0:0:
194,101,153065,1,0,0:0:0:0:
193,101,153144,1,0,0:0:0:0:
185,152,153223,1,0,0:0:0:0:
195,74,153302,1,0,0:0:0:0:
185,151,153381,1,0,0:0:0:0:
185,151,153460,1,0,0:0:0:0:
185,151,153539,1,0,0:0:0:0:
219,112,153618,1,8,0:0:0:0:
231,140,154881,1,0,0:0:0:0:
231,140,154960,1,0,0:0:0:0:
231,140,155039,1,0,0:0:0:0:
231,140,155118,1,0,0:0:0:0:
231,140,155197,1,8,0:0:0:0:
231,140,155276,1,8,0:0:0:0:
231,140,155354,1,8,0:0:0:0:
231,140,155433,1,8,0:0:0:0:
231,140,155512,1,0,0:0:0:0:
231,140,155591,1,0,0:0:0:0:
231,140,155670,1,8,0:0:0:0:
231,140,155749,1,8,0:0:0:0:
231,140,155828,1,0,0:0:0:0:
231,140,155907,1,0,0:0:0:0:
231,140,155986,1,8,0:0:0:0:
231,140,156065,1,8,0:0:0:0:
217,112,156144,1,0,0:0:0:0:
208,119,156223,1,0,0:0:0:0:
211,117,156302,1,0,0:0:0:0:
210,119,156381,1,0,0:0:0:0:
210,119,156460,1,8,0:0:0:0:
210,119,156539,1,8,0:0:0:0:
209,121,156618,1,8,0:0:0:0:
208,126,156697,1,8,0:0:0:0:
208,126,156776,1,0,0:0:0:0:
208,125,156854,1,0,0:0:0:0:
208,125,156933,1,8,0:0:0:0:
208,125,157012,1,8,0:0:0:0:
208,125,157091,1,0,0:0:0:0:
208,125,157170,1,0,0:0:0:0:
208,125,157249,1,8,0:0:0:0:
208,125,157328,1,8,0:0:0:0:
226,125,157407,1,0,0:0:0:0:
224,129,157486,1,0,0:0:0:0:
224,129,157565,1,0,0:0:0:0:
224,129,157644,1,0,0:0:0:0:
224,129,157723,1,8,0:0:0:0:
224,128,157802,1,8,0:0:0:0:
224,128,157881,1,8,0:0:0:0:
224,128,157960,1,8,0:0:0:0:
224,128,158039,1,0,0:0:0:0:
221,131,158118,1,0,0:0:0:0:
221,131,158197,1,0,0:0:0:0:
224,128,158276,1,0,0:0:0:0:
224,132,158354,1,8,0:0:0:0:
226,131,158433,1,8,0:0:0:0:
224,129,158512,1,8,0:0:0:0:
226,134,158591,1,8,0:0:0:0:
247,127,158670,1,0,0:0:0:0:
247,127,158749,1,0,0:0:0:0:
247,127,158828,1,0,0:0:0:0:
247,127,158907,1,0,0:0:0:0:
247,126,158986,1,8,0:0:0:0:
248,126,159065,1,8,0:0:0:0:
248,124,159144,1,8,0:0:0:0:
249,124,159223,1,8,0:0:0:0:
268,112,159302,1,8,0:0:0:0:
267,112,159381,1,8,0:0:0:0:
249,124,159460,1,0,0:0:0:0:
249,125,159539,1,0,0:0:0:0:
264,129,159618,1,8,0:0:0:0:
255,130,159723,1,8,0:0:0:0:
247,127,159828,1,0,0:0:0:0:
242,124,159933,1,8,0:0:0:0:
158,250,160723,1,0,0:0:0:0:
158,250,160881,1,8,0:0:0:0:
158,250,161039,1,8,0:0:0:0:
197,100,161197,1,12,0:0:0:0:
197,100,161670,1,0,0:0:0:0:
197,100,161828,1,8,0:0:0:0:
197,100,161986,1,0,0:0:0:0:
197,100,162144,1,8,0:0:0:0:
197,100,162302,1,8,0:0:0:0:
197,100,162460,1,8,0:0:0:0:
215,93,162933,1,8,0:0:0:0:
209,94,163091,1,0,0:0:0:0:
165,131,163407,1,0,0:0:0:0:
176,131,163565,1,8,0:0:0:0:
176,132,163723,1,8,0:0:0:0:
175,132,164039,1,0,0:0:0:0:
175,132,164354,1,8,0:0:0:0:
176,132,164670,1,8,0:0:0:0:
175,132,164828,1,8,0:0:0:0:
175,132,164986,1,0,0:0:0:0:
175,132,165144,1,0,0:0:0:0:
175,132,165302,1,8,0:0:0:0:
176,132,165460,1,0,0:0:0:0:
173,136,165618,1,8,0:0:0:0:
187,136,165933,1,0,0:0:0:0:
187,137,166091,1,0,0:0:0:0:
187,137,166249,1,8,0:0:0:0:
187,136,166881,1,8,0:0:0:0:
187,137,167039,1,0,0:0:0:0:
187,137,167197,1,0,0:0:0:0:
187,136,167354,1,8,0:0:0:0:
187,136,167512,1,0,0:0:0:0:
187,137,168144,1,8,0:0:0:0:
187,136,168302,1,8,0:0:0:0:
187,136,168460,1,8,0:0:0:0:
187,137,168618,1,0,0:0:0:0:
187,137,168776,1,0,0:0:0:0:
187,137,169723,1,8,0:0:0:0:
187,137,169881,1,0,0:0:0:0:
187,137,170039,1,8,0:0:0:0:
187,137,170512,1,0,0:0:0:0:
187,137,170670,1,8,0:0:0:0:
187,137,170828,1,0,0:0:0:0:
187,137,170986,1,8,0:0:0:0:
187,137,171144,1,0,0:0:0:0:
187,137,171302,1,0,0:0:0:0:
197,124,171776,1,0,0:0:0:0:
200,139,171933,1,8,0:0:0:0:
193,140,172091,1,8,0:0:0:0:
193,140,172249,1,0,0:0:0:0:
193,140,172407,1,8,0:0:0:0:
176,144,172723,1,8,0:0:0:0:
176,144,172762,1,8,0:0:0:0:
174,178,173039,1,8,0:0:0:0:
186,166,173197,1,0,0:0:0:0:
184,165,173354,1,0,0:0:0:0:
184,164,173512,1,8,0:0:0:0:
181,166,173670,1,0,0:0:0:0:
193,160,173828,1,8,0:0:0:0:
192,160,174144,1,8,0:0:0:0:
192,161,174460,1,8,0:0:0:0:
193,160,174776,1,8,0:0:0:0:
192,160,174933,1,8,0:0:0:0:
192,160,175091,1,0,0:0:0:0:
192,160,175249,1,0,0:0:0:0:
192,161,175407,1,8,0:0:0:0:
187,163,175565,1,0,0:0:0:0:
187,163,175723,1,8,0:0:0:0:
213,203,176039,1,0,0:0:0:0:
213,203,176197,1,0,0:0:0:0:
213,203,176354,1,8,0:0:0:0:
213,203,176986,1,8,0:0:0:0:
213,203,177144,1,0,0:0:0:0:
213,203,177302,1,0,0:0:0:0:
213,203,177460,1,8,0:0:0:0:
213,203,177618,1,0,0:0:0:0:
213,203,178249,1,8,0:0:0:0:
213,203,178407,1,8,0:0:0:0:
213,203,178565,1,8,0:0:0:0:
213,203,178723,1,0,0:0:0:0:
213,203,178881,1,0,0:0:0:0:
219,203,179828,1,8,0:0:0:0:
219,203,179986,1,0,0:0:0:0:
219,203,180144,1,8,0:0:0:0:
219,203,180618,1,0,0:0:0:0:
219,203,180776,1,8,0:0:0:0:
219,203,181091,1,0,0:0:0:0:
219,203,181249,1,0,0:0:0:0:
219,203,181407,1,12,0:0:0:0:
171,146,182039,1,8,0:0:0:0:
171,146,182197,1,8,0:0:0:0:
171,146,182354,1,0,0:0:0:0:
171,146,182512,1,0,0:0:0:0:
282,170,182670,1,8,0:0:0:0:
185,41,182828,1,8,0:0:0:0:
204,114,183144,1,8,0:0:0:0:
171,146,183302,1,0,0:0:0:0:
171,146,183618,1,0,0:0:0:0:
171,146,183776,1,8,0:0:0:0:
171,146,183933,1,4,0:0:0:0:
186,134,184723,1,8,0:0:0:0:
180,134,184881,1,0,0:0:0:0:
180,134,185039,1,8,0:0:0:0:
204,157,185197,1,0,0:0:0:0:
204,157,185354,1,0,0:0:0:0:
204,157,185670,1,0,0:0:0:0:
204,157,185828,1,8,0:0:0:0:
204,157,186144,1,0,0:0:0:0:
204,157,186302,1,8,0:0:0:0:
204,157,186460,1,12,0:0:0:0:
201,150,187091,1,4,0:0:0:0:
204,157,187249,1,0,0:0:0:0:
198,157,187407,1,8,0:0:0:0:
197,157,187565,1,0,0:0:0:0:
197,157,187723,1,12,0:0:0:0:
197,157,187881,1,8,0:0:0:0:
214,141,188039,1,0,0:0:0:0:
214,140,188197,1,8,0:0:0:0:
214,140,188354,1,4,0:0:0:0:
203,134,188670,1,0,0:0:0:0:
203,134,188828,1,8,0:0:0:0:
202,134,188986,1,4,0:0:0:0:
192,155,189144,1,0,0:0:0:0:
193,155,189302,1,0,0:0:0:0:
193,155,189460,1,0,0:0:0:0:
193,155,189618,1,0,0:0:0:0:
193,155,189776,1,0,0:0:0:0:
193,155,189933,1,0,0:0:0:0:
192,155,190091,1,0,0:0:0:0:
201,156,190249,1,0,0:0:0:0:
204,155,190328,1,0,0:0:0:0:
176,148,190407,1,0,0:0:0:0:
169,140,190486,1,0,0:0:0:0:
172,140,190565,1,0,0:0:0:0:
175,137,190644,1,0,0:0:0:0:
174,138,190723,1,0,0:0:0:0:
177,140,190802,1,0,0:0:0:0:
177,140,190881,1,0,0:0:0:0:
180,133,190960,1,0,0:0:0:0:
182,133,191039,1,0,0:0:0:0:
182,133,191118,1,0,0:0:0:0:
128,166,191197,1,8,0:0:0:0:
198,165,191354,1,0,0:0:0:0:
198,165,191512,1,8,0:0:0:0:
220,153,192776,1,4,0:0:0:0:
220,153,193091,1,12,0:0:0:0:
235,144,193407,1,0,0:0:0:0:
235,144,193486,1,0,0:0:0:0:
234,143,193565,1,8,0:0:0:0:
234,143,193644,1,0,0:0:0:0:
233,142,193723,1,8,0:0:0:0:
233,142,193881,1,0,0:0:0:0:
233,150,195302,1,4,0:0:0:0:
233,150,195539,1,4,0:0:0:0:
233,150,195776,1,4,0:0:0:0:
233,150,196012,1,4,0:0:0:0:
233,150,196249,1,4,0:0:0:0:
200,98,196407,1,8,0:0:0:0:
200,98,196486,1,8,0:0:0:0:
284,115,196565,1,4,0:0:0:0:
284,115,196802,1,4,0:0:0:0:
284,115,197039,1,4,0:0:0:0:
284,115,197276,1,4,0:0:0:0:
284,115,197512,1,4,0:0:0:0:
191,98,197670,1,8,0:0:0:0:
191,98,197749,1,8,0:0:0:0:
284,115,197828,1,4,0:0:0:0:
284,115,198065,1,4,0:0:0:0:
284,115,198302,1,4,0:0:0:0:
284,115,198539,1,4,0:0:0:0:
284,115,198776,1,4,0:0:0:0:
204,135,198933,1,8,0:0:0:0:
204,135,199012,1,8,0:0:0:0:
284,115,199091,1,4,0:0:0:0:
284,115,199328,1,4,0:0:0:0:
284,115,199565,1,4,0:0:0:0:
284,115,199802,1,4,0:0:0:0:
284,115,200039,1,4,0:0:0:0:
199,102,200197,1,8,0:0:0:0:
199,102,200276,1,8,0:0:0:0:
199,102,200354,1,4,0:0:0:0:
199,102,200512,1,4,0:0:0:0:
177,135,200670,1,0,0:0:0:0:
182,136,200749,1,0,0:0:0:0:
182,136,200828,1,0,0:0:0:0:
182,135,200907,1,0,0:0:0:0:
182,138,200986,1,0,0:0:0:0:
207,120,201302,1,8,0:0:0:0:
208,122,201381,1,8,0:0:0:0:
208,124,201460,1,8,0:0:0:0:
196,122,201618,1,4,0:0:0:0:
196,122,201854,1,4,0:0:0:0:
196,122,202091,1,4,0:0:0:0:
212,121,202249,1,8,0:0:0:0:
207,120,202328,1,8,0:0:0:0:
208,122,202407,1,8,0:0:0:0:
208,124,202486,1,8,0:0:0:0:
205,125,202565,1,0,0:0:0:0:
219,152,202881,1,4,0:0:0:0:
207,140,203118,1,4,0:0:0:0:
216,144,203354,1,4,0:0:0:0:
216,144,203591,1,4,0:0:0:0:
216,144,203828,1,4,0:0:0:0:
197,193,204144,1,4,0:0:0:0:
197,193,204381,1,4,0:0:0:0:
200,164,204618,1,4,0:0:0:0:
200,164,204854,1,4,0:0:0:0:
200,164,205091,1,4,0:0:0:0:
204,122,205249,1,8,0:0:0:0:
199,130,205407,1,0,0:0:0:0:
192,131,205644,1,8,0:0:0:0:
195,129,205723,1,0,0:0:0:0:
195,130,205881,1,8,0:0:0:0:
201,126,206039,1,0,0:0:0:0:
200,125,206118,1,0,0:0:0:0:
196,129,206197,1,8,0:0:0:0:
199,130,206354,1,0,0:0:0:0:
199,130,206512,1,8,0:0:0:0:
184,137,206670,1,0,0:0:0:0:
180,136,206828,1,8,0:0:0:0:
182,176,206868,1,8,0:0:0:0:
181,106,207144,1,8,0:0:0:0:
188,101,207302,1,0,0:0:0:0:
188,101,207381,1,0,0:0:0:0:
187,102,207460,1,0,0:0:0:0:
188,108,207618,1,8,0:0:0:0:
186,105,207776,1,8,0:0:0:0:
195,104,207933,1,0,0:0:0:0:
181,106,208091,1,8,0:0:0:0:
192,107,208249,1,0,0:0:0:0:
186,167,208407,1,8,0:0:0:0:
184,160,208565,1,0,0:0:0:0:
197,146,208723,1,0,0:0:0:0:
195,146,208881,1,8,0:0:0:0:
169,137,208960,1,0,0:0:0:0:
194,148,209039,1,8,0:0:0:0:
228,144,209118,1,8,0:0:0:0:
185,140,209197,1,0,0:0:0:0:
195,126,209354,1,8,0:0:0:0:
184,139,209512,1,0,0:0:0:0:
190,126,209670,1,8,0:0:0:0:
181,138,209828,1,8,0:0:0:0:
211,132,209907,1,8,0:0:0:0:
214,132,209986,1,0,0:0:0:0:
216,130,210065,1,8,0:0:0:0:
195,142,210144,1,0,0:0:0:0:
198,160,210302,1,0,0:0:0:0:
197,160,210460,1,8,0:0:0:0:
206,154,210697,1,0,0:0:0:0:
205,155,210776,1,8,0:0:0:0:
204,155,210933,1,0,0:0:0:0:
222,157,211091,1,8,0:0:0:0:
218,155,211170,1,8,0:0:0:0:
218,154,211249,1,0,0:0:0:0:
217,154,211328,1,8,0:0:0:0:
167,124,211407,1,0,0:0:0:0:
214,145,211565,1,0,0:0:0:0:
215,144,211723,1,8,0:0:0:0:
211,142,211960,1,0,0:0:0:0:
209,143,212039,1,8,0:0:0:0:
207,143,212197,1,0,0:0:0:0:
204,143,212354,1,8,0:0:0:0:
203,143,212433,1,8,0:0:0:0:
202,144,212512,1,0,0:0:0:0:
164,126,212591,1,8,0:0:0:0:
202,144,212670,1,8,0:0:0:0:
201,144,212828,1,8,0:0:0:0:
200,143,212986,1,0,0:0:0:0:
207,129,213223,1,8,0:0:0:0:
206,127,213302,1,0,0:0:0:0:
205,127,213460,1,0,0:0:0:0:
209,119,213618,1,8,0:0:0:0:
204,122,213697,1,8,0:0:0:0:
204,122,213776,1,0,0:0:0:0:
201,120,213933,1,8,0:0:0:0:
195,121,214091,1,8,0:0:0:0:
204,124,214249,1,0,0:0:0:0:
200,121,214407,1,8,0:0:0:0:
189,122,214486,1,8,0:0:0:0:
189,121,214565,1,0,0:0:0:0:
189,121,214723,1,0,0:0:0:0:
227,159,214802,1,0,0:0:0:0:
227,159,214881,1,8,0:0:0:0:
186,121,215039,1,8,0:0:0:0:
186,121,215197,1,0,0:0:0:0:
127,178,215276,1,8,0:0:0:0:
186,121,215354,1,8,0:0:0:0:
135,180,215433,1,8,0:0:0:0:
217,119,215512,1,0,0:0:0:0:
210,186,216144,1,8,0:0:0:0:
210,186,216302,1,8,0:0:0:0:
210,186,216460,1,0,0:0:0:0:
210,186,216618,1,0,0:0:0:0:
237,121,216776,1,8,0:0:0:0:
210,186,216933,1,8,0:0:0:0:
210,186,217249,1,8,0:0:0:0:
210,186,217407,1,0,0:0:0:0:
210,186,217723,1,0,0:0:0:0:
210,186,217881,1,8,0:0:0:0:
210,186,218039,1,0,0:0:0:0:
214,195,218828,1,8,0:0:0:0:
214,195,218986,1,0,0:0:0:0:
212,186,219144,1,8,0:0:0:0:
210,187,219302,1,4,0:0:0:0:
210,187,219539,1,4,0:0:0:0:
227,174,219776,1,4,0:0:0:0:
224,171,220012,1,4,0:0:0:0:
221,171,220249,1,4,0:0:0:0:
210,142,220565,1,8,0:0:0:0:
212,135,221354,1,0,0:0:0:0:
204,156,221512,1,8,0:0:0:0:
212,156,221670,1,8,0:0:0:0:
232,130,221828,1,0,0:0:0:0:
232,130,221986,1,8,0:0:0:0:
232,130,222144,1,0,0:0:0:0:
232,130,222302,1,8,0:0:0:0:
232,130,222460,1,0,0:0:0:0:
232,130,222776,1,8,0:0:0:0:
232,130,222933,1,8,0:0:0:0:
232,130,223091,1,0,0:0:0:0:
229,156,223881,1,0,0:0:0:0:
229,156,224039,1,8,0:0:0:0:
229,156,224197,1,0,0:0:0:0:
229,156,224354,1,4,0:0:0:0:
229,156,224591,1,4,0:0:0:0:
229,156,224828,1,4,0:0:0:0:
229,156,225065,1,12,0:0:0:0:
229,156,225302,1,4,0:0:0:0:
202,168,225618,1,4,0:0:0:0:
202,168,225854,1,4,0:0:0:0:
202,168,226091,1,4,0:0:0:0:
202,168,226328,1,4,0:0:0:0:
213,177,226565,1,0,0:0:0:0:
208,171,226644,1,0,0:0:0:0:
207,171,226723,1,0,0:0:0:0:
207,171,226802,1,0,0:0:0:0:
207,171,226881,1,8,0:0:0:0:
212,168,227197,1,0,0:0:0:0:
210,151,227512,1,0,0:0:0:0:
210,152,227591,1,0,0:0:0:0:
209,152,227670,1,8,0:0:0:0:
207,156,227749,1,0,0:0:0:0:
205,156,227828,1,8,0:0:0:0:
187,144,227986,1,0,0:0:0:0:
169,156,228776,1,12,0:0:0:0:
211,123,228933,1,0,0:0:0:0:
191,116,229012,1,0,0:0:0:0:
191,116,229091,1,8,0:0:0:0:
191,116,229249,1,8,0:0:0:0:
185,114,229407,1,0,0:0:0:0:
185,115,229486,1,8,0:0:0:0:
191,116,229565,1,0,0:0:0:0:
191,116,229644,1,0,0:0:0:0:
191,116,229723,1,8,0:0:0:0:
191,116,229881,1,8,0:0:0:0:
188,103,230039,1,0,0:0:0:0:
197,137,230197,1,8,0:0:0:0:
186,108,230276,1,8,0:0:0:0:
186,107,230354,1,0,0:0:0:0:
184,107,230512,1,8,0:0:0:0:
158,143,230670,1,0,0:0:0:0:
193,135,230828,1,0,0:0:0:0:
166,202,230907,1,0,0:0:0:0:
158,143,230986,1,0,0:0:0:0:
158,143,231144,1,8,0:0:0:0:
175,129,231302,1,0,0:0:0:0:
188,140,231460,1,8,0:0:0:0:
158,143,231539,1,8,0:0:0:0:
158,143,231618,1,0,0:0:0:0:
177,131,231776,1,0,0:0:0:0:
175,172,231933,1,8,0:0:0:0:
175,172,232012,1,0,0:0:0:0:
186,165,232091,1,0,0:0:0:0:
167,146,232249,1,8,0:0:0:0:
167,148,232407,1,0,0:0:0:0:
153,132,232565,1,0,0:0:0:0:
156,137,232644,1,8,0:0:0:0:
155,137,232723,1,0,0:0:0:0:
155,135,232802,1,8,0:0:0:0:
155,137,232881,1,8,0:0:0:0:
153,139,233039,1,0,0:0:0:0:
153,138,233197,1,8,0:0:0:0:
161,141,233354,1,8,0:0:0:0:
175,134,233512,1,0,0:0:0:0:
156,137,233670,1,0,0:0:0:0:
151,139,233828,1,8,0:0:0:0:
175,134,233986,1,0,0:0:0:0:
175,134,234065,1,0,0:0:0:0:
175,134,234144,1,8,0:0:0:0:
175,134,234302,1,0,0:0:0:0:
175,134,234460,1,8,0:0:0:0:
218,152,234539,1,0,0:0:0:0:
173,129,234618,1,8,0:0:0:0:
218,152,234697,1,8,0:0:0:0:
154,149,234776,1,0,0:0:0:0:
158,150,234933,1,0,0:0:0:0:
159,151,235091,1,0,0:0:0:0:
180,148,235249,1,8,0:0:0:0:
181,137,235328,1,8,0:0:0:0:
154,149,235407,1,0,0:0:0:0:
154,149,235565,1,0,0:0:0:0:
163,146,235723,1,8,0:0:0:0:
188,93,235802,1,0,0:0:0:0:
188,93,235881,1,0,0:0:0:0:
188,93,235960,1,8,0:0:0:0:
162,144,236039,1,0,0:0:0:0:
159,145,236197,1,0,0:0:0:0:
209,151,236354,1,8,0:0:0:0:
188,145,236512,1,0,0:0:0:0:
121,125,236591,1,8,0:0:0:0:
126,124,236670,1,0,0:0:0:0:
121,125,236828,1,0,0:0:0:0:
129,124,236986,1,8,0:0:0:0:
132,124,237065,1,8,0:0:0:0:
132,124,237144,1,0,0:0:0:0:
134,124,237302,1,8,0:0:0:0:
133,126,237460,1,0,0:0:0:0:
183,130,237618,1,8,0:0:0:0:
200,151,237776,1,0,0:0:0:0:
200,151,237854,1,0,0:0:0:0:
184,136,237933,1,8,0:0:0:0:
183,130,238091,1,0,0:0:0:0:
178,125,238249,1,8,0:0:0:0:
202,142,238328,1,0,0:0:0:0:
202,141,238407,1,8,0:0:0:0:
202,140,238486,1,8,0:0:0:0:
203,140,238565,1,0,0:0:0:0:
173,126,238723,1,8,0:0:0:0:
190,129,238881,1,0,0:0:0:0:
229,144,239039,1,8,0:0:0:0:
183,130,239118,1,8,0:0:0:0:
186,128,239197,1,0,0:0:0:0:
186,129,239354,1,8,0:0:0:0:
192,125,239512,1,8,0:0:0:0:
191,124,239591,1,0,0:0:0:0:
234,141,239670,1,8,0:0:0:0:
234,141,239749,1,0,0:0:0:0:
190,129,239828,1,0,0:0:0:0:
190,129,239986,1,8,0:0:0:0:
175,136,240144,1,0,0:0:0:0:
171,135,240302,1,8,0:0:0:0:
173,175,240341,1,8,0:0:0:0:
172,105,240618,1,8,0:0:0:0:
179,100,240776,1,0,0:0:0:0:
179,100,240854,1,0,0:0:0:0:
178,101,240933,1,0,0:0:0:0:
179,107,241091,1,8,0:0:0:0:
177,104,241249,1,8,0:0:0:0:
186,103,241407,1,4,0:0:0:0:
183,106,241723,1,4,0:0:0:0:
230,124,242039,1,4,0:0:0:0:
186,145,242354,1,8,0:0:0:0:
176,139,242670,1,8,0:0:0:0:
177,82,242749,1,8,0:0:0:0:
176,138,242828,1,8,0:0:0:0:
171,82,242907,1,8,0:0:0:0:
177,82,242986,1,8,0:0:0:0:
170,86,243065,1,8,0:0:0:0:
170,86,243144,1,8,0:0:0:0:
170,86,243223,1,8,0:0:0:0:
170,86,243302,1,0,0:0:0:0:
157,117,243381,1,0,0:0:0:0:
157,117,243460,1,8,0:0:0:0:
157,117,243539,1,8,0:0:0:0:
186,141,243618,1,0,0:0:0:0:
189,159,243776,1,8,0:0:0:0:
188,159,243933,1,8,0:0:0:0:
233,185,244091,1,0,0:0:0:0:
197,153,244170,1,0,0:0:0:0:
196,154,244249,1,8,0:0:0:0:
195,154,244407,1,0,0:0:0:0:
213,156,244565,1,8,0:0:0:0:
233,185,244644,1,0,0:0:0:0:
233,185,244723,1,8,0:0:0:0:
233,185,244802,1,8,0:0:0:0:
208,153,244881,1,8,0:0:0:0:
205,144,245039,1,0,0:0:0:0:
206,143,245197,1,8,0:0:0:0:
224,179,245354,1,0,0:0:0:0:
202,141,245433,1,0,0:0:0:0:
200,142,245512,1,8,0:0:0:0:
198,142,245670,1,0,0:0:0:0:
195,142,245828,1,8,0:0:0:0:
217,174,245907,1,0,0:0:0:0:
221,172,245986,1,8,0:0:0:0:
221,172,246065,1,0,0:0:0:0:
205,184,246144,1,0,0:0:0:0:
192,143,246302,1,8,0:0:0:0:
191,142,246460,1,0,0:0:0:0:
199,183,246618,1,8,0:0:0:0:
198,128,246697,1,8,0:0:0:0:
197,126,246776,1,0,0:0:0:0:
196,126,246933,1,0,0:0:0:0:
246,110,247012,1,0,0:0:0:0:
196,179,247091,1,8,0:0:0:0:
195,121,247170,1,0,0:0:0:0:
195,121,247249,1,8,0:0:0:0:
219,178,247328,1,8,0:0:0:0:
192,119,247407,1,0,0:0:0:0:
186,120,247565,1,8,0:0:0:0:
195,123,247723,1,0,0:0:0:0:
191,120,247881,1,8,0:0:0:0:
180,121,247960,1,8,0:0:0:0:
180,120,248039,1,0,0:0:0:0:
180,120,248197,1,8,0:0:0:0:
177,120,248354,1,0,0:0:0:0:
177,120,248512,1,0,0:0:0:0:
177,120,248670,1,8,0:0:0:0:
177,120,248828,1,0,0:0:0:0:
208,118,248986,1,8,0:0:0:0:
219,112,249618,1,8,0:0:0:0:
173,96,249776,1,0,0:0:0:0:
215,111,249933,1,8,0:0:0:0:
214,110,250091,1,0,0:0:0:0:
217,106,250249,1,8,0:0:0:0:
207,106,250407,1,8,0:0:0:0:
206,106,250723,1,8,0:0:0:0:
201,108,250881,1,0,0:0:0:0:
188,164,251197,1,0,0:0:0:0:
176,156,251407,1,8,0:0:0:0:
191,124,251512,1,0,0:0:0:0:
199,136,251723,1,0,0:0:0:0:
199,136,251828,1,8,0:0:0:0:
194,139,252039,1,8,0:0:0:0:
194,132,252144,1,0,0:0:0:0:
194,133,252354,1,0,0:0:0:0:
193,133,252460,1,8,0:0:0:0:
192,133,252670,1,8,0:0:0:0:
194,125,252776,1,0,0:0:0:0:
179,126,252986,1,0,0:0:0:0:
179,125,253091,1,8,0:0:0:0:
187,129,253302,1,8,0:0:0:0:
186,129,253407,1,0,0:0:0:0:
192,133,253618,1,0,0:0:0:0:
192,133,253723,1,12,0:0:0:0:
213,129,254039,1,0,0:0:0:0:
193,143,254670,1,4,0:0:0:0:
201,140,254828,1,4,0:0:0:0:
200,136,254986,1,4,0:0:0:0:
182,150,255144,1,8,0:0:0:0:
172,155,255223,1,8,0:0:0:0:
232,143,255302,1,4,0:0:0:0:
232,143,255618,1,4,0:0:0:0:
232,143,255933,1,4,0:0:0:0:
232,143,256249,1,4,0:0:0:0:
232,143,256407,1,8,0:0:0:0:
190,158,256565,1,0,0:0:0:0:
197,145,257197,1,8,0:0:0:0:
197,145,257354,1,0,0:0:0:0:
197,145,257512,1,8,0:0:0:0:
197,145,257670,1,8,0:0:0:0:
197,145,257828,1,0,0:0:0:0:
197,145,257986,1,0,0:0:0:0:
203,146,258302,1,0,0:0:0:0:
203,146,258460,1,8,0:0:0:0:
191,116,259091,1,4,0:0:0:0:
227,208,259249,1,8,0:0:0:0:
191,116,259328,1,8,0:0:0:0:
191,116,259407,1,0,0:0:0:0:
191,116,259565,1,8,0:0:0:0:
185,114,259723,1,0,0:0:0:0:
185,115,259802,1,0,0:0:0:0:
191,116,259881,1,8,0:0:0:0:
191,116,259960,1,8,0:0:0:0:
191,116,260039,1,0,0:0:0:0:
191,116,260197,1,8,0:0:0:0:
188,103,260354,1,0,0:0:0:0:
209,151,260512,1,8,0:0:0:0:
186,108,260591,1,8,0:0:0:0:
186,107,260670,1,0,0:0:0:0:
184,107,260828,1,8,0:0:0:0:
158,143,260986,1,0,0:0:0:0:
188,127,261065,1,8,0:0:0:0:
172,137,261144,1,0,0:0:0:0:
172,137,261223,1,0,0:0:0:0:
173,136,261302,1,8,0:0:0:0:
170,135,261460,1,8,0:0:0:0:
175,129,261618,1,0,0:0:0:0:
214,149,261776,1,8,0:0:0:0:
214,149,261854,1,8,0:0:0:0:
158,143,261933,1,0,0:0:0:0:
177,131,262091,1,0,0:0:0:0:
166,146,262249,1,8,0:0:0:0:
168,145,262328,1,0,0:0:0:0:
168,146,262407,1,0,0:0:0:0:
167,146,262565,1,8,0:0:0:0:
167,148,262723,1,0,0:0:0:0:
153,132,262881,1,0,0:0:0:0:
156,137,262960,1,0,0:0:0:0:
155,137,263039,1,8,0:0:0:0:
155,135,263118,1,8,0:0:0:0:
155,137,263197,1,0,0:0:0:0:
153,139,263354,1,0,0:0:0:0:
153,138,263512,1,8,0:0:0:0:
210,105,263670,1,0,0:0:0:0:
175,134,263828,1,8,0:0:0:0:
156,137,263986,1,8,0:0:0:0:
151,139,264144,1,0,0:0:0:0:
175,134,264302,1,0,0:0:0:0:
175,134,264381,1,0,0:0:0:0:
175,134,264460,1,8,0:0:0:0:
175,134,264618,1,0,0:0:0:0:
175,134,264776,1,8,0:0:0:0:
208,109,264854,1,8,0:0:0:0:
192,92,264933,1,8,0:0:0:0:
222,134,265012,1,0,0:0:0:0:
154,149,265091,1,8,0:0:0:0:
158,150,265249,1,0,0:0:0:0:
159,151,265407,1,0,0:0:0:0:
191,86,265565,1,8,0:0:0:0:
176,196,265644,1,8,0:0:0:0:
154,149,265723,1,0,0:0:0:0:
154,149,265881,1,0,0:0:0:0:
163,146,266039,1,8,0:0:0:0:
191,86,266118,1,0,0:0:0:0:
163,145,266197,1,8,0:0:0:0:
220,113,266276,1,0,0:0:0:0:
162,144,266354,1,0,0:0:0:0:
159,145,266512,1,0,0:0:0:0:
158,146,266670,1,0,0:0:0:0:
234,96,266749,1,0,0:0:0:0:
191,86,266828,1,8,0:0:0:0:
121,125,266907,1,8,0:0:0:0:
126,124,266986,1,0,0:0:0:0:
234,94,267065,1,0,0:0:0:0:
235,93,267144,1,8,0:0:0:0:
228,143,267223,1,0,0:0:0:0:
129,124,267302,1,8,0:0:0:0:
191,86,267381,1,0,0:0:0:0:
193,81,267460,1,8,0:0:0:0:
193,81,267539,1,8,0:0:0:0:
195,83,267618,1,0,0:0:0:0:
226,152,267697,1,0,0:0:0:0:
133,126,267776,1,8,0:0:0:0:
226,152,267854,1,8,0:0:0:0:
183,130,267933,1,0,0:0:0:0:
174,160,268012,1,8,0:0:0:0:
168,88,268091,1,0,0:0:0:0:
168,88,268170,1,0,0:0:0:0:
184,136,268249,1,8,0:0:0:0:
183,130,268407,1,0,0:0:0:0:
178,125,268565,1,8,0:0:0:0:
174,126,268644,1,8,0:0:0:0:
181,90,268802,1,0,0:0:0:0:
171,125,268881,1,8,0:0:0:0:
173,126,269039,1,8,0:0:0:0:
190,129,269197,1,0,0:0:0:0:
181,90,269354,1,8,0:0:0:0:
183,130,269433,1,8,0:0:0:0:
186,128,269512,1,0,0:0:0:0:
186,129,269670,1,8,0:0:0:0:
192,125,269828,1,0,0:0:0:0:
188,116,269907,1,0,0:0:0:0:
188,116,269986,1,8,0:0:0:0:
188,116,270065,1,8,0:0:0:0:
190,129,270144,1,0,0:0:0:0:
190,129,270302,1,8,0:0:0:0:
175,136,270460,1,0,0:0:0:0:
171,135,270618,1,8,0:0:0:0:
173,175,270657,1,8,0:0:0:0:
172,105,270933,1,8,0:0:0:0:
179,100,271091,1,0,0:0:0:0:
179,100,271170,1,0,0:0:0:0:
178,101,271249,1,0,0:0:0:0:
179,107,271407,1,8,0:0:0:0:
196,80,271565,1,8,0:0:0:0:
186,103,271723,1,0,0:0:0:0:
172,105,271881,1,0,0:0:0:0:
183,106,272039,1,8,0:0:0:0:
177,166,272197,1,0,0:0:0:0:
175,159,272354,1,12,0:0:0:0:
186,145,272670,1,8,0:0:0:0:
185,146,272749,1,8,0:0:0:0:
185,147,272828,1,0,0:0:0:0:
176,139,272986,1,8,0:0:0:0:
176,138,273144,1,8,0:0:0:0:
175,138,273302,1,0,0:0:0:0:
172,137,273460,1,0,0:0:0:0:
172,137,273618,1,8,0:0:0:0:
183,110,273776,1,8,0:0:0:0:
186,141,273933,1,0,0:0:0:0:
189,159,274091,1,8,0:0:0:0:
188,159,274249,1,8,0:0:0:0:
201,83,274407,1,0,0:0:0:0:
201,83,274486,1,0,0:0:0:0:
196,154,274565,1,8,0:0:0:0:
195,154,274723,1,0,0:0:0:0:
213,156,274881,1,8,0:0:0:0:
195,79,274960,1,0,0:0:0:0:
195,79,275039,1,8,0:0:0:0:
194,78,275118,1,8,0:0:0:0:
208,153,275197,1,8,0:0:0:0:
205,144,275354,1,0,0:0:0:0:
206,143,275512,1,8,0:0:0:0:
192,73,275670,1,0,0:0:0:0:
202,141,275749,1,0,0:0:0:0:
200,142,275828,1,8,0:0:0:0:
198,142,275986,1,0,0:0:0:0:
195,142,276144,1,8,0:0:0:0:
187,70,276223,1,0,0:0:0:0:
193,143,276302,1,0,0:0:0:0:
192,73,276381,1,0,0:0:0:0:
193,143,276460,1,8,0:0:0:0:
192,143,276618,1,8,0:0:0:0:
191,142,276776,1,0,0:0:0:0:
250,144,276854,1,0,0:0:0:0:
187,70,276933,1,8,0:0:0:0:
187,70,277012,1,8,0:0:0:0:
197,126,277091,1,0,0:0:0:0:
250,144,277170,1,0,0:0:0:0:
187,70,277249,1,8,0:0:0:0:
182,69,277328,1,0,0:0:0:0:
200,118,277407,1,8,0:0:0:0:
195,121,277486,1,8,0:0:0:0:
195,121,277565,1,0,0:0:0:0:
290,151,277644,1,8,0:0:0:0:
187,58,277723,1,0,0:0:0:0:
197,154,277802,1,0,0:0:0:0:
197,154,277881,1,8,0:0:0:0:
197,154,277960,1,8,0:0:0:0:
195,123,278039,1,0,0:0:0:0:
191,120,278197,1,8,0:0:0:0:
180,121,278276,1,0,0:0:0:0:
180,120,278354,1,8,0:0:0:0:
180,120,278512,1,0,0:0:0:0:
177,120,278670,1,8,0:0:0:0:
177,120,278828,1,8,0:0:0:0:
177,120,278986,1,0,0:0:0:0:
177,120,279144,1,8,0:0:0:0:
216,119,279302,1,0,0:0:0:0:
215,136,279618,1,0,0:0:0:0:
210,134,279776,1,0,0:0:0:0:
219,112,279933,1,8,0:0:0:0:
173,96,280091,1,0,0:0:0:0:
215,111,280249,1,8,0:0:0:0:
214,110,280407,1,0,0:0:0:0:
217,106,280565,1,8,0:0:0:0:
207,106,280723,1,8,0:0:0:0:
204,145,280881,1,0,0:0:0:0:
206,106,281039,1,0,0:0:0:0:
201,108,281197,1,8,0:0:0:0:
188,164,281512,1,0,0:0:0:0:
244,170,281670,1,8,0:0:0:0:
191,124,281828,1,0,0:0:0:0:
206,143,282144,1,8,0:0:0:0:
206,143,282302,1,8,0:0:0:0:
208,143,282460,1,0,0:0:0:0:
233,165,282618,1,8,0:0:0:0:
231,170,282776,1,0,0:0:0:0:
175,209,282933,1,8,0:0:0:0:
253,173,283091,1,0,0:0:0:0:
188,184,283249,1,0,0:0:0:0:
202,144,283407,1,8,0:0:0:0:
203,177,283565,1,0,0:0:0:0:
98,151,283723,1,8,0:0:0:0:
253,173,284039,1,0,0:0:0:0:
200,119,284197,1,8,0:0:0:0:
202,113,284354,1,4,0:0:0:0:
199,154,284591,1,8,0:0:0:0:
198,152,284670,1,0,0:0:0:0:
200,139,284828,1,8,0:0:0:0:
200,138,284986,1,0,0:0:0:0:
200,137,285065,1,0,0:0:0:0:
201,137,285144,1,8,0:0:0:0:
201,137,285302,1,0,0:0:0:0:
193,133,285460,1,8,0:0:0:0:
194,133,285618,1,8,0:0:0:0:
193,132,285776,1,8,0:0:0:0:
192,132,285933,1,0,0:0:0:0:
192,132,286091,1,8,0:0:0:0:
192,132,286249,1,0,0:0:0:0:
185,122,286565,1,0,0:0:0:0:
182,122,286723,1,8,0:0:0:0:
182,122,286881,1,0,0:0:0:0:
188,103,287118,1,8,0:0:0:0:
190,102,287197,1,0,0:0:0:0:
180,105,287354,1,8,0:0:0:0:
185,100,287512,1,0,0:0:0:0:
186,100,287591,1,0,0:0:0:0:
185,100,287670,1,8,0:0:0:0:
187,73,287828,1,0,0:0:0:0:
171,149,287986,1,8,0:0:0:0:
211,111,288144,1,0,0:0:0:0:
191,123,288302,1,0,0:0:0:0:
197,114,288460,1,0,0:0:0:0:
194,115,288618,1,8,0:0:0:0:
232,108,288776,1,0,0:0:0:0:
209,111,290354,1,0,0:0:0:0:
208,144,290512,1,0,0:0:0:0:
208,144,290670,1,8,0:0:0:0:
196,136,291144,1,0,0:0:0:0:
196,134,291302,1,8,0:0:0:0:
197,133,291460,1,0,0:0:0:0:
197,133,291618,1,8,0:0:0:0:
196,136,291776,1,8,0:0:0:0:
210,132,291933,1,0,0:0:0:0:
210,132,292407,1,8,0:0:0:0:
210,132,292565,1,0,0:0:0:0:
210,132,292881,1,0,0:0:0:0:
210,132,293039,1,0,0:0:0:0:
210,132,293197,1,8,0:0:0:0:
210,132,293512,1,0,0:0:0:0:
210,132,293828,1,8,0:0:0:0:
210,132,294144,1,8,0:0:0:0:
210,132,294302,1,8,0:0:0:0:
210,132,294460,1,0,0:0:0:0:
210,132,294618,1,0,0:0:0:0:
210,132,294776,1,8,0:0:0:0:
210,132,294933,1,0,0:0:0:0:
210,132,295091,1,8,0:0:0:0:
198,126,295407,1,0,0:0:0:0:
198,126,295565,1,0,0:0:0:0:
198,126,295723,1,8,0:0:0:0:
198,126,296354,1,8,0:0:0:0:
198,126,296512,1,8,0:0:0:0:
198,126,296670,1,8,0:0:0:0:
198,126,296828,1,0,0:0:0:0:
198,126,296986,1,0,0:0:0:0:
198,126,297618,1,8,0:0:0:0:
198,126,297776,1,8,0:0:0:0:
198,126,297933,1,0,0:0:0:0:
198,126,298091,1,8,0:0:0:0:
198,126,298249,1,0,0:0:0:0:
198,126,299197,1,8,0:0:0:0:
198,126,299354,1,0,0:0:0:0:
198,126,299512,1,8,0:0:0:0:
234,151,299986,1,0,0:0:0:0:
234,151,300144,1,8,0:0:0:0:
234,151,300302,1,8,0:0:0:0:
234,151,300460,1,0,0:0:0:0:
234,151,300618,1,8,0:0:0:0:
234,151,300776,1,0,0:0:0:0:
