osu file format v14

[General]
AudioFilename: audio.mp3
AudioLeadIn: 0
PreviewTime: 53343
Countdown: 0
SampleSet: Soft
StackLeniency: 0.3
Mode: 0
LetterboxInBreaks: 0
WidescreenStoryboard: 1

[Editor]
Bookmarks: 94,10760,21427,32093,37427,42760,53427,64093,74760,85427
DistanceSpacing: 1.1
BeatDivisor: 2
GridSize: 32
TimelineZoom: 2

[Metadata]
Title:Dreamy Goat
TitleUnicode:Dreamy Goat
Artist:yaseta
ArtistUnicode:yaseta
Creator:Nytrocide_
Version:Easy
Source:
Tags:nytro ganyumymommy celektus flowziee shunaa electronic edm instrumental chiptune j-core jcore japanese hardcore 8-bit 8bit kawaii future bass day by day spring meadow featured artist fa
BeatmapID:3963826
BeatmapSetID:1917139

[Difficulty]
HPDrainRate:2
CircleSize:3
OverallDifficulty:2
ApproachRate:3
SliderMultiplier:0.8
SliderTickRate:1

[Events]
//Background and Video events
0,0,"the bg.jpg",0,0
//Break Periods
2,21627,30653
//Storyboard Layer 0 (Background)
//Storyboard Layer 1 (Fail)
//Storyboard Layer 2 (Pass)
//Storyboard Layer 3 (Foreground)
//Storyboard Layer 4 (Overlay)
//Storyboard Sound Samples

[TimingPoints]
94,333.333333333333,4,2,1,60,1,0
94,-100,4,2,1,60,0,0
10760,-100,4,2,1,80,0,0
11427,-100,4,2,2,80,0,0
11760,-100,4,2,1,80,0,0
12760,-100,4,2,2,50,0,0
12927,-100,4,2,2,60,0,0
13093,-100,4,2,2,70,0,0
13260,-100,4,2,1,80,0,0
14093,-100,4,2,2,80,0,0
14427,-100,4,2,1,80,0,0
16760,-100,4,2,2,80,0,0
17093,-100,4,2,1,80,0,0
18093,-100,4,2,2,50,0,0
18260,-100,4,2,2,60,0,0
18427,-100,4,2,2,70,0,0
18593,-100,4,2,1,80,0,0
19427,-100,4,2,2,80,0,0
19927,-100,4,2,1,80,0,0
21427,-1000,4,2,1,35,0,0
32093,-100,4,2,1,50,0,0
32427,-100,4,2,2,50,0,0
37427,-100,4,2,2,50,0,0
38093,-100,4,2,2,53,0,0
38760,-100,4,2,2,56,0,0
39427,-100,4,2,2,59,0,0
40093,-100,4,2,1,60,0,0
42093,-100,4,2,1,45,0,0
42427,-100,4,2,3,45,0,0
42593,-100,4,2,1,45,0,0
42760,-100,4,2,1,50,0,0
43093,-100,4,2,1,55,0,0
43427,-100,4,2,1,60,0,0
43760,-100,4,2,1,65,0,0
44093,-100,4,2,1,70,0,0
44427,-100,4,2,1,75,0,0
44760,-100,4,2,1,80,0,0
45093,-100,4,2,1,85,0,0
45427,-100,4,2,1,50,0,0
45760,-100,4,2,1,55,0,0
46093,-100,4,2,1,60,0,0
46427,-100,4,2,1,65,0,0
46760,-100,4,2,1,70,0,0
47093,-100,4,2,1,75,0,0
47427,-100,4,2,1,80,0,0
47760,-100,4,2,1,85,0,0
48093,-100,4,2,1,50,0,0
48427,-100,4,2,1,55,0,0
48760,-100,4,2,1,60,0,0
49093,-100,4,2,1,65,0,0
49427,-100,4,2,1,70,0,0
49760,-100,4,2,1,75,0,0
50093,-100,4,2,1,80,0,0
50427,-100,4,2,1,85,0,0
50760,-100,4,2,2,90,0,0
51093,-100,4,2,1,95,0,0
51427,-100,4,2,1,100,0,0
52093,-100,4,2,1,60,0,0
53427,-100,4,2,1,100,0,0
53760,-100,4,2,4,100,0,0
53927,-100,4,2,1,100,0,0
54427,-100,4,2,4,100,0,0
54593,-100,4,2,1,100,0,0
55093,-100,4,2,4,100,0,0
55260,-100,4,2,1,100,0,0
55760,-100,4,2,4,100,0,0
55927,-100,4,2,1,100,0,0
56427,-100,4,2,4,100,0,0
56593,-100,4,2,1,100,0,0
57093,-100,4,2,4,100,0,0
57260,-100,4,2,1,100,0,0
58010,-100,4,2,1,50,0,0
58093,-100,4,2,1,60,0,0
58260,-100,4,2,1,70,0,0
58427,-100,4,2,1,80,0,0
58593,-100,4,2,1,90,0,0
58760,-100,4,2,1,100,0,0
59093,-100,4,2,4,100,0,0
59260,-100,4,2,1,100,0,0
59760,-100,4,2,4,100,0,0
59927,-100,4,2,1,100,0,0
60427,-100,4,2,4,100,0,0
60593,-100,4,2,1,100,0,0
61093,-100,4,2,4,100,0,0
61260,-100,4,2,1,100,0,0
61760,-100,4,2,4,100,0,0
61927,-100,4,2,1,100,0,0
62427,-100,4,2,4,100,0,0
62593,-100,4,2,1,100,0,0
63343,-100,4,2,1,50,0,0
63427,-100,4,2,1,60,0,0
63593,-100,4,2,1,70,0,0
63760,-100,4,2,1,80,0,0
63927,-100,4,2,1,90,0,0
64093,-100,4,2,1,100,0,0
64427,-100,4,2,4,100,0,0
64593,-100,4,2,1,100,0,0
65093,-100,4,2,4,100,0,0
65260,-100,4,2,1,100,0,0
65760,-100,4,2,4,100,0,0
65927,-100,4,2,1,100,0,0
66427,-100,4,2,4,100,0,0
66593,-100,4,2,1,100,0,0
67093,-100,4,2,4,100,0,0
67260,-100,4,2,1,100,0,0
67760,-100,4,2,4,100,0,0
67927,-100,4,2,1,100,0,0
68677,-100,4,2,1,50,0,0
68760,-100,4,2,1,60,0,0
68927,-100,4,2,1,70,0,0
69093,-100,4,2,1,80,0,0
69260,-100,4,2,1,90,0,0
69427,-100,4,2,1,100,0,0
69760,-100,4,2,4,100,0,0
69927,-100,4,2,1,100,0,0
70427,-100,4,2,4,100,0,0
70593,-100,4,2,1,100,0,0
71093,-100,4,2,4,100,0,0
71260,-100,4,2,1,100,0,0
71760,-100,4,2,4,100,0,0
71927,-100,4,2,1,100,0,0
72093,-100,4,2,1,70,0,0
73260,-100,4,2,1,100,0,0
74010,-100,4,2,1,35,0,0
74093,-100,4,2,1,40,0,0
74260,-100,4,2,1,50,0,0
74427,-100,4,2,1,60,0,0
74593,-100,4,2,1,70,0,0
74760,-100,4,2,1,80,0,0
75427,-100,4,2,2,80,0,0
75760,-100,4,2,1,80,0,0
76760,-100,4,2,2,80,0,0
77260,-100,4,2,1,80,0,0
78093,-100,4,2,2,80,0,0
78427,-100,4,2,1,80,0,0
80760,-100,4,2,2,80,0,0
81093,-100,4,2,1,80,0,0
82093,-100,4,2,2,80,0,0
82593,-100,4,2,1,80,0,0
83427,-100,4,2,2,80,0,0
83927,-100,4,2,1,80,0,0
85427,-1000,4,2,1,40,0,0

[Colours]
Combo1 : 80,150,0
Combo2 : 90,150,255
Combo3 : 160,230,50
Combo4 : 130,230,255

[HitObjects]
214,74,94,6,0,L|340:94,1,120,2|2,1:2|1:2,0:0:0:0:
302,311,1427,2,0,L|183:292,1,120,2|2,1:2|1:2,0:0:0:0:
12,153,2760,2,0,B|60:139|60:139|63:123|63:123|124:105,1,120,2|2,1:2|1:2,0:0:0:0:
266,18,3927,2,0,B|299:27|299:27|301:38|301:38|342:51,2,80,2|2|2,1:2|1:2|1:2,0:0:0:0:
301,235,5427,6,0,P|356:227|365:169,1,120,2|2,1:2|1:2,0:0:0:0:
160,250,6760,2,0,P|139:301|185:338,1,120,2|2,1:2|1:2,0:0:0:0:
217,120,8093,2,0,P|183:76|128:97,1,120,2|2,1:2|1:2,0:0:0:0:
102,179,8927,2,0,B|71:187|71:187|21:228,1,80,2|2,1:2|1:2,0:0:0:0:
16,258,9427,1,8,2:2:0:0:
346,377,10760,6,0,B|386:363|370:345|416:327,1,80,6|2,1:2|2:2,0:0:0:0:
496,340,11427,2,0,L|508:396,2,40,10|2|0,2:2|2:2|1:1,0:0:0:0:
512,254,12093,2,0,P|487:213|457:132,1,120,2|2,1:2|1:2,0:0:0:0:
296,0,13427,6,0,B|281:24|281:24|293:87,1,80,2|2,1:2|2:2,0:0:0:0:
322,105,13927,2,0,L|341:200,1,80,2|2,1:2|2:2,0:0:0:0:
305,265,14593,5,2,1:2:0:0:
218,248,14927,1,2,1:3:0:0:
184,329,15260,1,6,1:2:0:0:
13,190,16093,6,0,P|10:162|52:122,1,80,6|2,1:2|2:2,0:0:0:0:
83,46,16760,2,0,L|67:2,2,40,10|2|0,2:2|2:2|1:1,0:0:0:0:
167,69,17427,2,0,B|224:59|224:59|228:54|228:54|313:40,1,120,2|2,1:2|1:2,0:0:0:0:
498,0,18760,6,0,P|522:18|513:81,1,80,2|2,1:2|2:2,0:0:0:0:
496,98,19260,2,0,L|408:115,1,80,2|2,1:2|2:2,0:0:0:0:
336,78,19927,5,2,1:2:0:0:
270,136,20260,1,6,1:2:0:0:
298,219,20593,2,0,P|311:258|234:293,1,120,6|8,1:2|2:3,0:0:0:0:
174,269,21427,5,6,2:2:0:0:
105,255,32093,6,0,P|130:224|171:219,1,80,4|10,2:1|2:2,0:0:0:0:
242,267,32760,2,0,L|231:317,2,40,2|2|8,2:2|2:2|2:2,0:0:0:0:
322,229,33427,2,0,P|299:159|292:106,1,120,2|2,2:2|2:2,0:0:0:0:
482,0,34760,6,0,B|512:26|512:26|513:75,1,80,2|10,2:2|2:2,0:0:0:0:
488,102,35260,2,0,B|451:114|451:114|408:91,1,80,2|2,2:2|2:2,0:0:0:0:
357,29,35927,5,2,2:2:0:0:
270,16,36260,1,2,2:2:0:0:
183,3,36593,1,2,2:2:0:0:
0,126,37427,6,0,P|20:166|65:173,1,80,10|10,3:2|3:2,0:0:0:0:
128,131,38093,2,0,L|140:89,2,40,10|2|8,3:2|3:2|2:2,0:0:0:0:
183,200,38760,2,0,B|191:230|191:230|170:289|170:289|183:342,1,120,10|2,2:2|3:2,0:0:0:0:
386,384,40093,6,0,B|447:364|411:327|491:300,2,120,6|6|6,1:2|1:2|1:2,0:0:0:0:
477,136,42093,6,0,P|483:131|531:115,2,40,4|4|8,2:3|2:3|2:2,0:0:0:0:
414,198,42760,6,0,P|372:187|360:128,1,80,6|10,1:2|3:2,0:0:0:0:
374,70,43427,1,2,3:2:0:0:
301,20,43760,1,10,3:2:0:0:
223,61,44093,2,0,L|166:48,2,40,2|2|10,3:2|3:2|3:2,0:0:0:0:
128,209,45093,5,10,1:2:0:0:
50,167,45427,6,0,B|12:179|12:179|-11:244,1,80,2|10,1:2|3:2,0:0:0:0:
49,289,46093,2,0,B|87:301|87:301|110:366,1,80,2|10,3:2|3:2,0:0:0:0:
178,378,46760,2,0,L|225:361,2,40,2|2|10,3:2|3:2|3:2,0:0:0:0:
321,276,47760,5,10,1:2:0:0:
290,193,48093,6,0,B|285:184|285:184|218:161,1,80,6|10,1:2|3:2,0:0:0:0:
136,190,48760,1,2,3:2:0:0:
122,103,49093,1,10,3:2:0:0:
37,77,49427,2,0,L|-11:96,2,40,2|2|10,3:2|3:2|3:2,0:0:0:0:
196,0,50427,5,10,1:2:0:0:
244,73,50760,6,0,P|229:115|200:157,1,80,2|10,1:2|3:2,0:0:0:0:
230,185,51260,2,0,P|272:200|314:229,1,80,2|2,3:2|3:2,0:0:0:0:
344,343,52093,6,0,B|379:335|379:335|383:328|383:328|440:316,1,80,4|0,2:2|1:1,0:0:0:0:
493,274,52760,2,0,L|540:287,2,40,0|4|8,1:1|2:3|2:1,0:0:0:0:
428,213,53427,6,0,P|416:164|364:152,1,80,6|10,1:2|1:2,0:0:0:0:
304,152,54093,2,0,L|292:191,2,40,2|2|8,1:2|2:2|1:2,0:0:0:0:
297,64,54760,2,0,P|233:42|193:-10,1,120,2|2,1:2|2:2,0:0:0:0:
11,119,56093,6,0,B|16:112|16:112|100:79,1,80,2|10,1:2|1:2,0:0:0:0:
122,103,56593,2,0,P|154:122|152:176,1,80,2|2,2:2|2:2,0:0:0:0:
91,218,57260,5,2,1:3:0:0:
110,303,57593,1,2,1:3:0:0:
39,356,57927,1,6,1:2:0:0:
259,351,58760,6,0,P|237:295|230:247,1,80,6|10,1:2|1:2,0:0:0:0:
214,190,59427,2,0,P|230:175|260:169,2,40,2|2|8,1:2|2:2|1:2,0:0:0:0:
146,134,60093,2,0,P|175:71|188:6,1,120,2|2,1:2|2:2,0:0:0:0:
405,0,61427,6,0,B|431:31|431:31|421:73,1,80,2|10,1:2|1:2,0:0:0:0:
394,104,61927,2,0,L|297:132,1,80,2|2,2:2|2:2,0:0:0:0:
266,199,62593,5,2,1:3:0:0:
331,258,62927,1,2,1:3:0:0:
294,337,63260,1,6,1:2:0:0:
77,374,64093,6,0,B|71:370|71:370|52:290,1,80,6|10,1:2|1:2,0:0:0:0:
111,232,64760,2,0,L|121:194,2,40,2|2|8,1:2|2:2|1:2,0:0:0:0:
187,275,65427,2,0,P|223:261|318:247,1,120,2|2,1:2|2:2,0:0:0:0:
477,384,66760,6,0,P|513:348|507:316,1,80,2|10,1:2|1:2,0:0:0:0:
476,293,67260,2,0,P|440:257|446:225,1,80,2|2,2:2|2:2,0:0:0:0:
478,151,67927,5,2,1:3:0:0:
442,70,68260,1,2,1:3:0:0:
510,14,68593,1,6,1:2:0:0:
297,70,69427,6,0,B|263:60|263:60|260:52|260:52|226:41,1,80,6|10,1:2|1:2,0:0:0:0:
138,53,70093,2,0,L|125:10,2,40,2|2|8,1:2|2:2|1:2,0:0:0:0:
86,124,70760,2,0,B|81:128|81:128|40:245,1,120,2|2,1:2|2:2,0:0:0:0:
231,349,72093,6,0,P|269:360|300:384,1,80,6|2,1:2|2:2,0:0:0:0:
344,380,72593,2,0,P|372:352|409:337,1,80,2|2,2:2|2:2,0:0:0:0:
463,267,73260,5,2,1:3:0:0:
440,180,73593,1,2,1:3:0:0:
418,94,73927,1,6,1:2:0:0:
219,0,74760,6,0,P|181:18|184:81,1,80,6|2,1:2|2:2,0:0:0:0:
216,127,75427,2,0,L|265:115,2,40,10|2|0,2:2|2:2|1:1,0:0:0:0:
161,195,76093,2,0,P|185:235|216:340,1,120,2|2,1:2|1:2,0:0:0:0:
3,380,77427,6,0,B|-3:371|-3:371|-17:289,1,80,2|2,1:2|2:2,0:0:0:0:
15,270,77927,2,0,P|55:241|51:204,1,80,2|2,1:2|2:2,0:0:0:0:
0,146,78593,5,2,1:2:0:0:
61,83,78927,1,2,1:3:0:0:
27,1,79260,1,6,1:2:0:0:
214,116,80093,6,0,P|249:132|294:165,1,80,6|2,1:2|2:2,0:0:0:0:
339,223,80760,2,0,P|353:212|377:206,2,40,10|2|0,2:2|2:2|1:1,0:0:0:0:
292,298,81427,2,0,P|316:353|384:326,1,120,2|2,1:2|1:2,0:0:0:0:
510,179,82760,6,0,P|485:143|466:59,1,120,6|2,1:2|1:2,0:0:0:0:
361,211,83927,6,0,P|345:188|332:132,2,80,2|6|6,1:2|1:2|1:2,0:0:0:0:
232,243,85093,6,0,P|221:222|216:196,2,40,8|4|2,2:3|2:3|2:2,0:0:0:0:
