osu file format v14

[General]
AudioFilename: audio.mp3
AudioLeadIn: 0
PreviewTime: 53343
Countdown: 0
SampleSet: Soft
StackLeniency: 0.3
Mode: 0
LetterboxInBreaks: 0
WidescreenStoryboard: 0

[Editor]
Bookmarks: 94,10760,21427,32093,37427,42760,53427,64093,74760,85427,96093
DistanceSpacing: 1.1
BeatDivisor: 4
GridSize: 32
TimelineZoom: 2

[Metadata]
Title:Dreamy Goat
TitleUnicode:Dreamy Goat
Artist:yaseta
ArtistUnicode:yaseta
Creator:Nytrocide_
Version:An Unforgettable Imaginary Adventure
Source:
Tags:nytro ganyumymommy celektus flowziee shunaa electronic edm instrumental chiptune j-core jcore japanese hardcore 8-bit 8bit kawaii future bass day by day spring meadow featured artist fa
BeatmapID:3956108
BeatmapSetID:1917139

[Difficulty]
HPDrainRate:5
CircleSize:4.2
OverallDifficulty:8.4
ApproachRate:9.6
SliderMultiplier:2
SliderTickRate:1

[Events]
//Background and Video events
0,0,"the bg.jpg",0,0
//Break Periods
//Storyboard Layer 0 (Background)
//Storyboard Layer 1 (Fail)
//Storyboard Layer 2 (Pass)
//Storyboard Layer 3 (Foreground)
//Storyboard Layer 4 (Overlay)
//Storyboard Sound Samples

[TimingPoints]
94,333.333333333333,4,2,1,60,1,0
94,-100,4,2,1,60,0,0
593,-86.9565217391304,4,2,1,60,0,0
1427,-90.9090909090909,4,2,1,60,0,0
1927,-71.4285714285714,4,2,1,60,0,0
2760,-83.3333333333333,4,2,1,60,0,0
3260,-90.9090909090909,4,2,1,60,0,0
5427,-90.9090909090909,4,2,1,60,0,0
5927,-86.9565217391304,4,2,1,60,0,0
6760,-90.9090909090909,4,2,1,60,0,0
7260,-71.4285714285714,4,2,1,60,0,0
8093,-83.3333333333333,4,2,1,60,0,0
8593,-71.4285714285714,4,2,1,60,0,0
8927,-83.3333333333333,4,2,1,60,0,0
9260,-100,4,2,1,60,0,0
9385,-100,4,2,1,5,0,0
9427,-100,4,2,1,60,0,0
10760,-76.9230769230769,4,2,1,80,0,0
11052,-76.9230769230769,4,2,1,5,0,0
11093,-76.9230769230769,4,2,1,80,0,0
11427,-66.6666666666667,4,2,2,80,0,0
11760,-66.6666666666667,4,2,1,80,0,0
12427,-83.3333333333333,4,2,1,80,0,0
12760,-83.3333333333333,4,2,2,50,0,0
12927,-83.3333333333333,4,2,2,60,0,0
13093,-83.3333333333333,4,2,2,70,0,0
13260,-83.3333333333333,4,2,1,80,0,0
13427,-66.6666666666667,4,2,1,80,0,0
14093,-66.6666666666667,4,2,2,80,0,0
14427,-66.6666666666667,4,2,1,80,0,0
14593,-100,4,2,1,80,0,0
14635,-100,4,2,1,5,0,0
14927,-66.6666666666667,4,2,1,80,0,0
14968,-66.6666666666667,4,2,1,5,0,0
15260,-62.5,4,2,1,80,0,0
15593,-66.6666666666667,4,2,1,80,0,0
15760,-64.5161290322581,4,2,1,80,0,0
16093,-76.9230769230769,4,2,1,80,0,0
16385,-76.9230769230769,4,2,1,5,0,0
16427,-76.9230769230769,4,2,1,80,0,0
16760,-66.6666666666667,4,2,2,80,0,0
17093,-66.6666666666667,4,2,1,80,0,0
17760,-83.3333333333333,4,2,1,80,0,0
18093,-83.3333333333333,4,2,2,50,0,0
18260,-83.3333333333333,4,2,2,60,0,0
18427,-83.3333333333333,4,2,2,70,0,0
18593,-83.3333333333333,4,2,1,80,0,0
18760,-62.5,4,2,1,80,0,0
19260,-66.6666666666667,4,2,1,80,0,0
19427,-66.6666666666667,4,2,2,80,0,0
19927,-83.3333333333333,4,2,1,80,0,0
20260,-76.9230769230769,4,2,1,80,0,0
20593,-83.3333333333333,4,2,1,80,0,0
21427,-133.333333333333,4,2,1,35,0,0
32093,-100,4,2,1,50,0,0
32427,-100,4,2,2,50,0,0
37427,-100,4,2,2,50,0,0
38093,-100,4,2,2,53,0,0
38760,-100,4,2,2,56,0,0
39427,-100,4,2,2,59,0,0
40093,-100,4,2,1,60,0,0
42093,-100,4,2,1,45,0,0
42427,-100,4,2,3,45,0,0
42593,-100,4,2,1,45,0,0
42760,-111.111111111111,4,2,1,50,0,0
43093,-111.111111111111,4,2,1,55,0,0
43427,-111.111111111111,4,2,1,60,0,0
43760,-111.111111111111,4,2,1,65,0,0
44093,-111.111111111111,4,2,1,70,0,0
44427,-111.111111111111,4,2,1,75,0,0
44760,-111.111111111111,4,2,1,80,0,0
45093,-111.111111111111,4,2,1,85,0,0
45260,-74.0740740740741,4,2,1,85,0,0
45427,-111.111111111111,4,2,1,50,0,0
45760,-111.111111111111,4,2,1,55,0,0
46093,-111.111111111111,4,2,1,60,0,0
46427,-111.111111111111,4,2,1,65,0,0
46760,-111.111111111111,4,2,1,70,0,0
47093,-111.111111111111,4,2,1,75,0,0
47427,-111.111111111111,4,2,1,80,0,0
47760,-111.111111111111,4,2,1,85,0,0
47927,-74.0740740740741,4,2,1,85,0,0
48093,-111.111111111111,4,2,1,50,0,0
48427,-111.111111111111,4,2,1,55,0,0
48760,-111.111111111111,4,2,1,60,0,0
49093,-111.111111111111,4,2,1,65,0,0
49427,-111.111111111111,4,2,1,70,0,0
49760,-111.111111111111,4,2,1,75,0,0
50093,-111.111111111111,4,2,1,80,0,0
50427,-111.111111111111,4,2,1,85,0,0
50593,-74.0740740740741,4,2,1,85,0,0
50760,-111.111111111111,4,2,2,90,0,0
51093,-111.111111111111,4,2,1,95,0,0
51427,-111.111111111111,4,2,1,100,0,0
52093,-90.9090909090909,4,2,1,60,0,0
52385,-90.9090909090909,4,2,1,5,0,0
52427,-100,4,2,1,60,0,0
53093,-80,4,2,1,60,0,0
53218,-80,4,2,1,5,0,0
53260,-80,4,2,1,60,0,0
53385,-80,4,2,1,5,0,0
53427,-57.1428571428571,4,2,1,100,0,0
53760,-57.1428571428571,4,2,4,100,0,0
53927,-57.1428571428571,4,2,1,100,0,0
54218,-57.1428571428571,4,2,1,5,0,0
54260,-57.1428571428571,4,2,1,100,0,0
54385,-57.1428571428571,4,2,1,5,0,0
54427,-50,4,2,4,100,0,0
54593,-58.8235294117647,4,2,1,100,0,0
55093,-66.6666666666667,4,2,4,100,0,0
55260,-76.9230769230769,4,2,1,100,0,0
55427,-45.4545454545455,4,2,1,100,0,0
55760,-45.4545454545455,4,2,4,100,0,0
55927,-57.1428571428571,4,2,1,100,0,0
56093,-62.5,4,2,1,100,0,0
56427,-62.5,4,2,4,100,0,0
56593,-58.8235294117647,4,2,1,100,0,0
57093,-58.8235294117647,4,2,4,100,0,0
57260,-100,4,2,1,100,0,0
57302,-100,4,2,1,5,0,0
57593,-66.6666666666667,4,2,1,100,0,0
57635,-66.6666666666667,4,2,1,5,0,0
57927,-57.1428571428571,4,2,1,100,0,0
58010,-57.1428571428571,4,2,1,50,0,0
58093,-57.1428571428571,4,2,1,60,0,0
58260,-57.1428571428571,4,2,1,70,0,0
58427,-57.1428571428571,4,2,1,80,0,0
58593,-57.1428571428571,4,2,1,90,0,0
58760,-52.6315789473684,4,2,1,100,0,0
59093,-57.1428571428571,4,2,4,100,0,0
59260,-57.1428571428571,4,2,1,100,0,0
59552,-57.1428571428571,4,2,1,5,0,0
59593,-57.1428571428571,4,2,1,100,0,0
59718,-57.1428571428571,4,2,1,5,0,0
59760,-50,4,2,4,100,0,0
59927,-58.8235294117647,4,2,1,100,0,0
60427,-66.6666666666667,4,2,4,100,0,0
60593,-76.9230769230769,4,2,1,100,0,0
60760,-45.4545454545455,4,2,1,100,0,0
61093,-45.4545454545455,4,2,4,100,0,0
61260,-57.1428571428571,4,2,1,100,0,0
61427,-62.5,4,2,1,100,0,0
61760,-62.5,4,2,4,100,0,0
61927,-58.8235294117647,4,2,1,100,0,0
62427,-58.8235294117647,4,2,4,100,0,0
62593,-100,4,2,1,100,0,0
62635,-100,4,2,1,5,0,0
62927,-66.6666666666667,4,2,1,100,0,0
62968,-66.6666666666667,4,2,1,5,0,0
63260,-57.1428571428571,4,2,1,100,0,0
63343,-57.1428571428571,4,2,1,50,0,0
63427,-57.1428571428571,4,2,1,60,0,0
63593,-57.1428571428571,4,2,1,70,0,0
63760,-57.1428571428571,4,2,1,80,0,0
63927,-57.1428571428571,4,2,1,90,0,0
64093,-57.1428571428571,4,2,1,100,0,0
64427,-57.1428571428571,4,2,4,100,0,0
64593,-57.1428571428571,4,2,1,100,0,0
64885,-57.1428571428571,4,2,1,5,0,0
64927,-57.1428571428571,4,2,1,100,0,0
65052,-57.1428571428571,4,2,1,5,0,0
65093,-46.5116279069767,4,2,4,100,0,0
65260,-58.8235294117647,4,2,1,100,0,0
65760,-66.6666666666667,4,2,4,100,0,0
65927,-76.9230769230769,4,2,1,100,0,0
66093,-45.4545454545455,4,2,1,100,0,0
66427,-45.4545454545455,4,2,4,100,0,0
66593,-57.1428571428571,4,2,1,100,0,0
66760,-58.8235294117647,4,2,1,100,0,0
66885,-58.8235294117647,4,2,1,5,0,0
66927,-55.5555555555556,4,2,1,100,0,0
67093,-55.5555555555556,4,2,4,100,0,0
67260,-45.4545454545455,4,2,1,100,0,0
67593,-58.8235294117647,4,2,1,100,0,0
67760,-58.8235294117647,4,2,4,100,0,0
67927,-100,4,2,1,100,0,0
67968,-100,4,2,1,5,0,0
68260,-66.6666666666667,4,2,1,100,0,0
68302,-66.6666666666667,4,2,1,5,0,0
68593,-57.1428571428571,4,2,1,100,0,0
68677,-57.1428571428571,4,2,1,50,0,0
68760,-57.1428571428571,4,2,1,60,0,0
68927,-57.1428571428571,4,2,1,70,0,0
69093,-57.1428571428571,4,2,1,80,0,0
69260,-57.1428571428571,4,2,1,90,0,0
69427,-52.6315789473684,4,2,1,100,0,0
69760,-57.1428571428571,4,2,4,100,0,0
69927,-57.1428571428571,4,2,1,100,0,0
70218,-57.1428571428571,4,2,1,5,0,0
70260,-57.1428571428571,4,2,1,100,0,0
70385,-57.1428571428571,4,2,1,5,0,0
70427,-46.5116279069767,4,2,4,100,0,0
70593,-58.8235294117647,4,2,1,100,0,0
71093,-66.6666666666667,4,2,4,100,0,0
71260,-76.9230769230769,4,2,1,100,0,0
71426,-45.4545454545455,4,2,1,100,0,0
71760,-45.4545454545455,4,2,4,100,0,0
71927,-57.1428571428571,4,2,1,100,0,0
72093,-100,4,2,1,70,0,0
73260,-111.111111111111,4,2,1,100,0,0
73302,-111.111111111111,4,2,1,5,0,0
73593,-71.4285714285714,4,2,1,100,0,0
73635,-71.4285714285714,4,2,1,5,0,0
73927,-60.6060606060606,4,2,1,100,0,0
74010,-60.6060606060606,4,2,1,35,0,0
74093,-60.6060606060606,4,2,1,40,0,0
74260,-60.6060606060606,4,2,1,50,0,0
74427,-60.6060606060606,4,2,1,60,0,0
74593,-60.6060606060606,4,2,1,70,0,0
74760,-71.4285714285714,4,2,1,80,0,0
75052,-71.4285714285714,4,2,1,5,0,0
75093,-71.4285714285714,4,2,1,80,0,0
75427,-71.4285714285714,4,2,2,80,0,0
75760,-71.4285714285714,4,2,1,80,0,0
76427,-86.9565217391304,4,2,1,80,0,0
76760,-86.9565217391304,4,2,2,80,0,0
77260,-86.9565217391304,4,2,1,80,0,0
77427,-71.4285714285714,4,2,1,80,0,0
78093,-71.4285714285714,4,2,2,80,0,0
78427,-71.4285714285714,4,2,1,80,0,0
78593,-100,4,2,1,80,0,0
78635,-100,4,2,1,5,0,0
78927,-66.6666666666667,4,2,1,80,0,0
78968,-66.6666666666667,4,2,1,5,0,0
79260,-60.6060606060606,4,2,1,80,0,0
79427,-71.4285714285714,4,2,1,80,0,0
80093,-71.4285714285714,4,2,1,80,0,0
80385,-71.4285714285714,4,2,1,5,0,0
80427,-71.4285714285714,4,2,1,80,0,0
80760,-71.4285714285714,4,2,2,80,0,0
81093,-71.4285714285714,4,2,1,80,0,0
81760,-86.9565217391304,4,2,1,80,0,0
82093,-86.9565217391304,4,2,2,80,0,0
82593,-86.9565217391304,4,2,1,80,0,0
82760,-90.9090909090909,4,2,1,80,0,0
83052,-90.9090909090909,4,2,1,5,0,0
83093,-90.9090909090909,4,2,1,80,0,0
83427,-90.9090909090909,4,2,2,80,0,0
83927,-90.9090909090909,4,2,1,80,0,0
84260,-100,4,2,1,80,0,0
85427,-133.333333333333,4,2,1,40,0,0
89927,-1000,4,2,1,40,0,0
90260,-1000,4,2,1,5,0,0
90593,-1000,4,2,1,5,0,0
90760,-133.333333333333,4,2,1,40,0,0
95260,-1000,4,2,1,40,0,0
95593,-1000,4,2,1,5,0,0
96093,-1000,4,2,1,5,0,0

[Colours]
Combo1 : 80,150,0
Combo2 : 90,150,255
Combo3 : 160,230,50
Combo4 : 130,230,255

[HitObjects]
36,16,94,6,0,B|48:107|48:107|58:119|58:119|73:230,1,200,2|0,1:2|0:0,0:0:0:0:
70,210,593,2,0,B|47:196|47:196|39:132|39:132|68:89|68:89|60:30|60:30|36:16,1,230.000004386902,2|0,1:2|0:0,0:0:0:0:
423,303,1427,6,0,B|354:279|354:279|351:284|351:284|301:290|301:290|288:328|288:328|237:361,1,220.000006713867,2|0,1:2|0:0,0:0:0:0:
245,355,1927,2,0,B|205:335|205:335|291:314|291:314|295:320|295:320|367:337|367:337|428:300,1,279.999991455078,2|0,1:2|0:0,0:0:0:0:
422,23,2760,6,0,B|387:-7|387:-7|325:18|325:18|364:166,1,239.999992675781,2|0,1:2|0:0,0:0:0:0:
357,140,3260,6,0,L|373:79,1,55.0000016784668,2|0,1:2|0:0,0:0:0:0:
348,61,3427,2,0,B|360:111|360:111|366:117|366:117|377:165,1,110.000003356934,2|0,2:2|0:0,0:0:0:0:
327,384,3760,5,2,2:2:0:0:
373,317,3927,2,0,L|312:301,1,55.0000016784668,2|0,1:2|0:0,0:0:0:0:
53,112,4260,6,0,B|103:96|103:96|119:68|119:68|168:51,1,137.500004196167,2|2,1:2|2:2,0:0:0:0:
169,51,4593,6,0,B|241:103|241:103|-17:57|-17:57|53:112,1,440.000013427735,2|0,1:2|0:0,0:0:0:0:
142,384,5427,6,0,B|150:373|150:373|109:183|109:183|116:173,1,220.000006713867,2|0,1:2|0:0,0:0:0:0:
116,173,5927,2,0,B|140:198|140:198|120:358|120:358|150:393,1,230.000004386902,2|0,1:2|0:0,0:0:0:0:
494,28,6760,6,0,B|525:34|525:34|482:50|482:50|477:43|477:43|410:35|410:35|357:101,1,220.000006713867,2|0,1:2|0:0,0:0:0:0:
368,87,7260,2,0,B|300:82|300:82|297:76|297:76|386:51|386:51|390:54|390:54|528:19,1,279.999991455078,2|0,1:2|0:0,0:0:0:0:
226,364,8093,6,0,B|215:343|215:343|270:264|270:264|311:350|311:350|296:370,1,239.999992675781,2|0,1:2|0:0,0:0:0:0:
296,370,8593,6,0,B|277:333|277:333|183:302,1,139.999995727539,2|0,1:2|0:0,0:0:0:0:
348,301,8927,2,0,B|331:269|331:269|251:243,1,119.999996337891,2|0,1:2|0:0,0:0:0:0:
401,233,9260,2,0,B|387:205|387:205|324:183,1,75,2|0,1:2|0:0,0:0:0:0:
333,193,9427,5,8,2:2:0:0:
486,147,9593,6,0,L|468:215,1,50,6|0,1:2|0:0,0:0:0:0:
253,137,9927,2,0,L|265:88,1,50,2|2,1:2|2:2,0:0:0:0:
330,30,10093,5,2,1:2:0:0:
182,90,10260,1,0,1:1:0:0:
333,193,10427,1,8,1:3:0:0:
251,243,10593,1,4,1:3:0:0:
285,313,10760,6,0,B|309:280|309:280|271:73,1,227.499989585877,6|0,1:2|0:0,0:0:0:0:
265,88,11093,5,2,2:2:0:0:
504,20,11260,5,2,1:2:0:0:
512,30,11343,1,2,2:2:0:0:
511,43,11427,2,0,B|498:78|451:88|453:77|408:86|401:132,2,150.000005722046,10|2|0,2:2|2:2|1:1,0:0:0:0:
333,193,11927,5,2,1:2:0:0:
325,203,12010,1,2,2:2:0:0:
326,216,12094,2,0,P|361:227|378:267,1,75.0000028610231,2|0,1:2|0:0,0:0:0:0:
505,265,12260,2,0,P|504:301|472:330,1,75.0000028610231,2|0,2:2|0:0,0:0:0:0:
251,324,12427,6,0,P|264:304|317:308,1,59.9999981689454,2|0,2:2|0:0,0:0:0:0:
453,222,12593,2,0,P|476:228|488:279,1,59.9999981689454,2|0,1:2|0:0,0:0:0:0:
466,330,12760,5,10,2:2:0:0:
241,214,12927,5,2,2:2:0:0:
230,207,13010,1,2,2:2:0:0:
223,184,13093,1,2,2:2:0:0:
235,150,13177,1,2,2:2:0:0:
277,126,13260,2,0,B|291:121|297:102|297:102|288:114|273:120,1,59.9999981689454,2|2,1:2|2:2,0:0:0:0:
54,74,13427,5,2,1:2:0:0:
67,81,13510,1,0,0:0:0:0:
74,94,13593,2,0,L|61:175,1,75.0000028610231,2|0,2:2|0:0,0:0:0:0:
157,87,13760,2,0,L|144:168,1,75.0000028610231,2|0,2:2|0:0,0:0:0:0:
186,8,13927,6,0,B|196:65|122:106|116:66|49:102|62:168,1,225.000008583069,2|0,1:2|0:0,0:0:0:0:
87,248,14260,6,0,P|94:271|92:245,1,75.0000028610231,2|0,2:2|0:0,0:0:0:0:
57,180,14427,1,8,2:3:0:0:
195,0,14593,6,0,L|232:-7,1,25,2|0,1:2|0:0,0:0:0:0:
377,171,14927,6,0,L|326:161,1,37.5000014305115,2|0,1:3|0:0,0:0:0:0:
87,248,15260,6,0,B|123:241|123:241|127:235|127:235|175:226,1,80,6|0,1:2|0:0,0:0:0:0:
250,312,15427,5,4,2:3:0:0:
244,299,15593,6,0,P|231:277|238:303,1,75.0000028610231,4|0,2:3|0:0,0:0:0:0:
340,164,15760,6,0,B|332:169|332:169|309:244,1,77.5000005912781,8|0,2:3|0:0,0:0:0:0:
290,384,15927,1,0,1:1:0:0:
512,147,16093,6,0,B|498:191|498:191|299:248,1,227.499989585877,6|0,1:2|0:0,0:0:0:0:
312,234,16427,5,2,2:2:0:0:
9,216,16593,5,2,1:2:0:0:
0,225,16677,1,2,2:2:0:0:
1,239,16760,2,0,P|54:260|54:358,2,150.000005722046,10|2|0,2:2|2:2|1:1,0:0:0:0:
243,191,17260,5,2,1:2:0:0:
234,182,17344,1,2,2:2:0:0:
235,168,17427,2,0,P|272:153|282:113,1,75.0000028610231,2|0,1:2|0:0,0:0:0:0:
197,0,17593,2,0,P|226:22|228:58,1,75.0000028610231,2|0,2:2|0:0,0:0:0:0:
155,155,17760,6,0,P|124:139|71:126,1,59.9999981689454,2|0,2:2|0:0,0:0:0:0:
312,234,17927,2,0,P|343:218|396:205,1,59.9999981689454,2|0,1:2|0:0,0:0:0:0:
221,69,18093,5,10,2:2:0:0:
94,216,18260,5,2,2:2:0:0:
90,225,18343,1,2,2:2:0:0:
99,247,18427,1,2,2:2:0:0:
132,261,18510,1,2,2:2:0:0:
160,300,18593,1,2,1:2:0:0:
144,359,18677,1,2,2:2:0:0:
68,384,18760,6,0,P|84:365|159:359,1,80,2|0,1:2|0:0,0:0:0:0:
284,384,18927,2,0,B|273:349|273:349|268:347|268:347|252:296,1,80,2|0,2:2|0:0,0:0:0:0:
367,210,19093,2,0,P|405:216|434:243,1,80,2|0,2:2|0:0,0:0:0:0:
367,297,19260,6,0,B|357:240|431:199|437:239|504:203|491:137,1,225.000008583069,2|0,1:2|0:0,0:0:0:0:
466,57,19593,6,0,P|459:34|461:60,1,75.0000028610231,2|2,2:2|2:2,0:0:0:0:
496,125,19760,1,0,0:0:0:0:
361,308,19927,6,0,P|319:306|300:230,1,119.999996337891,2|0,1:2|0:0,0:0:0:0:
114,121,20260,6,0,B|98:115|92:95|92:95|102:108|115:113,1,64.9999970245363,6|0,1:2|0:0,0:0:0:0:
188,135,20427,1,2,2:2:0:0:
340,0,20593,6,0,P|325:22|313:72,1,59.9999981689454,6|0,1:2|0:0,0:0:0:0:
321,138,20760,6,0,P|324:154|326:134,1,59.9999981689454
305,61,20927,1,0,0:0:0:0:
189,0,21093,5,8,2:3:0:0:
418,141,21260,1,4,2:3:0:0:
294,240,21427,5,6,2:2:0:0:
294,240,21927,5,2,2:2:0:0:
199,329,22760,5,2,2:2:0:0:
294,240,23260,5,2,2:2:0:0:
251,384,24093,5,2,2:2:0:0:
294,240,24593,5,2,2:2:0:0:
294,240,25260,5,2,2:2:0:0:
221,257,25594,1,2,2:2:0:0:
199,329,25927,1,2,2:2:0:0:
26,138,26760,5,2,2:2:0:0:
26,138,27260,5,2,2:2:0:0:
121,227,28093,5,2,2:2:0:0:
26,138,28593,5,2,2:2:0:0:
99,155,29426,5,2,2:2:0:0:
69,282,29926,5,2,2:2:0:0:
26,138,30260,5,2,2:2:0:0:
121,227,30593,5,2,2:2:0:0:
99,155,30926,1,2,2:2:0:0:
26,138,31260,1,2,2:2:0:0:
30,51,32093,6,0,B|21:33|-2:24|-2:24|42:7|78:40|69:89,1,150,4|0,2:1|0:0,0:0:0:0:
26,138,32427,5,10,2:2:0:0:
26,138,33093,5,8,2:2:0:0:
26,138,33760,5,10,2:2:0:0:
26,138,34426,5,8,2:2:0:0:
244,112,35093,5,10,2:2:0:0:
244,112,35759,5,8,2:2:0:0:
244,112,36426,5,8,2:2:0:0:
257,187,36927,5,8,2:2:0:0:
244,112,37093,1,8,2:2:0:0:
128,227,37427,6,0,B|136:254|163:261|163:261|139:362,1,150,10|0,3:2|3:3,0:0:0:0:
65,384,37760,1,10,3:2:0:0:
257,187,37927,5,2,3:2:0:0:
262,179,38010,1,2,3:2:0:0:
249,164,38093,1,10,3:2:0:0:
270,142,38177,1,0,0:0:0:0:
244,112,38260,2,0,B|238:108|238:108|228:53,1,50,2|0,3:2|0:0,0:0:0:0:
277,0,38427,5,8,2:2:0:0:
414,107,38593,5,2,3:2:0:0:
402,110,38677,1,2,3:2:0:0:
396,121,38760,2,0,P|435:128|450:185,1,100,10|2,2:2|3:2,0:0:0:0:
384,224,39010,1,0,3:3:0:0:
390,235,39093,2,0,L|375:311,1,50,10|0,3:2|0:0,0:0:0:0:
512,384,39260,5,2,3:2:0:0:
505,377,39343,1,0,3:3:0:0:
498,358,39427,1,8,3:2:0:0:
473,342,39510,1,0,3:3:0:0:
434,347,39593,2,0,P|420:361|374:363,1,50,0|0,3:3|3:3,0:0:0:0:
296,298,39760,5,8,3:2:0:0:
451,180,39927,5,2,3:2:0:0:
464,178,40010,1,2,3:2:0:0:
475,184,40093,2,0,B|495:203|491:232|491:232|436:169|346:178,1,200,6|2,1:2|2:2,0:0:0:0:
214,39,40593,6,0,B|200:-2|264:-48|339:16|296:96|243:112,1,200,6|2,1:2|2:2,0:0:0:0:
205,171,41093,6,0,B|201:135|170:112|170:112|302:-9|302:-9|339:164|339:164|298:167|273:199,1,500,6|0,1:2|0:0,0:0:0:0:
172,384,42093,5,4,2:3:0:0:
245,295,42260,5,4,2:3:0:0:
235,303,42343,1,4,2:3:0:0:
222,301,42427,2,0,P|206:288|201:248,1,50,8|0,2:2|0:0,0:0:0:0:
246,178,42593,2,0,P|248:160|238:176,1,50,0|0,1:1|0:0,0:0:0:0:
203,249,42760,6,0,B|211:251|211:251|238:356,1,89.9999972534181,6|2,1:2|3:2,0:0:0:0:
303,370,43010,1,0,3:3:0:0:
297,382,43093,1,10,3:2:0:0:
512,270,43260,5,2,3:2:0:0:
433,292,43427,1,2,3:2:0:0:
443,301,43510,1,0,3:3:0:0:
441,328,43593,1,2,3:2:0:0:
382,384,43760,5,10,3:2:0:0:
345,251,43927,1,2,3:2:0:0:
437,156,44093,6,0,P|443:133|471:116,1,44.999998626709,2|0,3:2|0:0,0:0:0:0:
203,249,44260,2,0,P|183:235|151:240,1,44.999998626709,2|0,3:2|3:3,0:0:0:0:
419,47,44427,6,0,P|439:34|471:42,1,44.999998626709,10|0,3:2|0:0,0:0:0:0:
145,155,44593,2,0,P|121:158|102:185,1,44.999998626709,2|0,3:2|0:0,0:0:0:0:
278,0,44760,5,2,3:2:0:0:
291,3,44843,1,0,3:3:0:0:
311,22,44927,1,2,3:2:0:0:
305,62,45010,1,0,3:3:0:0:
260,91,45093,1,10,1:2:0:0:
239,161,45177,1,0,3:3:0:0:
296,218,45260,2,0,B|310:229|328:223|328:223|312:220|298:209,1,67.5000002574921,2|0,3:2|3:3,0:0:0:0:
203,249,45427,6,0,B|211:251|211:251|238:356,1,89.9999972534181,2|2,1:2|3:2,0:0:0:0:
303,370,45677,1,0,3:3:0:0:
297,382,45760,1,10,3:2:0:0:
512,270,45927,5,2,3:2:0:0:
433,292,46094,1,2,3:2:0:0:
443,301,46177,1,0,3:3:0:0:
441,328,46260,1,2,3:2:0:0:
382,384,46427,5,10,3:2:0:0:
345,251,46594,1,2,3:2:0:0:
437,156,46760,6,0,P|443:133|471:116,1,44.999998626709,2|0,3:2|0:0,0:0:0:0:
203,249,46927,2,0,P|183:235|151:240,1,44.999998626709,2|0,3:2|3:3,0:0:0:0:
419,47,47094,6,0,P|439:34|471:42,1,44.999998626709,10|0,3:2|0:0,0:0:0:0:
145,155,47260,2,0,P|121:158|102:185,1,44.999998626709,2|0,3:2|0:0,0:0:0:0:
278,0,47427,5,2,3:2:0:0:
291,3,47510,1,0,3:3:0:0:
311,22,47594,1,2,3:2:0:0:
305,62,47677,1,0,3:3:0:0:
260,91,47760,1,10,1:2:0:0:
239,161,47844,1,0,3:3:0:0:
296,218,47927,2,0,B|310:229|328:223|328:223|312:220|298:209,1,67.5000002574921,2|0,3:2|3:3,0:0:0:0:
203,249,48093,6,0,B|211:251|211:251|238:356,1,89.9999972534181,6|2,1:2|3:2,0:0:0:0:
303,370,48343,1,0,3:3:0:0:
297,382,48426,1,10,3:2:0:0:
512,270,48593,5,2,3:2:0:0:
433,292,48760,1,2,3:2:0:0:
443,301,48843,1,0,3:3:0:0:
441,328,48926,1,2,3:2:0:0:
382,384,49093,5,10,3:2:0:0:
345,251,49260,1,2,3:2:0:0:
437,156,49426,6,0,P|443:133|471:116,1,44.999998626709,2|0,3:2|0:0,0:0:0:0:
203,249,49593,2,0,P|183:235|151:240,1,44.999998626709,2|0,3:2|3:3,0:0:0:0:
419,47,49760,6,0,P|439:34|471:42,1,44.999998626709,10|0,3:2|0:0,0:0:0:0:
145,155,49926,2,0,P|121:158|102:185,1,44.999998626709,2|0,3:2|0:0,0:0:0:0:
278,0,50093,5,2,3:2:0:0:
291,3,50176,1,0,3:3:0:0:
311,22,50260,1,2,3:2:0:0:
305,62,50343,1,0,3:3:0:0:
260,91,50426,1,10,1:2:0:0:
239,161,50510,1,0,3:3:0:0:
296,218,50593,2,0,B|310:229|328:223|328:223|312:220|298:209,1,67.5000002574921,2|0,3:2|3:3,0:0:0:0:
203,249,50760,6,0,B|211:251|211:251|238:356,1,89.9999972534181,2|2,1:2|3:2,0:0:0:0:
303,370,51010,1,0,3:3:0:0:
297,382,51093,1,10,3:2:0:0:
34,243,51260,6,0,B|79:255|79:255|99:292|99:292|143:304,1,134.999995880127,2|0,3:2|3:3,0:0:0:0:
203,249,51593,6,0,P|208:232|196:245,1,44.999998626709,2|2,3:2|3:2,0:0:0:0:
151,315,51760,1,10,3:2:0:0:
296,218,51927,5,2,3:2:0:0:
490,328,52093,6,0,B|402:349|402:349|399:355|399:355|281:380,1,192.500005874634,4|0,2:2|0:0,0:0:0:0:
297,382,52427,6,0,B|260:350|260:350|273:291,1,100,0|2,1:1|1:2,0:0:0:0:
361,144,52760,5,0,1:1:0:0:
351,141,52927,1,4,2:3:0:0:
178,89,53093,6,0,B|210:54|210:54|261:67,1,93.75,8|0,2:1|0:0,0:0:0:0:
266,74,53260,6,0,B|279:119|279:119|242:157,1,93.75,2|0,2:2|0:0,0:0:0:0:
234,157,53427,6,0,B|187:145|187:145|145:7|145:7|45:-15,1,262.500002503395,6|0,1:2|0:0,0:0:0:0:
8,34,53760,1,10,1:2:0:0:
382,62,53927,5,2,2:2:0:0:
388,42,54010,1,2,2:2:0:0:
317,4,54093,2,0,B|296:0|296:0|177:81,1,131.250001251698,2|0,1:2|0:0,0:0:0:0:
203,73,54260,6,0,B|112:134|112:134|91:130,1,131.250001251698,2|0,2:2|0:0,0:0:0:0:
83,122,54427,6,0,B|105:129|105:129|128:208,1,100,8|0,1:2|0:0,0:0:0:0:
339,354,54593,5,2,2:2:0:0:
324,370,54677,1,2,2:2:0:0:
238,376,54760,2,0,B|252:339|252:339|258:336|258:336|273:293,1,85.0000016212464,2|0,1:2|0:0,0:0:0:0:
218,230,54927,5,2,2:2:0:0:
353,157,55093,6,0,B|356:142|370:135|370:135|370:128|370:128|346:131|344:153,1,75.0000028610231,10|0,1:2|0:0,0:0:0:0:
435,198,55260,6,0,B|445:191|458:195|458:195|462:191|462:191|446:178|431:190,1,64.9999970245363,2|0,2:2|0:0,0:0:0:0:
392,58,55427,6,0,B|379:70|379:70|412:280,2,220.000006713867,0|0|8,1:1|0:0|1:2,0:0:0:0:
478,314,55927,5,2,2:2:0:0:
465,332,56011,1,2,2:2:0:0:
402,280,56093,6,0,B|395:275|395:275|364:284|364:284|329:258,1,80,2|0,1:2|0:0,0:0:0:0:
436,141,56260,6,0,B|434:148|434:148|457:170|457:170|453:213,1,80,2|0,2:2|0:0,0:0:0:0:
299,180,56427,6,0,B|305:177|305:177|312:146|312:146|352:128,1,80,10|0,1:2|0:0,0:0:0:0:
379,200,56593,6,0,B|318:226|318:226|308:290|308:290|254:316|254:316|248:313|248:313|184:345,1,255.000004863739,2|0,2:2|0:0,0:0:0:0:
122,308,56927,6,0,P|101:287|127:302,1,85.0000016212464,2|0,2:2|0:0,0:0:0:0:
191,350,57093,1,8,1:2:0:0:
402,280,57260,6,0,B|436:293,1,25,2|0,1:3|0:0,0:0:0:0:
58,371,57593,6,0,B|10:389,1,37.5000014305115,2|0,1:3|0:0,0:0:0:0:
497,260,57927,6,0,B|520:247|518:221|518:221|508:240|490:249,1,87.500000834465,6|2,1:2|2:2,0:0:0:0:
425,289,58093,5,2,2:2:0:0:
402,280,58177,1,2,2:2:0:0:
374,249,58260,1,2,2:2:0:0:
379,200,58343,1,2,2:2:0:0:
420,162,58427,5,2,2:2:0:0:
442,96,58510,1,2,2:2:0:0:
402,32,58593,1,2,2:2:0:0:
324,20,58677,1,2,2:2:0:0:
263,81,58760,6,0,B|309:96|309:96|366:223|366:223|311:328,1,284.999992389679,6|0,1:2|0:0,0:0:0:0:
244,333,59093,1,10,1:2:0:0:
494,10,59260,5,2,2:2:0:0:
476,0,59343,1,2,2:2:0:0:
402,32,59427,2,0,B|358:120|358:120|321:144,1,131.250001251698,2|0,1:2|0:0,0:0:0:0:
322,133,59593,6,0,B|295:151|295:151|251:239,1,131.250001251698,2|0,2:2|0:0,0:0:0:0:
256,252,59760,6,0,B|269:225|269:225|236:147,1,100,8|0,1:2|0:0,0:0:0:0:
28,22,59927,5,2,2:2:0:0:
43,6,60011,1,2,2:2:0:0:
129,0,60094,2,0,B|115:37|115:37|109:40|109:40|94:83,1,85.0000016212464,2|0,1:2|0:0,0:0:0:0:
158,138,60260,5,2,2:2:0:0:
116,280,60427,6,0,B|110:293|98:301|98:301|100:310|100:310|107:290|125:283,1,75.0000028610231,10|0,1:2|0:0,0:0:0:0:
35,245,60593,6,0,B|24:249|11:246|11:246|7:253|7:253|23:245|38:251,1,64.9999970245363,2|0,2:2|0:0,0:0:0:0:
79,384,60760,6,0,B|92:372|92:372|59:162,2,220.000006713867,0|0|8,1:1|0:0|1:2,0:0:0:0:
0,118,61260,5,2,2:2:0:0:
17,103,61344,1,2,2:2:0:0:
71,166,61427,6,0,B|79:168|79:168|102:143|102:143|170:163,1,80,2|0,1:2|0:0,0:0:0:0:
83,303,61593,6,0,B|80:294|80:294|47:287|47:287|31:218,1,80,2|0,2:2|0:0,0:0:0:0:
196,225,61760,6,0,B|190:230|190:230|200:263|200:263|149:312,1,80,10|0,1:2|0:0,0:0:0:0:
117,231,61927,6,0,B|157:222|157:222|200:145|200:145|207:148|207:148|337:111,1,255.000004863739,2|0,2:2|0:0,0:0:0:0:
402,164,62260,6,0,P|423:185|397:170,1,85.0000016212464,2|0,2:2|0:0,0:0:0:0:
333,122,62426,1,8,1:2:0:0:
138,153,62593,6,0,L|95:141,1,25,2|0,1:3|0:0,0:0:0:0:
476,108,62927,6,0,L|519:96,1,37.5000014305115,2|0,1:3|0:0,0:0:0:0:
41,175,63260,6,0,B|8:191|8:191|7:199|7:199|59:174,1,87.500000834465,6|2,1:2|2:2,0:0:0:0:
114,146,63427,5,2,2:2:0:0:
138,153,63510,1,2,2:2:0:0:
160,191,63593,1,2,2:2:0:0:
136,238,63677,1,2,2:2:0:0:
157,295,63760,5,2,2:2:0:0:
221,327,63843,1,2,2:2:0:0:
290,293,63927,1,2,2:2:0:0:
302,214,64010,1,2,2:2:0:0:
238,156,64093,6,0,B|229:114|229:114|358:-4|358:-4|417:17,1,262.500002503395,6|0,1:2|0:0,0:0:0:0:
465,61,64427,1,10,1:2:0:0:
155,136,64593,5,2,2:2:0:0:
138,122,64676,1,2,2:2:0:0:
186,57,64760,2,0,B|204:41|204:41|306:97,1,131.250001251698,2|0,1:2|0:0,0:0:0:0:
301,104,64927,6,0,B|394:155|394:155|412:139,1,131.250001251698,2|0,2:2|0:0,0:0:0:0:
417,127,65093,6,0,B|398:143|398:143|422:245,1,107.50000164032,8|0,1:2|0:0,0:0:0:0:
512,362,65260,5,2,2:2:0:0:
497,378,65344,1,2,2:2:0:0:
411,384,65427,2,0,B|425:347|425:347|431:344|431:344|446:301,1,85.0000016212464,2|0,1:2|0:0,0:0:0:0:
329,213,65593,5,2,2:2:0:0:
210,307,65760,6,0,B|173:298|173:298|149:223,1,75.0000028610231,10|0,1:2|0:0,0:0:0:0:
84,250,65927,6,0,B|83:218|83:218|137:183,1,64.9999970245363,2|0,2:2|0:0,0:0:0:0:
155,136,66093,6,0,B|111:310|111:310|31:350,2,220.000006713867,0|0|8,1:1|0:0|1:2,0:0:0:0:
0,362,66593,5,2,2:2:0:0:
8,380,66677,1,2,2:2:0:0:
81,341,66760,6,0,B|107:348|107:348|110:342|110:342|195:301,1,127.50000243187,2|0,1:2|0:0,0:0:0:0:
201,291,66927,6,0,B|194:280|194:280|218:189,1,89.9999972534181,2|0,2:2|0:0,0:0:0:0:
284,163,67093,6,0,B|323:144|323:144|272:197,1,89.9999972534181,10|0,1:2|0:0,0:0:0:0:
358,227,67260,6,0,B|314:214|314:214|307:216|307:216|200:181|200:181|175:70|175:70|105:47,1,330.000010070801,2|0,2:2|0:0,0:0:0:0:
54,92,67593,6,0,B|36:94|36:94|30:118|30:118|56:119|56:119|63:103,1,85.0000016212464,2|0,2:2|0:0,0:0:0:0:
118,46,67760,1,8,1:2:0:0:
422,149,67927,6,0,L|446:142,1,25,2|0,1:3|0:0,0:0:0:0:
41,7,68260,6,0,L|0:-2,1,37.5000014305115,2|0,1:3|0:0,0:0:0:0:
512,191,68593,6,0,B|531:203|531:203|529:229|529:229|502:194,1,87.500000834465,6|2,1:2|2:2,0:0:0:0:
446,142,68760,5,2,2:2:0:0:
422,149,68843,1,2,2:2:0:0:
399,176,68927,1,2,2:2:0:0:
393,220,69010,1,2,2:2:0:0:
420,262,69093,5,2,2:2:0:0:
365,216,69177,1,2,2:2:0:0:
292,235,69260,1,2,2:2:0:0:
266,311,69343,1,2,2:2:0:0:
326,376,69427,6,0,B|293:278|293:278|365:180|365:180|335:95,1,284.999992389679,6|0,1:2|0:0,0:0:0:0:
283,72,69760,1,10,1:2:0:0:
504,304,69927,5,2,2:2:0:0:
490,322,70011,1,2,2:2:0:0:
414,344,70093,2,0,B|334:293|334:293|342:237,1,131.250001251698,2|0,1:2|0:0,0:0:0:0:
333,247,70260,6,0,B|338:210|338:210|258:159,1,131.250001251698,2|0,2:2|0:0,0:0:0:0:
246,162,70427,6,0,B|272:181|272:181|362:153,1,107.50000164032,8|0,1:2|0:0,0:0:0:0:
411,22,70593,5,2,2:2:0:0:
426,6,70677,1,2,2:2:0:0:
512,0,70760,2,0,B|498:37|498:37|492:40|492:40|477:83,1,85.0000016212464,2|0,1:2|0:0,0:0:0:0:
479,231,70927,5,2,2:2:0:0:
218,26,71093,6,0,B|211:22|211:22|181:35|181:35|183:39|183:39|157:110,1,75.0000028610231,10|0,1:2|0:0,0:0:0:0:
92,83,71260,6,0,B|86:88|86:88|91:118|91:118|95:117|95:117|153:158,1,64.9999970245363,2|0,2:2|0:0,0:0:0:0:
167,192,71427,6,0,B|123:18|123:18|43:-22,2,220.000006713867,0|0|8,1:1|0:0|1:2,0:0:0:0:
87,384,71927,5,2,2:2:0:0:
83,371,72010,1,2,2:2:0:0:
91,360,72093,2,0,P|92:334|29:312,2,100,6|2|2,1:2|2:2|2:2,0:0:0:0:
0,382,72593,6,0,B|61:358|61:358|76:296|76:296|141:268,1,200,2|2,2:2|2:2,0:0:0:0:
215,303,73010,1,0,0:0:0:0:
208,314,73093,1,0,1:1:0:0:
349,384,73260,6,0,L|372:376,1,22.4999993133545,2|0,1:3|0:0,0:0:0:0:
32,310,73593,6,0,L|-7:297,1,34.9999989318848,2|0,1:3|0:0,0:0:0:0:
433,332,73927,6,0,B|481:311|454:281|426:323,1,82.5000007867813,6|2,1:2|2:2,0:0:0:0:
370,377,74093,5,2,2:2:0:0:
349,384,74177,1,2,2:2:0:0:
324,363,74260,1,2,2:2:0:0:
331,314,74343,1,2,2:2:0:0:
290,275,74427,5,2,2:2:0:0:
251,287,74510,1,2,2:2:0:0:
239,309,74593,1,2,2:2:0:0:
244,329,74677,1,2,2:2:0:0:
253,336,74760,6,0,B|260:294|260:294|415:250|415:250|449:292,1,244.999992523194,6|0,1:2|0:0,0:0:0:0:
445,295,75093,5,2,2:2:0:0:
512,164,75260,5,2,1:2:0:0:
507,178,75344,1,2,2:2:0:0:
495,185,75427,2,0,B|383:153|383:153|374:100,2,139.999995727539,10|2|0,2:2|2:2|1:1,0:0:0:0:
394,21,75927,5,2,1:2:0:0:
389,7,76011,1,2,2:2:0:0:
377,0,76093,1,2,1:2:0:0:
325,57,76260,1,2,2:2:0:0:
370,122,76427,2,0,B|378:173|378:173|375:176|375:176|387:242,2,115.000002193451,2|2|10,2:2|1:2|2:2,0:0:0:0:
453,290,76927,5,2,2:2:0:0:
444,297,77010,1,2,2:2:0:0:
438,320,77093,1,2,2:2:0:0:
456,353,77177,1,2,2:2:0:0:
511,368,77260,2,0,B|525:365|536:350|536:350|522:360|501:359,1,57.5000010967255,2|2,1:2|2:2,0:0:0:0:
355,378,77427,6,0,B|349:382|349:382|196:336,2,139.999995727539,2|2|2,1:2|2:2|2:2,0:0:0:0:
289,255,77927,6,0,B|212:286|212:286|207:331|207:331|121:364,1,209.999993591309,2|0,1:2|0:0,0:0:0:0:
59,325,78260,6,0,B|35:300|35:300|81:322,1,69.9999978637696,2|0,2:2|0:0,0:0:0:0:
124,372,78427,1,8,2:3:0:0:
367,292,78593,6,0,L|413:281,1,25,2|0,1:2|0:0,0:0:0:0:
134,240,78927,6,0,L|97:231,1,37.5000014305115,2|0,1:3|0:0,0:0:0:0:
367,125,79260,6,0,B|403:116|403:116|407:110|407:110|449:99,1,82.5000007867813,6|0,1:2|0:0,0:0:0:0:
512,139,79427,5,4,2:3:0:0:
453,89,79593,1,4,2:3:0:0:
495,31,79760,1,8,2:3:0:0:
477,10,79927,1,0,1:1:0:0:
486,0,80093,6,0,B|479:55|479:55|474:61|474:61|463:142|463:142|483:177|483:177|471:261,1,244.999992523194,6|0,1:2|0:0,0:0:0:0:
467,246,80427,5,2,2:2:0:0:
393,372,80593,5,2,1:2:0:0:
377,371,80677,1,2,2:2:0:0:
366,363,80760,2,0,B|354:264|354:264|394:230,2,139.999995727539,10|2|0,2:2|2:2|1:1,0:0:0:0:
370,152,81260,5,2,1:2:0:0:
354,153,81344,1,2,2:2:0:0:
343,161,81427,1,2,1:2:0:0:
380,228,81593,1,2,2:2:0:0:
324,279,81760,2,0,B|314:281|314:281|193:240,2,115.000002193451,2|2|10,2:2|1:2|2:2,0:0:0:0:
78,166,82260,5,2,2:2:0:0:
88,161,82343,1,2,2:2:0:0:
93,144,82427,2,0,P|90:120|45:101,1,57.5000010967255,2|2,2:2|2:2,0:0:0:0:
166,102,82593,2,0,P|185:87|179:38,1,57.5000010967255,2|2,1:2|2:2,0:0:0:0:
108,22,82760,6,0,B|114:28|114:28|150:228,1,192.500005874634,6|0,1:2|0:0,0:0:0:0:
143,219,83093,5,2,2:2:0:0:
215,247,83260,1,2,1:2:0:0:
472,76,83593,5,2,2:2:0:0:
485,82,83677,1,2,2:2:0:0:
490,95,83760,1,0,0:0:0:0:
424,136,83927,1,2,1:2:0:0:
190,56,84260,5,6,1:2:0:0:
245,5,84427,1,2,2:2:0:0:
316,26,84593,2,0,B|298:43|298:43|98:9,1,200,6|0,1:2|0:0,0:0:0:0:
13,96,85093,5,8,2:3:0:0:
79,184,85260,1,4,2:3:0:0:
79,184,85427,5,2,2:2:0:0:
79,184,85927,5,2,2:2:0:0:
0,286,86760,5,2,2:2:0:0:
79,184,87260,5,2,2:2:0:0:
57,333,88093,5,2,2:2:0:0:
79,184,88593,5,2,2:2:0:0:
79,184,89260,5,2,2:2:0:0:
10,211,89594,1,2,2:2:0:0:
0,286,89927,6,0,P|5:300|4:284,1,40,2|0,2:2|0:0,0:0:0:0:
163,361,90760,5,2,2:2:0:0:
163,361,91260,5,2,2:2:0:0:
258,272,92093,5,2,2:2:0:0:
163,361,92593,5,2,2:2:0:0:
236,344,93426,5,2,2:2:0:0:
206,217,93926,5,2,2:2:0:0:
163,361,94260,5,2,2:2:0:0:
258,272,94593,5,2,2:2:0:0:
236,344,94926,1,2,2:2:0:0:
163,361,95260,6,0,P|145:359|162:354,1,50,2|0,2:2|0:0,0:0:0:0:
