osu file format v14

[General]
AudioFilename: audio.mp3
AudioLeadIn: 0
PreviewTime:164569
Countdown: 0
SampleSet: Soft
StackLeniency: 0.3
Mode: 0
LetterboxInBreaks: 0
WidescreenStoryboard: 1

[Editor]
DistanceSpacing: 1
BeatDivisor: 4
GridSize: 4
TimelineZoom: 1.7

[Metadata]
Title:LEVEL
TitleUnicode:LEVEL <やなぎなぎ ver.>
Artist:yanaginagi x THE SIXTH LIE
ArtistUnicode:やなぎなぎ×THE SIXTH LIE
Creator:ItsCactus
Version:Murada-'s Insane
Source:天才王子の赤字国家再生術
Tags:japanese jp pop jpop j-pop opening op Tensai Ouji no Akaji Kokka Saisei Jutsu The Genius Prince's Guide to Raising a Nation Out of Debt Yokohama Animation Anime Laboratory Lab Murada- Ninym
BeatmapID:3569776
BeatmapSetID:1731620

[Difficulty]
HPDrainRate:5
CircleSize:4
OverallDifficulty:8
ApproachRate:9
SliderMultiplier:1.6
SliderTickRate:1

[Events]
//Background and Video events
0,0,"bg.jpg",0,0
//Break Periods
2,143498,152868
2,165193,175240
//Storyboard Layer 0 (Background)
//Storyboard Layer 1 (Fail)
//Storyboard Layer 2 (Pass)
//Storyboard Layer 3 (Foreground)
//Storyboard Layer 4 (Overlay)
//Storyboard Sound Samples

[TimingPoints]
1721,344.827586206897,4,2,17,40,1,0
2065,-111.111111111111,4,2,17,40,0,0
12410,-200,4,2,17,40,0,0
12755,-100,4,2,17,60,0,0
22065,-200,4,2,17,60,0,0
22324,-200,4,2,17,5,0,0
22410,-83.3333333333333,4,2,17,60,0,0
23789,-125,4,2,17,60,0,0
29307,-105.263157894737,4,2,17,60,0,0
32065,-90.9090909090909,4,2,17,60,0,0
32410,-90.9090909090909,4,2,17,30,0,0
32755,-90.9090909090909,4,2,17,40,0,0
33100,-90.9090909090909,4,2,17,60,0,0
33445,-90.9090909090909,4,2,17,70,0,0
34479,-200,4,2,17,60,0,0
34739,-200,4,2,17,5,0,0
34824,338.983050847458,4,2,17,75,1,0
34824,-66.6666666666667,4,2,17,75,0,1
35078,-66.6666666666667,4,2,17,5,0,1
35162,-83.3333333333333,4,2,17,75,0,1
35417,-83.3333333333333,4,2,17,5,0,1
35501,-83.3333333333333,4,2,17,75,0,1
36095,-83.3333333333333,4,2,17,5,0,1
36179,-83.3333333333333,4,2,17,75,0,1
36773,-83.3333333333333,4,2,17,5,0,1
36857,-83.3333333333333,4,2,17,75,0,1
37451,-83.3333333333333,4,2,17,5,0,1
37535,-83.3333333333333,4,2,17,75,0,1
37790,-83.3333333333333,4,2,17,5,0,1
37874,-83.3333333333333,4,2,17,75,0,1
38807,-83.3333333333333,4,2,17,5,0,1
38891,-83.3333333333333,4,2,17,75,0,1
39146,-83.3333333333333,4,2,17,5,0,1
39230,-83.3333333333333,4,2,17,75,0,1
40078,-66.6666666666667,4,2,17,75,0,1
40586,-83.3333333333333,4,2,17,75,0,1
40840,-83.3333333333333,4,2,17,5,0,1
40924,-83.3333333333333,4,2,17,75,0,1
41518,-83.3333333333333,4,2,17,5,0,1
41602,-83.3333333333333,4,2,17,75,0,1
42196,-83.3333333333333,4,2,17,5,0,1
42280,-83.3333333333333,4,2,17,75,0,1
42535,-83.3333333333333,4,2,17,5,0,1
42619,-83.3333333333333,4,2,17,75,0,1
43976,-66.6666666666667,4,2,17,75,0,1
44654,-83.3333333333333,4,2,17,75,0,1
45332,-83.3333333333333,4,2,17,75,0,0
45671,-66.6666666666667,4,2,17,75,0,1
45925,-66.6666666666667,4,2,17,5,0,1
46010,-83.3333333333333,4,2,17,75,0,1
46603,-83.3333333333333,4,2,17,5,0,1
46687,-83.3333333333333,4,2,17,75,0,1
47281,-83.3333333333333,4,2,17,5,0,1
47365,-83.3333333333333,4,2,17,75,0,1
47620,-83.3333333333333,4,2,17,5,0,1
47704,-83.3333333333333,4,2,17,75,0,1
48298,-83.3333333333333,4,2,17,5,0,1
48382,-83.3333333333333,4,2,17,75,0,1
48637,-83.3333333333333,4,2,17,5,0,1
48721,-83.3333333333333,4,2,17,75,0,1
49315,-83.3333333333333,4,2,17,5,0,1
49399,-83.3333333333333,4,2,17,75,0,1
49993,-83.3333333333333,4,2,17,5,0,1
50077,-83.3333333333333,4,2,17,75,0,1
50925,-66.6666666666667,4,2,17,75,0,1
51434,-83.3333333333333,4,2,17,75,0,1
51688,-83.3333333333333,4,2,17,5,0,1
51772,-83.3333333333333,4,2,17,75,0,1
52366,-83.3333333333333,4,2,17,5,0,1
52450,-83.3333333333333,4,2,17,75,0,1
53044,-83.3333333333333,4,2,17,5,0,1
53128,-83.3333333333333,4,2,17,75,0,1
53383,-83.3333333333333,4,2,17,5,0,1
53467,-83.3333333333333,4,2,17,75,0,1
54061,-83.3333333333333,4,2,17,5,0,1
54145,-83.3333333333333,4,2,17,75,0,1
56518,-100,4,2,17,60,0,0
64824,-100,4,2,17,30,0,0
65162,-100,4,2,17,40,0,0
65501,-100,4,2,17,60,0,0
65840,-100,4,2,17,70,0,0
66857,-100,4,2,17,60,0,0
67366,-90.9090909090909,4,2,17,70,0,0
78213,-142.857142857143,4,2,17,55,0,0
89061,-133.333333333333,4,2,17,55,0,0
99908,-125,4,2,17,65,0,0
105332,-105.263157894737,4,2,17,65,0,0
108044,-90.9090909090909,4,2,17,80,0,0
108383,-90.9090909090909,4,2,17,30,0,0
108721,-90.9090909090909,4,2,17,40,0,0
109060,-90.9090909090909,4,2,17,60,0,0
109399,-90.9090909090909,4,2,17,70,0,0
110756,-66.6666666666667,4,2,17,75,0,1
111010,-66.6666666666667,4,2,17,5,0,1
111095,-83.3333333333333,4,2,17,75,0,1
111349,-83.3333333333333,4,2,17,5,0,1
111434,-83.3333333333333,4,2,17,75,0,1
112027,-83.3333333333333,4,2,17,5,0,1
112112,-83.3333333333333,4,2,17,75,0,1
112705,-83.3333333333333,4,2,17,5,0,1
112790,-83.3333333333333,4,2,17,75,0,1
113383,-83.3333333333333,4,2,17,5,0,1
113468,-83.3333333333333,4,2,17,75,0,1
113722,-83.3333333333333,4,2,17,5,0,1
113807,-83.3333333333333,4,2,17,75,0,1
114739,-83.3333333333333,4,2,17,5,0,1
114824,-83.3333333333333,4,2,17,75,0,1
116010,-66.6666666666667,4,2,17,75,0,1
116518,-83.3333333333333,4,2,17,75,0,1
116773,-83.3333333333333,4,2,17,5,0,1
116858,-83.3333333333333,4,2,17,75,0,1
117451,-83.3333333333333,4,2,17,5,0,1
117536,-83.3333333333333,4,2,17,75,0,1
118129,-83.3333333333333,4,2,17,5,0,1
118214,-83.3333333333333,4,2,17,75,0,1
118468,-83.3333333333333,4,2,17,5,0,1
118553,-83.3333333333333,4,2,17,75,0,1
119908,-66.6666666666667,4,2,17,75,0,1
120586,-83.3333333333333,4,2,17,75,0,1
121264,-200,4,2,17,75,0,0
121518,-200,4,2,17,5,0,0
121603,-66.6666666666667,4,2,17,75,0,1
121857,-66.6666666666667,4,2,17,5,0,1
121942,-83.3333333333333,4,2,17,75,0,1
122535,-83.3333333333333,4,2,17,5,0,1
122620,-83.3333333333333,4,2,17,75,0,1
123213,-83.3333333333333,4,2,17,5,0,1
123298,-83.3333333333333,4,2,17,75,0,1
123552,-83.3333333333333,4,2,17,5,0,1
123637,-83.3333333333333,4,2,17,75,0,1
124230,-83.3333333333333,4,2,17,5,0,1
124315,-83.3333333333333,4,2,17,75,0,1
124569,-83.3333333333333,4,2,17,5,0,1
124654,-83.3333333333333,4,2,17,75,0,1
125247,-83.3333333333333,4,2,17,5,0,1
125332,-83.3333333333333,4,2,17,75,0,1
125925,-83.3333333333333,4,2,17,5,0,1
126010,-83.3333333333333,4,2,17,75,0,1
126857,-66.6666666666667,4,2,17,75,0,1
127366,-83.3333333333333,4,2,17,75,0,1
127620,-83.3333333333333,4,2,17,5,0,1
127705,-83.3333333333333,4,2,17,75,0,1
128298,-83.3333333333333,4,2,17,5,0,1
128383,-83.3333333333333,4,2,17,75,0,1
128976,-83.3333333333333,4,2,17,5,0,1
129061,-83.3333333333333,4,2,17,75,0,1
129315,-83.3333333333333,4,2,17,5,0,1
129400,-83.3333333333333,4,2,17,75,0,1
129993,-83.3333333333333,4,2,17,5,0,1
130078,-83.3333333333333,4,2,17,75,0,1
132451,-100,4,2,17,60,0,0
140756,-100,4,2,17,30,0,0
141094,-100,4,2,17,40,0,0
141433,-100,4,2,17,60,0,0
141772,-100,4,2,17,70,0,0
143298,-100,4,2,17,60,0,0
154146,-100,4,2,17,65,0,0
159569,-90.9090909090909,4,2,17,65,0,0
159739,-90.9090909090909,4,2,17,30,0,0
160246,-90.9090909090909,4,2,17,40,0,0
160585,-90.9090909090909,4,2,17,60,0,0
160924,-90.9090909090909,4,2,17,70,0,0
164993,-90.9090909090909,4,2,17,40,0,0
175840,-100,4,2,17,60,0,0
181264,-90.9090909090909,4,2,17,60,0,1
181349,-90.9090909090909,4,2,17,60,0,0
181603,-90.9090909090909,4,2,17,30,0,0
181941,-90.9090909090909,4,2,17,40,0,0
182280,-90.9090909090909,4,2,17,60,0,0
182619,-90.9090909090909,4,2,17,70,0,0
183976,-90.9090909090909,4,2,17,70,0,1
184061,-90.9090909090909,4,2,17,70,0,0
184485,-90.9090909090909,4,2,17,70,0,1
184569,-90.9090909090909,4,2,17,70,0,0
184993,-90.9090909090909,4,2,17,70,0,1
185078,-90.9090909090909,4,2,17,70,0,0
185501,-90.9090909090909,4,2,17,70,0,1
186688,-100,4,2,17,60,0,0
187027,-66.6666666666667,4,2,17,75,0,1
187281,-66.6666666666667,4,2,17,5,0,1
187366,-83.3333333333333,4,2,17,75,0,1
187959,-83.3333333333333,4,2,17,5,0,1
188044,-83.3333333333333,4,2,17,75,0,1
188637,-83.3333333333333,4,2,17,5,0,1
188722,-83.3333333333333,4,2,17,75,0,1
189315,-83.3333333333333,4,2,17,5,0,1
189400,-83.3333333333333,4,2,17,75,0,1
189654,-83.3333333333333,4,2,17,5,0,1
189739,-83.3333333333333,4,2,17,75,0,1
190671,-83.3333333333333,4,2,17,5,0,1
190756,-83.3333333333333,4,2,17,75,0,1
191010,-83.3333333333333,4,2,17,5,0,1
191095,-83.3333333333333,4,2,17,75,0,1
191942,-66.6666666666667,4,2,17,75,0,1
192451,-83.3333333333333,4,2,17,75,0,1
192705,-83.3333333333333,4,2,17,5,0,1
192790,-83.3333333333333,4,2,17,75,0,1
193383,-83.3333333333333,4,2,17,5,0,1
193468,-83.3333333333333,4,2,17,75,0,1
194061,-83.3333333333333,4,2,17,5,0,1
194146,-83.3333333333333,4,2,17,75,0,1
194400,-83.3333333333333,4,2,17,5,0,1
194485,-83.3333333333333,4,2,17,75,0,1
195840,-66.6666666666667,4,2,17,75,0,1
196518,-83.3333333333333,4,2,17,75,0,1
197196,-83.3333333333333,4,2,17,75,0,0
197535,-66.6666666666667,4,2,17,75,0,1
197790,-66.6666666666667,4,2,17,5,0,1
197874,-83.3333333333333,4,2,17,75,0,1
198468,-83.3333333333333,4,2,17,5,0,1
198553,-83.3333333333333,4,2,17,75,0,1
199146,-83.3333333333333,4,2,17,5,0,1
199231,-83.3333333333333,4,2,17,75,0,1
199485,-83.3333333333333,4,2,17,5,0,1
199570,-83.3333333333333,4,2,17,75,0,1
200162,-83.3333333333333,4,2,17,5,0,1
200247,-83.3333333333333,4,2,17,75,0,1
200501,-83.3333333333333,4,2,17,5,0,1
200586,-83.3333333333333,4,2,17,75,0,1
201179,-83.3333333333333,4,2,17,5,0,1
201264,-83.3333333333333,4,2,17,75,0,1
201857,-83.3333333333333,4,2,17,5,0,1
201942,-83.3333333333333,4,2,17,75,0,1
202790,-66.6666666666667,4,2,17,75,0,1
203298,-83.3333333333333,4,2,17,75,0,1
203552,-83.3333333333333,4,2,17,5,0,1
203637,-83.3333333333333,4,2,17,75,0,1
204230,-83.3333333333333,4,2,17,5,0,1
204315,-83.3333333333333,4,2,17,75,0,1
204908,-83.3333333333333,4,2,17,5,0,1
204993,-83.3333333333333,4,2,17,75,0,1
205247,-83.3333333333333,4,2,17,5,0,1
205332,-83.3333333333333,4,2,17,75,0,1
205925,-83.3333333333333,4,2,17,5,0,1
206010,-83.3333333333333,4,2,17,75,0,1
208383,-100,4,2,17,60,0,0
216349,-100,4,2,17,80,0,0
216688,-100,4,2,17,30,0,0
217026,-100,4,2,17,40,0,0
217365,-100,4,2,17,60,0,0
217704,-100,4,2,17,70,0,0
218383,-100,4,2,17,60,0,0
220586,-100,4,2,17,65,0,0
221942,-90.9090909090909,4,2,17,70,0,0
230332,-90.9090909090909,4,2,17,5,0,0
230417,-90.9090909090909,4,2,17,70,0,0
247705,-90.9090909090909,4,2,17,5,0,0

[Colours]
Combo1 : 241,164,112
Combo2 : 253,241,172
Combo3 : 255,197,193
Combo4 : 212,39,38

[HitObjects]
66,19,1721,5,6,0:0:0:0:
66,19,1893,1,2,0:0:0:0:
0,74,2065,2,0,L|142:56,2,143.999995605469,2|2|2,0:0|0:0|0:0,0:0:0:0:
225,46,2927,6,0,L|207:188,1,143.999995605469,2|2,0:0|0:0,0:0:0:0:
360,170,3445,1,2,0:0:0:0:
360,170,3617,2,0,L|289:178,2,71.9999978027344,2|2|2,0:0|0:0|0:0,0:0:0:0:
207,188,4134,1,2,0:0:0:0:
207,188,4479,6,0,L|199:259,1,71.9999978027344,2|2,0:0|0:0,0:0:0:0:
74,243,4824,1,2,0:0:0:0:
74,243,4996,1,2,0:0:0:0:
125,178,5169,2,0,L|107:320,1,143.999995605469,2|2,0:0|0:0,0:0:0:0:
281,249,5686,6,0,L|423:231,1,143.999995605469,2|2,0:0|0:0,0:0:0:0:
465,83,6203,2,0,L|457:154,1,71.9999978027344,2|0,0:0|0:0,0:0:0:0:
349,196,6548,1,2,0:0:0:0:
349,196,6721,1,2,0:0:0:0:
465,83,6893,1,2,0:0:0:0:
465,83,7238,6,0,L|394:91,1,71.9999978027344,2|2,0:0|0:0,0:0:0:0:
312,101,7583,1,2,0:0:0:0:
312,101,7755,1,2,0:0:0:0:
277,23,7927,2,0,L|259:165,1,143.999995605469,2|2,0:0|0:0,0:0:0:0:
196,319,8445,6,0,L|178:177,1,143.999995605469,2|2,0:0|0:0,0:0:0:0:
115,309,8962,1,2,0:0:0:0:
115,309,9134,1,2,0:0:0:0:
196,319,9307,2,0,L|267:327,1,71.9999978027344,2|0,0:0|0:0,0:0:0:0:
178,176,9652,1,2,0:0:0:0:
178,176,9996,5,2,0:0:0:0:
178,176,10168,1,2,0:0:0:0:
100,141,10341,2,0,L|242:123,2,143.999995605469,2|2|2,0:0|0:0|0:0,0:0:0:0:
0,293,11203,6,0,L|18:151,1,143.999995605469,2|2,0:0|0:0,0:0:0:0:
28,69,11720,1,2,0:0:0:0:
88,310,12238,5,2,0:0:0:0:
88,310,12325,1,2,0:0:0:0:
88,310,12410,2,0,L|148:303,1,60,2|0,0:0|0:0,0:0:0:0:
180,298,12755,5,6,1:2:0:0:
305,367,12927,1,0,1:2:0:0:
180,298,13100,2,0,L|170:377,1,80,10|2,0:0|0:0,0:0:0:0:
220,223,13445,2,0,P|229:154|161:166,1,160,2|10,0:0|0:0,0:0:0:0:
180,298,13962,6,0,B|220:318|260:298|260:298|304:274|333:293,1,160,2|2,1:2|1:2,0:0:0:0:
383,352,14479,1,10,0:0:0:0:
305,367,14651,1,2,0:0:0:0:
411,278,14824,2,0,L|490:268,1,80,2|2,0:0|1:2,0:0:0:0:
359,217,15169,2,0,L|369:138,1,80,10|0,0:0|0:0,0:0:0:0:
475,48,15514,5,0,1:2:0:0:
448,123,15686,1,0,1:2:0:0:
322,72,15858,2,0,P|357:55|396:62,1,80,10|2,0:0|0:0,0:0:0:0:
290,146,16203,2,0,L|131:126,1,160,2|8,0:0|0:0,0:0:0:0:
62,239,16721,6,0,B|81:210|57:166|57:166|37:126|57:86,1,160,2|2,1:2|1:2,0:0:0:0:
128,41,17238,1,10,0:0:0:0:
52,1,17410,1,2,0:0:0:0:
207,51,17583,2,0,L|128:41,1,80,2|2,0:0|1:2,0:0:0:0:
288,61,17927,2,0,L|367:71,1,80,10|0,0:0|0:0,0:0:0:0:
227,211,18272,5,6,1:2:0:0:
207,51,18445,1,0,1:2:0:0:
227,211,18617,2,0,L|217:132,1,80,10|2,0:0|0:0,0:0:0:0:
188,287,18962,2,0,B|228:307|268:287|268:287|312:263|341:282,1,160,2|10,0:0|0:0,0:0:0:0:
493,372,19479,6,0,L|513:213,1,160,2|2,1:2|1:2,0:0:0:0:
420,272,19996,1,10,0:0:0:0:
389,345,20169,1,2,0:0:0:0:
341,282,20341,2,0,L|331:203,1,80,2|0,0:0|1:2,0:0:0:0:
420,272,20686,2,0,L|410:193,1,80,10|0,0:0|0:0,0:0:0:0:
451,39,21031,5,2,1:2:0:0:
361,129,21203,1,0,1:2:0:0:
451,39,21376,2,0,L|441:118,1,80,10|0,0:0|0:0,0:0:0:0:
331,203,21721,2,0,L|252:193,1,80,2|0,0:0|1:2,0:0:0:0:
107,56,22065,6,0,P|134:44|163:48,1,60,10|0,0:0|0:0,0:0:0:0:
187,67,22410,6,0,L|175:162,1,95.9999970703126,6|0,1:2|1:2,0:0:0:0:
158,305,22755,5,8,0:0:0:0:
158,305,23100,1,10,0:0:0:0:
46,329,23272,1,8,0:3:0:0:
0,249,23445,1,4,0:3:0:0:
48,193,23617,5,0,1:2:0:0:
48,193,23703,1,0,1:2:0:0:
48,193,23789,6,0,L|32:65,2,128,6|0|8,1:2|1:2|0:0,0:0:0:0:
256,352,24824,1,2,1:2:0:0:
314,292,24996,6,0,P|256:316|199:292,2,128,2|8|0,1:2|0:0|1:2,0:0:0:0:
256,231,25858,2,0,L|263:167,1,64,8|0,0:0|0:0,0:0:0:0:
199,292,26203,2,0,L|191:355,1,64,2|2,1:2|0:0,0:0:0:0:
263,167,26548,6,0,B|295:151|327:167|327:167|359:183|386:169,1,128,2|2,1:2|1:2,0:0:0:0:
362,91,27065,1,2,1:2:0:0:
263,167,27238,2,0,L|279:39,1,128,8|2,0:0|1:2,0:0:0:0:
386,169,27755,1,2,1:2:0:0:
368,313,27927,2,0,L|375:249,1,64,8|0,0:0|1:2,0:0:0:0:
208,335,28272,5,2,1:2:0:0:
263,167,28445,1,8,0:0:0:0:
288,324,28617,5,6,1:2:0:0:
239,261,28789,1,8,0:0:0:0:
208,335,28962,2,0,L|176:338,2,32,2|0|0,1:2|1:2|1:2,0:0:0:0:
375,248,29307,6,0,P|430:200|502:214,1,151.999995941162,6|0,1:2|0:0,0:0:0:0:
453,281,29824,1,0,1:2:0:0:
375,248,29996,2,0,L|356:97,1,151.999995941162,8|2,0:0|0:0,0:0:0:0:
502,215,30514,2,0,L|512:140,1,75.9999979705811,2|0,1:2|1:2,0:0:0:0:
356,97,30858,1,8,0:0:0:0:
375,248,31031,6,0,P|341:231|304:239,1,75.9999979705811,2|0,0:0|1:2,0:0:0:0:
278,378,31376,5,10,0:0:0:0:
331,317,31548,1,8,0:0:0:0:
235,288,31720,5,8,0:3:0:0:
251,302,31893,1,4,0:3:0:0:
94,369,32065,6,0,L|72:194,1,176.000005371094,6|8,1:2|0:0,0:0:0:0:
50,19,32583,1,8,0:0:0:0:
213,88,32755,1,8,0:0:0:0:
61,106,32927,1,8,0:0:0:0:
202,1,33100,1,8,0:0:0:0:
224,175,33272,1,8,0:0:0:0:
365,70,33445,5,6,1:2:0:0:
363,80,33530,1,0,3:3:0:0:
362,91,33616,1,8,0:3:0:0:
360,102,33702,1,0,3:3:0:0:
359,113,33789,2,0,L|353:156,1,44.0000013427735,8|4,0:3|0:3,0:0:0:0:
423,247,33962,2,0,L|417:290,1,44.0000013427735,0|0,1:2|1:2,0:0:0:0:
325,361,34134,5,8,0:0:0:0:
67,304,34479,6,0,L|127:297,1,60,2|0,0:0|0:0,0:0:0:0:
163,370,34824,6,0,B|171:302|171:302|151:263|151:263|160:195,1,180.000006866455,6|0,1:2|0:0,0:0:0:0:
206,127,35162,2,0,P|146:163|79:142,1,143.999995605469,10|0,0:0|0:0,0:0:0:0:
0,130,35501,2,0,P|2:84|44:69,1,95.9999970703126,2|0,1:2|0:0,0:0:0:0:
243,211,35840,2,0,L|385:193,1,143.999995605469,10|0,0:0|0:0,0:0:0:0:
465,181,36179,6,0,P|463:135|421:120,1,95.9999970703126,2|0,1:2|0:0,0:0:0:0:
206,127,36518,2,0,P|185:60|222:0,1,143.999995605469,10|0,0:0|0:0,0:0:0:0:
269,71,36857,2,0,L|364:59,1,95.9999970703126,2|0,1:2|0:0,0:0:0:0:
465,181,37196,2,0,L|447:323,1,143.999995605469,10|0,0:0|0:0,0:0:0:0:
504,384,37535,6,0,P|444:347|376:368,1,143.999995605469,2|0,1:2|0:0,0:0:0:0:
297,369,37874,1,10,0:0:0:0:
369,193,38044,2,0,L|464:181,1,95.9999970703126,2|0,0:0|1:2,0:0:0:0:
447,324,38383,1,2,0:0:0:0:
287,219,38552,2,0,B|270:193|290:153|290:153|310:113|290:81,1,143.999995605469,10|0,0:0|0:0,0:0:0:0:
226,33,38891,6,0,L|368:51,1,143.999995605469,0|0,1:2|0:0,0:0:0:0:
450,61,39230,1,8,0:0:0:0:
369,193,39400,1,0,0:0:0:0:
216,114,39569,2,0,L|121:126,1,95.9999970703126,2|0,1:2|1:2,0:0:0:0:
27,268,39908,1,10,0:0:0:0:
52,39,40078,6,0,B|37:158|37:158|41:154|41:154|27:268,1,240.000009155274,6|0,1:2|0:0,0:0:0:0:
191,300,40586,2,0,P|190:237|128:254,1,143.999995605469,14|0,0:0|0:0,0:0:0:0:
113,336,40925,2,0,L|18:348,1,95.9999970703126,2|0,1:2|0:0,0:0:0:0:
184,384,41264,2,0,P|228:322|323:287,1,143.999995605469,10|0,0:0|0:0,0:0:0:0:
359,254,41603,6,0,P|369:300|348:343,1,95.9999970703126,0|0,1:2|0:0,0:0:0:0:
289,208,41942,2,0,B|321:228|361:208|361:208|401:188|427:205,1,143.999995605469,10|0,0:0|0:0,0:0:0:0:
455,281,42281,2,0,L|473:139,1,143.999995605469,2|0,1:2|0:0,0:0:0:0:
483,57,42620,2,0,L|388:69,1,95.9999970703126,10|0,0:0|0:0,0:0:0:0:
289,208,42959,5,14,0:0:0:0:
309,46,43129,1,0,1:2:0:0:
299,127,43298,1,0,1:2:0:0:
71,97,43468,5,14,0:0:0:0:
233,77,43638,1,0,1:2:0:0:
152,87,43807,1,10,0:0:0:0:
123,325,43976,6,0,P|133:205|152:86,1,240.000009155274,6|0,1:2|0:0,0:0:0:0:
43,266,44485,1,0,1:2:0:0:
43,266,44569,1,0,1:2:0:0:
43,266,44654,2,0,P|41:218|31:171,1,95.9999970703126,14|0,0:0|1:2,0:0:0:0:
95,22,44993,5,8,0:0:0:0:
126,4,45077,1,8,0:0:0:0:
161,0,45162,1,8,0:0:0:0:
194,12,45247,1,8,0:0:0:0:
222,36,45332,2,0,L|269:30,1,47.9999985351563,10|0,0:0|0:0,0:0:0:0:
418,21,45501,1,8,0:0:0:0:
418,21,45586,1,8,0:0:0:0:
418,21,45671,6,0,P|403:109|396:199,1,180.000006866455,6|0,1:2|0:0,0:0:0:0:
408,279,46010,2,0,P|453:277|469:235,1,95.9999970703126,10|0,0:0|0:0,0:0:0:0:
330,249,46349,2,0,P|271:214|204:234,1,143.999995605469,2|0,1:2|0:0,0:0:0:0:
136,281,46688,2,0,L|148:376,1,95.9999970703126,10|0,0:0|0:0,0:0:0:0:
274,183,47027,6,0,B|267:127|267:127|283:97|283:97|277:43,1,143.999995605469,2|0,1:2|0:0,0:0:0:0:
201,79,47366,2,0,P|140:43|73:64,1,143.999995605469,10|0,0:0|0:0,0:0:0:0:
82,143,47705,2,0,P|124:164|171:155,1,95.9999970703126,2|0,1:2|0:0,0:0:0:0:
4,153,48044,2,0,L|22:295,1,143.999995605469,10|0,0:0|0:0,0:0:0:0:
54,372,48383,6,0,P|117:371|100:309,1,143.999995605469,2|0,1:2|0:0,0:0:0:0:
94,229,48722,2,0,L|189:241,1,95.9999970703126,10|0,0:0|0:0,0:0:0:0:
325,328,49061,2,0,P|354:264|344:193,1,143.999995605469,2|0,1:2|0:0,0:0:0:0:
261,203,49400,2,0,P|271:249|251:292,1,95.9999970703126,10|0,0:0|0:0,0:0:0:0:
310,117,49739,6,0,B|366:110|366:110|396:126|396:126|450:120,1,143.999995605469,0|0,1:2|0:0,0:0:0:0:
512,69,50078,2,0,P|486:31|442:40,1,95.9999970703126,8|0,0:0|0:0,0:0:0:0:
344,193,50417,1,2,1:2:0:0:
310,117,50586,1,0,1:2:0:0:
356,288,50756,1,10,0:0:0:0:
512,69,50925,6,0,P|492:187|482:307,1,240.000009155274,6|0,1:2|0:0,0:0:0:0:
285,331,51434,2,0,P|344:369|412:350,1,143.999995605469,14|0,0:0|0:0,0:0:0:0:
356,288,51773,2,0,P|354:240|345:194,1,95.9999970703126,2|0,1:2|0:0,0:0:0:0:
268,72,52112,2,0,P|326:50|335:112,1,143.999995605469,10|0,0:0|0:0,0:0:0:0:
264,155,52451,6,0,L|252:250,1,95.9999970703126,0|0,1:2|0:0,0:0:0:0:
75,333,52790,2,0,P|142:353|202:316,1,143.999995605469,10|0,0:0|0:0,0:0:0:0:
167,244,53129,2,0,L|185:102,1,143.999995605469,2|0,1:2|0:0,0:0:0:0:
197,18,53468,2,0,L|102:30,1,95.9999970703126,10|0,0:0|0:0,0:0:0:0:
81,249,53807,6,0,L|63:107,1,143.999995605469,2|0,1:2|0:0,0:0:0:0:
102,30,54146,2,0,L|197:18,1,95.9999970703126,14|0,0:0|1:2,0:0:0:0:
316,78,54485,5,10,0:0:0:0:
316,78,54569,1,8,0:0:0:0:
316,78,54654,2,0,L|268:72,1,47.9999985351563,8|0,0:0|1:2,0:0:0:0:
398,1,54824,1,2,1:2:0:0:
403,36,54908,1,0,1:2:0:0:
407,72,54993,1,0,1:2:0:0:
412,108,55078,1,0,1:2:0:0:
416,143,55162,5,6,1:2:0:0:
438,329,55332,2,0,L|390:334,2,47.9999985351563,8|8|8,0:0|0:0|0:0,0:0:0:0:
474,242,55671,2,0,L|427:236,2,47.9999985351563,8|8|8,0:0|0:0|0:0,0:0:0:0:
345,260,56010,1,8,0:3:0:0:
270,315,56179,1,4,0:3:0:0:
209,271,56349,1,0,1:2:0:0:
160,306,56518,5,6,1:2:0:0:
160,306,56857,2,0,L|169:226,1,80,2|2,0:0|1:2,0:0:0:0:
79,296,57196,2,0,L|99:137,1,160,10|2,0:0|0:0,0:0:0:0:
109,56,57705,1,2,1:2:0:0:
33,20,57874,6,0,B|73:0|113:20|113:20|157:44|186:25,1,160,0|0,1:2|0:0,0:0:0:0:
267,10,58383,1,2,1:2:0:0:
313,78,58552,2,0,P|278:95|239:88,1,80,10|0,0:0|1:2,0:0:0:0:
349,5,58891,2,0,P|381:26|394:64,1,80,2|0,0:0|0:0,0:0:0:0:
374,221,59230,5,6,1:2:0:0:
374,221,59569,2,0,L|365:141,1,80,2|2,0:0|1:2,0:0:0:0:
310,280,59908,2,0,P|383:304|448:263,1,160,10|2,0:0|0:0,0:0:0:0:
236,271,60417,6,0,P|275:263|311:281,1,80,2|0,0:0|0:0,0:0:0:0:
354,384,60756,1,0,3:3:0:0:
271,384,60925,2,0,L|266:344,3,40,8|8|4|4,0:3|0:3|0:3|0:3,0:0:0:0:
236,271,61264,6,0,B|242:219|242:219|245:223|245:223|251:175,2,106.666666666667,6|6|6,1:2|1:2|1:2,0:0:0:0:
70,273,61942,6,0,P|98:365|152:286,1,240,6|0,1:2|1:2,0:0:0:0:
121,209,62620,2,0,L|112:129,1,80,8|0,0:0|0:0,0:0:0:0:
102,48,62959,1,2,0:0:0:0:
102,48,63129,1,2,1:2:0:0:
187,1,63298,6,0,L|178:81,1,80,0|8,1:2|0:0,0:0:0:0:
121,209,63637,1,0,1:2:0:0:
112,129,63807,2,0,L|72:124,2,40,2|0|8,1:2|1:2|0:3,0:0:0:0:
178,81,64146,2,0,P|217:89|253:71,1,80,4|0,0:3|1:2,0:0:0:0:
395,0,64485,5,6,1:2:0:0:
395,0,64824,2,0,L|386:80,1,80,8|8,0:0|0:0,0:0:0:0:
386,218,65162,1,8,0:0:0:0:
506,148,65332,1,8,0:0:0:0:
346,148,65501,1,8,0:0:0:0:
466,218,65671,1,10,0:0:0:0:
466,79,65840,1,10,0:0:0:0:
386,218,66010,6,0,L|381:258,2,40,2|0|0,1:2|1:2|1:2,0:0:0:0:
371,339,66349,1,10,0:0:0:0:
346,148,66518,1,0,1:2:0:0:
104,179,67366,5,6,1:2:0:0:
87,31,67535,2,0,P|126:14|169:19,1,88.000002685547,2|8,0:0|0:0,0:0:0:0:
51,111,67874,2,0,P|15:84|0:43,1,88.000002685547,2|2,0:0|1:2,0:0:0:0:
137,103,68213,2,0,P|132:146|104:179,1,88.000002685547,2|10,0:0|0:0,0:0:0:0:
37,234,68552,1,2,0:0:0:0:
170,336,68722,6,0,L|159:248,1,88.000002685547,0|2,1:2|0:0,0:0:0:0:
137,103,69061,1,10,0:0:0:0:
104,179,69230,1,0,0:0:0:0:
238,103,69400,2,0,L|227:15,1,88.000002685547,2|2,1:2|0:0,0:0:0:0:
188,170,69739,2,0,P|227:186|270:181,1,88.000002685547,10|2,0:0|0:0,0:0:0:0:
431,146,70078,5,2,1:2:0:0:
374,8,70247,2,0,P|357:47|362:90,1,88.000002685547,2|8,0:0|0:0,0:0:0:0:
512,111,70586,2,0,P|486:76|446:59,1,88.000002685547,2|2,0:0|1:2,0:0:0:0:
353,179,70925,2,0,P|396:172|430:146,1,88.000002685547,2|10,0:0|0:0,0:0:0:0:
363,91,71264,1,2,0:0:0:0:
403,263,71434,6,0,L|414:351,1,88.000002685547,0|2,1:2|0:0,0:0:0:0:
503,200,71773,2,0,L|492:288,1,88.000002685547,14|0,0:0|0:0,0:0:0:0:
431,146,72112,1,2,1:2:0:0:
322,264,72281,1,10,0:0:0:0:
322,264,72366,1,8,0:0:0:0:
322,264,72451,2,0,L|278:258,3,44.0000013427735,10|8|10|8,0:0|0:0|0:0|0:0,0:0:0:0:
197,248,72790,5,6,1:2:0:0:
29,249,72959,2,0,L|117:238,1,88.000002685547,2|14,0:0|0:0,0:0:0:0:
200,383,73298,2,0,L|146:312,1,88.000002685547,2|2,0:0|1:2,0:0:0:0:
231,166,73637,2,0,L|197:248,1,88.000002685547,2|14,0:0|0:0,0:0:0:0:
116,238,73976,1,2,0:0:0:0:
180,101,74146,6,0,P|219:84|262:89,1,88.000002685547,0|2,1:2|0:0,0:0:0:0:
407,232,74485,2,0,L|396:144,1,88.000002685547,14|0,0:0|0:0,0:0:0:0:
295,12,74824,1,2,1:2:0:0:
314,156,74993,1,2,0:0:0:0:
383,23,75162,2,0,L|295:12,1,88.000002685547,14|2,0:0|0:0,0:0:0:0:
111,49,75501,5,14,0:0:0:0:
99,135,75671,1,2,1:2:0:0:
180,101,75840,1,2,1:2:0:0:
29,82,76010,5,14,0:0:0:0:
18,170,76179,1,2,1:2:0:0:
89,222,76349,1,2,1:2:0:0:
111,49,76518,5,14,0:0:0:0:
18,170,76688,1,2,1:2:0:0:
170,188,76857,1,2,1:2:0:0:
99,135,77027,5,10,0:0:0:0:
77,308,77196,2,0,L|121:302,3,44.0000013427735,8|8|4|4,0:3|0:3|0:3|0:3,0:0:0:0:
201,292,77535,1,0,1:2:0:0:
512,192,78213,5,6,1:2:0:0:
512,192,78383,1,0,1:2:0:0:
491,353,78722,1,0,1:2:0:0:
491,353,78891,2,0,L|497:297,1,55.9999982910157,10|0,0:0|0:0,0:0:0:0:
495,55,80078,5,2,1:2:0:0:
495,55,80247,2,0,L|501:110,1,55.9999982910157,10|2,0:0|0:0,0:0:0:0:
256,192,80925,5,0,1:2:0:0:
256,192,81095,1,0,1:2:0:0:
235,353,81434,1,2,1:2:0:0:
235,353,81603,2,0,L|241:297,1,55.9999982910157,10|0,0:0|0:0,0:0:0:0:
239,55,82790,5,2,1:2:0:0:
239,55,82959,2,0,L|245:110,2,55.9999982910157,10|0|2,0:0|1:2|1:2,0:0:0:0:
0,192,83637,5,0,1:2:0:0:
0,192,83807,1,0,1:2:0:0:
21,353,84146,1,0,1:2:0:0:
21,353,84315,2,0,L|15:297,1,55.9999982910157,10|0,0:0|0:0,0:0:0:0:
17,55,85502,5,2,1:2:0:0:
17,55,85671,2,0,L|11:110,1,55.9999982910157,10|0,0:0|0:0,0:0:0:0:
256,192,86349,5,2,1:2:0:0:
256,192,86518,1,0,1:2:0:0:
277,353,86858,1,0,1:2:0:0:
277,353,87027,2,0,L|271:297,1,55.9999982910157,10|0,0:0|0:0,0:0:0:0:
273,55,88214,5,0,1:2:0:0:
273,55,88383,2,0,L|267:110,2,55.9999982910157,8|0|0,0:0|1:2|1:2,0:0:0:0:
276,269,89061,5,0,1:2:0:0:
276,269,89230,2,0,P|303:257|332:262,1,60.0000022888184,2|2,1:2|0:0,0:0:0:0:
369,338,89569,1,2,1:2:0:0:
369,338,89739,2,0,P|314:360|255:351,1,120.000004577637,10|2,0:0|0:0,0:0:0:0:
32,192,90586,6,0,L|24:251,1,60.0000022888184,2|0,0:0|0:0,0:0:0:0:
100,289,90925,1,2,1:2:0:0:
100,289,91095,2,0,L|114:169,1,120.000004577637,10|2,0:0|0:0,0:0:0:0:
274,14,91773,6,0,P|301:1|330:7,1,60.0000022888184,0|2,1:2|1:2,0:0:0:0:
338,87,92112,2,0,P|310:99|281:93,1,60.0000022888184,2|2,0:0|1:2,0:0:0:0:
209,61,92451,2,0,L|195:181,1,120.000004577637,10|2,0:0|0:0,0:0:0:0:
274,198,92959,6,0,P|329:176|388:185,1,120.000004577637,2|2,0:0|0:0,0:0:0:0:
469,195,93468,2,0,L|461:254,1,60.0000022888184,2|2,0:0|1:2,0:0:0:0:
380,244,93807,2,0,L|388:185,2,60.0000022888184,10|2|2,0:0|1:2|1:2,0:0:0:0:
218,257,94484,5,0,1:2:0:0:
218,257,94653,2,0,L|226:316,1,60.0000022888184,2|0,1:2|0:0,0:0:0:0:
150,354,94992,1,2,1:2:0:0:
150,354,95162,2,0,L|136:234,1,120.000004577637,10|2,0:0|0:0,0:0:0:0:
126,154,95671,6,0,P|67:162|12:140,1,120.000004577637,2|2,0:0|0:0,0:0:0:0:
53,66,96179,2,0,P|82:60|109:72,1,60.0000022888184,2|2,0:0|1:2,0:0:0:0:
187,98,96518,2,0,L|307:84,1,120.000004577637,10|2,0:0|0:0,0:0:0:0:
391,78,97027,1,2,0:0:0:0:
391,78,97196,6,0,L|383:137,1,60.0000022888184,0|0,1:2|1:2,0:0:0:0:
372,218,97535,2,0,L|364:277,1,60.0000022888184,2|0,0:0|1:2,0:0:0:0:
317,346,97874,2,0,P|374:359|426:332,3,120.000004577637,10|2|0|2,0:0|0:0|1:2|1:2,0:0:0:0:
364,277,99061,6,0,L|367:247,2,30.0000011444092,0|0|10,1:2|1:2|0:0,0:0:0:0:
317,346,99400,1,8,0:3:0:0:
270,333,99569,1,4,0:3:0:0:
269,304,99739,1,0,1:2:0:0:
285,298,99908,6,0,L|316:43,1,256,6|0,1:2|1:2,0:0:0:0:
86,26,100925,1,2,0:0:0:0:
86,26,101095,1,2,0:0:0:0:
27,80,101264,6,0,L|154:64,1,128,0|2,1:2|0:0,0:0:0:0:
235,54,101942,2,0,L|228:118,1,64,0|8,1:2|0:3,0:0:0:0:
222,202,102281,1,2,0:0:0:0:
222,202,102451,1,4,0:3:0:0:
272,268,102620,6,0,P|217:237|157:253,1,128,6|2,1:2|0:0,0:0:0:0:
81,295,103129,2,0,L|74:231,1,64,2|0,0:0|1:2,0:0:0:0:
210,322,103637,1,2,0:0:0:0:
210,322,103807,1,2,0:0:0:0:
352,271,103976,6,0,B|347:310|347:310|343:306|343:306|338:345,2,85.3333333333333,0|4|0,1:2|0:3|1:2,0:0:0:0:
371,262,104541,5,8,0:0:0:0:
354,251,104654,6,0,B|361:191|361:191|364:195|364:195|372:134,1,128,10|2,0:0|1:2,0:0:0:0:
131,41,105332,6,0,P|61:17|0:56,2,151.999995941162,6|2|8,1:2|0:0|0:0,0:0:0:0:
131,227,106349,1,2,0:0:0:0:
131,227,106518,1,2,0:0:0:0:
61,174,106688,6,0,L|71:99,1,75.9999979705811,0|0,1:2|0:0,0:0:0:0:
51,254,107027,2,0,L|42:330,1,75.9999979705811,2|0,0:0|0:0,0:0:0:0:
131,227,107366,1,10,0:0:0:0:
215,300,107535,1,8,0:3:0:0:
215,300,107620,1,0,3:3:0:0:
215,300,107705,2,0,L|210:262,3,37.9999989852906,8|4|2|0,0:3|0:3|1:2|1:2,0:0:0:0:
131,227,108044,6,0,P|199:179|278:209,1,176.000005371094,6|8,1:2|0:0,0:0:0:0:
405,331,108552,1,8,0:0:0:0:
373,160,108722,1,8,0:0:0:0:
298,315,108891,1,8,0:0:0:0:
449,233,109061,1,8,0:0:0:0:
279,210,109230,1,8,0:0:0:0:
459,152,109400,5,6,1:2:0:0:
461,142,109485,1,0,3:3:0:0:
462,131,109569,1,8,0:3:0:0:
464,120,109654,1,0,3:3:0:0:
465,109,109739,2,0,L|471:66,1,44.0000013427735,8|4,0:3|0:3,0:0:0:0:
357,35,109908,2,0,L|363:78,1,44.0000013427735,0|0,1:2|1:2,0:0:0:0:
279,210,110078,6,0,P|280:166|289:123,1,88.000002685547,8|8,0:0|0:0,0:0:0:0:
172,0,110417,1,8,0:3:0:0:
172,5,110501,1,8,0:3:0:0:
173,10,110586,1,4,0:3:0:0:
173,15,110671,1,4,0:3:0:0:
174,20,110756,6,0,P|189:108|196:198,1,180.000006866455,6|0,1:2|0:0,0:0:0:0:
179,276,111095,2,0,P|117:287|119:224,1,143.999995605469,10|0,0:0|0:0,0:0:0:0:
113,145,111434,2,0,L|18:133,1,95.9999970703126,2|0,1:2|0:0,0:0:0:0:
196,198,111773,2,0,P|255:163|322:183,1,143.999995605469,10|0,0:0|0:0,0:0:0:0:
267,244,112112,6,0,L|255:339,1,95.9999970703126,2|0,1:2|0:0,0:0:0:0:
323,184,112451,2,0,P|287:123|308:56,1,143.999995605469,10|0,0:0|0:0,0:0:0:0:
387,65,112790,2,0,P|408:107|399:154,1,95.9999970703126,2|0,1:2|0:0,0:0:0:0:
346,261,113129,2,0,L|488:243,1,143.999995605469,10|0,0:0|0:0,0:0:0:0:
499,324,113468,6,0,L|357:342,1,143.999995605469,2|0,1:2|0:0,0:0:0:0:
280,310,113807,1,10,0:0:0:0:
126,356,113976,2,0,P|83:335|36:345,1,95.9999970703126,2|0,0:0|1:2,0:0:0:0:
134,230,114315,1,2,0:0:0:0:
203,333,114485,2,0,B|186:307|206:267|206:267|226:227|206:195,1,143.999995605469,10|0,0:0|0:0,0:0:0:0:
139,150,114824,6,0,L|281:168,1,143.999995605469,0|0,1:2|0:0,0:0:0:0:
363,178,115162,1,8,0:0:0:0:
207,196,115332,1,0,0:0:0:0:
331,102,115501,2,0,P|376:91|419:113,1,95.9999970703126,2|0,1:2|1:2,0:0:0:0:
480,279,115840,1,10,0:0:0:0:
512,51,116010,6,0,B|497:170|497:170|494:165|494:165|480:279,1,240.000009155274,6|0,1:2|0:0,0:0:0:0:
294,359,116518,2,0,P|279:297|342:297,1,143.999995605469,14|0,0:0|0:0,0:0:0:0:
375,371,116857,2,0,L|470:359,1,95.9999970703126,2|0,1:2|0:0,0:0:0:0:
341,296,117196,2,0,L|359:154,1,143.999995605469,10|0,0:0|0:0,0:0:0:0:
395,81,117535,6,0,P|349:71|306:92,1,95.9999970703126,0|0,1:2|0:0,0:0:0:0:
186,178,117874,2,0,P|161:110|168:39,1,143.999995605469,10|0,0:0|0:0,0:0:0:0:
247,30,118213,2,0,P|271:97|264:168,1,143.999995605469,2|0,1:2|0:0,0:0:0:0:
186,178,118552,2,0,L|91:166,1,95.9999970703126,10|0,0:0|0:0,0:0:0:0:
61,341,118891,5,14,0:0:0:0:
142,331,119060,1,0,1:2:0:0:
223,321,119230,1,0,1:2:0:0:
395,260,119400,5,14,0:0:0:0:
314,250,119569,1,0,1:2:0:0:
233,240,119739,1,10,0:0:0:0:
366,22,119908,6,0,P|385:140|395:259,1,240.000009155274,6|0,1:2|0:0,0:0:0:0:
464,365,120417,1,0,1:2:0:0:
464,365,120501,1,0,1:2:0:0:
464,365,120586,2,0,P|466:317|475:269,1,95.9999970703126,14|0,0:0|0:0,0:0:0:0:
427,132,120925,1,0,1:2:0:0:
396,150,121009,1,0,1:2:0:0:
361,154,121094,1,0,1:2:0:0:
328,142,121179,1,0,1:2:0:0:
300,118,121264,6,0,L|293:58,1,60,14|0,0:0|0:0,0:0:0:0:
366,22,121603,6,0,B|298:14|298:14|259:34|259:34|191:25,1,180.000006866455,6|0,1:2|0:0,0:0:0:0:
136,88,121942,2,0,P|100:60|112:16,1,95.9999970703126,10|0,0:0|0:0,0:0:0:0:
216,109,122281,2,0,L|234:251,1,143.999995605469,2|0,1:2|0:0,0:0:0:0:
204,325,122620,2,0,P|251:331|292:307,1,95.9999970703126,10|0,0:0|0:0,0:0:0:0:
144,172,122959,6,0,L|126:314,1,143.999995605469,2|0,1:2|0:0,0:0:0:0:
66,368,123298,2,0,P|5:351|35:295,1,143.999995605469,10|0,0:0|0:0,0:0:0:0:
58,219,123637,2,0,L|46:124,1,95.9999970703126,2|0,1:2|0:0,0:0:0:0:
216,109,123976,2,0,B|248:129|288:109|288:109|328:89|354:106,1,143.999995605469,10|0,0:0|0:0,0:0:0:0:
382,182,124315,6,0,L|400:40,1,143.999995605469,2|0,1:2|0:0,0:0:0:0:
481,49,124654,2,0,L|469:144,1,95.9999970703126,10|0,0:0|0:0,0:0:0:0:
322,244,124993,2,0,P|386:215|457:225,1,143.999995605469,2|0,1:2|0:0,0:0:0:0:
447,308,125332,2,0,P|401:298|358:318,1,95.9999970703126,10|0,0:0|0:0,0:0:0:0:
156,383,125671,6,0,P|135:317|171:257,1,143.999995605469,0|0,1:2|0:0,0:0:0:0:
247,284,126010,2,0,P|257:329|237:373,1,95.9999970703126,8|0,0:0|0:0,0:0:0:0:
171,257,126349,1,2,1:2:0:0:
247,284,126518,1,0,1:2:0:0:
95,230,126688,1,10,0:0:0:0:
277,46,126857,6,0,P|257:164|247:284,1,240.000009155274,6|0,1:2|0:0,0:0:0:0:
95,230,127366,2,0,P|90:158|77:87,1,143.999995605469,14|0,0:0|0:0,0:0:0:0:
64,9,127705,2,0,P|18:11|3:53,1,95.9999970703126,2|0,1:2|0:0,0:0:0:0:
126,153,128044,2,0,P|185:118|252:138,1,143.999995605469,10|0,0:0|0:0,0:0:0:0:
321,95,128383,6,0,L|333:0,1,95.9999970703126,0|0,1:2|0:0,0:0:0:0:
453,161,128722,2,0,P|394:196|327:176,1,143.999995605469,10|0,0:0|0:0,0:0:0:0:
258,220,129061,2,0,L|240:362,1,143.999995605469,2|0,1:2|0:0,0:0:0:0:
321,363,129400,2,0,L|332:267,1,95.9999970703126,10|0,0:0|0:0,0:0:0:0:
502,227,129739,6,0,L|484:85,1,143.999995605469,6|0,1:2|0:0,0:0:0:0:
471,6,130078,2,0,P|425:8|410:50,1,95.9999970703126,2|8,1:2|0:0,0:0:0:0:
326,175,130416,1,2,1:2:0:0:
288,21,130586,2,0,L|336:16,2,47.9999985351563,0|0|10,1:2|1:2|0:0,0:0:0:0:
245,165,130925,1,0,1:2:0:0:
221,162,131010,1,0,1:2:0:0:
197,159,131095,5,14,0:0:0:0:
197,159,131434,5,8,0:3:0:0:
197,159,131603,2,0,L|208:254,1,95.9999970703126,8|0,0:3|0:0,0:0:0:0:
116,149,131942,5,4,0:3:0:0:
116,149,132112,2,0,L|127:53,1,95.9999970703126,4|0,0:3|0:0,0:0:0:0:
35,139,132451,5,6,1:2:0:0:
35,139,132790,2,0,L|44:219,1,80,2|0,0:0|1:2,0:0:0:0:
157,288,133129,2,0,B|128:269|84:293|84:293|44:313|4:293,1,160,10|2,0:0|0:0,0:0:0:0:
202,362,133637,6,0,L|182:203,2,160,2|2|2,1:2|0:0|1:2,0:0:0:0:
274,272,134485,2,0,L|283:352,1,80,10|0,0:0|1:2,0:0:0:0:
355,262,134824,2,0,L|364:342,1,80,2|0,0:0|0:0,0:0:0:0:
306,197,135162,5,6,1:2:0:0:
306,197,135501,2,0,P|341:180|380:187,1,80,2|2,0:0|1:2,0:0:0:0:
447,73,135840,2,0,B|428:102|452:146|452:146|472:186|452:226,1,160,10|2,0:0|0:0,0:0:0:0:
511,15,136349,6,0,P|438:-9|373:32,1,160,2|0,0:0|3:3,0:0:0:0:
319,100,136857,2,0,L|279:95,3,40,8|8|4|4,0:3|0:3|0:3|0:3,0:0:0:0:
197,97,137196,6,0,B|190:45|190:45|194:48|194:48|188:0,2,106.666666666667,6|6|6,1:2|1:2|1:2,0:0:0:0:
0,134,137874,6,0,P|64:175|138:151,1,160,6|0,1:2|1:2,0:0:0:0:
75,95,138383,1,0,1:2:0:0:
206,253,138552,2,0,L|215:173,1,80,8|0,0:0|0:0,0:0:0:0:
75,95,138891,1,6,0:0:0:0:
119,309,139061,6,0,L|139:150,1,160,6|8,1:2|0:0,0:0:0:0:
266,112,139569,1,0,1:2:0:0:
315,176,139739,2,0,L|320:216,2,40,2|0|8,1:2|1:2|0:3,0:0:0:0:
274,281,140078,2,0,P|309:298|348:291,1,80,4|0,0:3|1:2,0:0:0:0:
481,217,140417,5,6,1:2:0:0:
481,217,140756,2,0,L|470:137,1,80,8|8,0:0|0:0,0:0:0:0:
436,3,141094,1,8,0:0:0:0:
337,100,141264,1,8,0:0:0:0:
492,61,141433,1,8,0:0:0:0:
359,22,141603,1,10,0:0:0:0:
392,157,141772,1,10,0:0:0:0:
258,118,141942,6,0,L|253:78,3,40,8|8|4|0,0:3|0:3|0:3|1:2,0:0:0:0:
187,0,142281,2,0,L|182:40,1,40,4|4,0:3|0:3,0:0:0:0:
115,117,142451,2,0,L|110:77,1,40,0|0,1:2|1:2,0:0:0:0:
69,182,142620,6,0,P|104:199|143:192,1,80,14|8,0:0|0:0,0:0:0:0:
252,161,142959,1,8,0:3:0:0:
253,150,143044,1,8,0:3:0:0:
255,139,143129,1,4,0:3:0:0:
256,128,143213,1,4,0:3:0:0:
258,118,143298,5,6,1:2:0:0:
493,4,153468,5,0,1:2:0:0:
512,144,153637,1,4,0:3:0:0:
462,79,153807,5,0,1:2:0:0:
443,219,153976,1,8,0:0:0:0:
443,219,154061,1,0,0:0:0:0:
442,218,154146,6,0,P|408:200|369:206,1,80,6|2,1:2|0:0,0:0:0:0:
347,339,154485,2,0,P|361:302|394:282,1,80,10|2,0:0|0:0,0:0:0:0:
501,326,154824,1,2,1:2:0:0:
426,357,154993,1,8,0:0:0:0:
347,339,155162,2,0,P|321:309|321:270,1,80,2|2,1:2|0:0,0:0:0:0:
417,141,155501,6,0,P|435:104|428:65,1,80,2|2,1:2|0:0,0:0:0:0:
279,81,155840,2,0,P|317:73|352:92,1,80,10|0,0:0|0:0,0:0:0:0:
368,206,156179,1,2,1:2:0:0:
303,157,156348,1,10,0:0:0:0:
325,23,156517,2,0,P|292:43|279:80,1,80,2|8,1:2|0:0,0:0:0:0:
246,102,156773,1,8,0:0:0:0:
246,102,156857,6,0,P|207:108|172:90,1,80,0|2,1:2|0:0,0:0:0:0:
68,0,157196,2,0,P|92:30|94:70,1,80,2|2,1:2|0:0,0:0:0:0:
148,222,157535,1,2,1:2:0:0:
222,191,157705,1,8,0:0:0:0:
116,147,157874,2,0,P|83:169|69:206,1,80,2|2,1:2|0:0,0:0:0:0:
174,292,158213,6,0,P|172:252|147:221,1,80,2|2,1:2|0:0,0:0:0:0:
126,355,158552,2,0,P|161:372|199:366,1,80,10|0,0:0|0:0,0:0:0:0:
148,222,158891,1,2,1:2:0:0:
258,313,159061,1,8,0:0:0:0:
258,313,159146,1,8,0:0:0:0:
258,313,159230,2,0,L|297:308,3,40,8|8|4|4,0:3|0:3|0:3|0:3,0:0:0:0:
379,298,159569,5,6,1:2:0:0:
379,298,159908,2,0,L|389:210,1,88.000002685547,10|10,0:0|0:0,0:0:0:0:
260,76,160247,2,0,L|330:128,1,88.000002685547,10|8,0:0|0:0,0:0:0:0:
512,83,160586,2,0,L|430:117,1,88.000002685547,10|8,0:0|0:0,0:0:0:0:
291,220,160925,5,8,0:0:0:0:
221,167,161095,1,10,0:0:0:0:
200,342,161264,1,10,0:0:0:0:
280,307,161434,1,10,0:0:0:0:
139,201,161603,1,10,0:0:0:0:
128,289,161773,1,8,0:0:0:0:
221,167,161942,2,0,L|215:123,3,44.0000013427735,10|8|10|8,0:0|0:0|0:0|0:0,0:0:0:0:
197,43,162281,6,0,L|285:53,1,88.000002685547,14|0,0:0|1:2,0:0:0:0:
365,63,162620,1,0,1:2:0:0:
305,221,162790,6,0,L|295:133,1,88.000002685547,14|0,0:0|1:2,0:0:0:0:
285,53,163129,1,0,1:2:0:0:
463,153,163298,6,0,L|375:143,1,88.000002685547,14|0,0:0|1:2,0:0:0:0:
295,133,163637,2,0,L|300:176,3,44.0000013427735,6|0|8|8,1:2|1:2|0:0|0:0,0:0:0:0:
221,167,163977,1,8,0:0:0:0:
219,156,164061,1,8,0:0:0:0:
218,145,164146,1,8,0:0:0:0:
217,134,164231,1,8,0:0:0:0:
215,123,164315,6,0,L|127:113,1,88.000002685547,8|0,0:0|1:2,0:0:0:0:
47,103,164654,1,10,0:0:0:0:
47,103,164993,5,6,1:2:0:0:
512,247,175840,6,0,P|478:229|439:235,1,80,6|0,1:2|0:0,0:0:0:0:
452,384,176179,2,0,P|470:349|463:310,1,80,2|0,1:2|0:0,0:0:0:0:
315,325,176518,2,0,P|349:343|388:336,1,80,2|0,1:2|0:0,0:0:0:0:
374,187,176857,2,0,P|355:221|362:260,1,80,2|0,1:2|0:0,0:0:0:0:
197,321,177196,6,0,P|163:339|124:333,1,80,2|0,1:2|0:0,0:0:0:0:
137,184,177535,2,0,P|155:218|148:257,1,80,2|0,1:2|0:0,0:0:0:0:
0,243,177874,2,0,P|34:224|73:231,1,80,2|0,1:2|0:0,0:0:0:0:
59,381,178213,2,0,P|40:346|47:307,1,80,2|0,1:2|0:0,0:0:0:0:
137,184,178552,6,0,P|174:193|210:177,1,80,2|0,1:2|0:0,0:0:0:0:
65,157,178891,2,0,P|56:194|72:230,1,80,2|0,1:2|0:0,0:0:0:0:
92,85,179230,2,0,P|55:76|19:92,1,80,2|0,1:2|0:0,0:0:0:0:
164,112,179569,2,0,P|173:75|157:39,1,80,2|0,1:2|0:0,0:0:0:0:
300,179,179908,6,0,P|335:195|374:187,1,80,0|0,1:2|0:0,0:0:0:0:
354,41,180247,2,0,P|338:76|347:115,1,80,0|0,1:2|0:0,0:0:0:0:
492,95,180586,2,0,P|457:79|419:88,1,80,2|0,1:2|0:0,0:0:0:0:
438,234,180925,2,0,P|454:199|446:161,1,80,2|0,1:2|0:0,0:0:0:0:
258,100,181264,5,6,1:2:0:0:
258,100,181603,2,0,L|248:188,1,88.000002685547,8|8,0:0|0:0,0:0:0:0:
107,82,181942,2,0,L|188:46,1,88.000002685547,10|8,0:0|0:0,0:0:0:0:
167,222,182281,2,0,L|95:169,1,88.000002685547,10|8,0:0|0:0,0:0:0:0:
248,187,182620,5,8,0:0:0:0:
227,362,182790,1,8,0:0:0:0:
157,310,182959,5,10,0:0:0:0:
320,239,183129,1,8,0:0:0:0:
309,327,183298,5,10,0:0:0:0:
167,222,183468,1,8,0:0:0:0:
331,151,183637,2,0,L|337:107,3,44.0000013427735,10|8|0|0,0:0|0:0|1:2|1:2,0:0:0:0:
284,36,183976,6,0,P|323:19|366:24,1,88.000002685547,14|0,0:0|1:2,0:0:0:0:
442,61,184315,1,2,1:2:0:0:
228,104,184485,6,0,P|188:86|144:92,1,88.000002685547,14|2,0:0|1:2,0:0:0:0:
71,130,184824,1,0,1:2:0:0:
284,36,184993,6,0,P|323:19|366:24,1,88.000002685547,14|0,0:0|1:2,0:0:0:0:
442,61,185332,1,0,1:2:0:0:
462,229,185501,6,0,L|452:141,1,88.000002685547,14|14,0:0|0:0,0:0:0:0:
376,363,185840,2,0,L|386:275,1,88.000002685547,0|8,1:2|0:0,0:0:0:0:
297,330,186179,5,8,0:0:0:0:
297,330,186264,1,8,0:0:0:0:
297,330,186349,2,0,L|253:336,3,44.0000013427735,10|8|8|0,0:0|0:0|0:0|0:0,0:0:0:0:
173,347,186688,5,2,0:0:0:0:
173,347,187027,6,0,P|178:257|193:168,1,180.000006866455,14|0,0:0|0:0,0:0:0:0:
188,88,187366,2,0,P|232:80|256:118,1,95.9999970703126,2|0,1:2|0:0,0:0:0:0:
111,172,187705,2,0,P|106:100|93:29,1,143.999995605469,10|0,0:0|0:0,0:0:0:0:
18,62,188044,6,0,P|20:110|30:157,1,95.9999970703126,2|0,1:2|0:0,0:0:0:0:
193,168,188383,2,0,L|335:150,1,143.999995605469,10|0,0:0|0:0,0:0:0:0:
396,202,188722,2,0,P|416:160|407:114,1,95.9999970703126,2|0,1:2|0:0,0:0:0:0:
324,246,189061,2,0,B|356:226|396:246|396:246|436:266|462:249,1,143.999995605469,10|0,0:0|0:0,0:0:0:0:
509,185,189400,6,0,L|491:327,1,143.999995605469,2|0,1:2|0:0,0:0:0:0:
410,338,189739,1,10,0:0:0:0:
324,246,189908,2,0,L|336:151,1,95.9999970703126,2|0,0:0|1:2,0:0:0:0:
462,249,190247,1,2,0:0:0:0:
410,338,190417,2,0,L|268:320,1,143.999995605469,10|0,0:0|0:0,0:0:0:0:
189,302,190756,6,0,P|178:240|241:242,1,143.999995605469,0|0,1:2|0:0,0:0:0:0:
267,320,191095,1,8,0:0:0:0:
254,153,191264,1,0,0:0:0:0:
189,302,191434,2,0,L|94:290,1,95.9999970703126,2|0,1:2|1:2,0:0:0:0:
0,155,191773,1,10,0:0:0:0:
25,384,191943,6,0,B|10:265|10:265|14:269|14:269|0:155,1,240.000009155274,6|0,1:2|0:0,0:0:0:0:
136,111,192451,2,0,P|147:173|84:171,1,143.999995605469,14|0,0:0|0:0,0:0:0:0:
55,95,192790,2,0,L|67:0,1,95.9999970703126,2|0,1:2|0:0,0:0:0:0:
263,95,193129,2,0,P|202:131|135:110,1,143.999995605469,10|0,0:0|0:0,0:0:0:0:
144,31,193468,6,0,P|186:10|233:19,1,95.9999970703126,0|0,1:2|0:0,0:0:0:0:
344,105,193807,2,0,L|326:247,1,143.999995605469,10|0,0:0|0:0,0:0:0:0:
407,258,194146,2,0,L|425:116,1,143.999995605469,2|0,1:2|0:0,0:0:0:0:
421,35,194485,2,0,P|465:27|489:65,1,95.9999970703126,10|0,0:0|0:0,0:0:0:0:
488,268,194824,5,14,0:0:0:0:
407,258,194993,1,0,1:2:0:0:
326,248,195163,1,0,1:2:0:0:
196,344,195332,5,14,0:0:0:0:
277,334,195501,1,0,1:2:0:0:
358,324,195671,1,10,0:0:0:0:
307,96,195840,6,0,P|287:214|277:334,1,240.000009155274,6|0,1:2|0:0,0:0:0:0:
195,250,196349,1,0,1:2:0:0:
195,250,196433,1,0,1:2:0:0:
195,250,196518,2,0,P|204:202|206:154,1,95.9999970703126,14|0,0:0|1:2,0:0:0:0:
249,33,196857,5,8,0:0:0:0:
280,15,196941,1,8,0:0:0:0:
315,11,197026,1,8,0:0:0:0:
348,23,197111,1,8,0:0:0:0:
376,47,197196,2,0,L|423:41,1,47.9999985351563,10|0,0:0|0:0,0:0:0:0:
492,123,197366,1,8,0:0:0:0:
492,123,197451,1,8,0:0:0:0:
492,123,197535,6,0,P|477:211|470:301,1,180.000006866455,6|0,1:2|0:0,0:0:0:0:
453,378,197874,2,0,P|408:373|395:330,1,95.9999970703126,10|0,0:0|0:0,0:0:0:0:
332,212,198213,2,0,L|314:354,1,143.999995605469,2|0,1:2|0:0,0:0:0:0:
233,345,198552,2,0,L|245:250,1,95.9999970703126,10|0,0:0|0:0,0:0:0:0:
366,140,198891,6,0,B|334:120|294:140|294:140|254:160|228:143,1,143.999995605469,2|0,1:2|0:0,0:0:0:0:
256,70,199230,2,0,P|210:26|177:79,1,143.999995605469,10|0,0:0|0:0,0:0:0:0:
151,156,199569,2,0,L|163:251,1,95.9999970703126,2|0,1:2|0:0,0:0:0:0:
61,384,199908,2,0,L|79:242,1,143.999995605469,10|0,0:0|0:0,0:0:0:0:
9,207,200247,6,0,P|12:144|73:163,1,143.999995605469,2|0,1:2|0:0,0:0:0:0:
151,156,200586,2,0,L|163:251,1,95.9999970703126,10|0,0:0|0:0,0:0:0:0:
365,289,200925,2,0,P|301:318|230:308,1,143.999995605469,2|0,1:2|0:0,0:0:0:0:
240,225,201264,2,0,P|286:235|329:215,1,95.9999970703126,10|0,0:0|0:0,0:0:0:0:
379,0,201603,6,0,L|361:142,1,143.999995605469,0|0,1:2|0:0,0:0:0:0:
279,154,201942,2,0,L|291:59,1,95.9999970703126,8|0,0:0|0:0,0:0:0:0:
408,207,202281,1,2,1:2:0:0:
329,215,202451,1,0,1:2:0:0:
291,59,202620,1,10,0:0:0:0:
408,207,202790,6,0,P|347:297|253:243,1,240.000009155274,6|0,1:2|0:0,0:0:0:0:
189,115,203298,2,0,L|171:257,1,143.999995605469,14|0,0:0|0:0,0:0:0:0:
223,318,203637,2,0,P|181:338|135:329,1,95.9999970703126,2|0,1:2|0:0,0:0:0:0:
109,117,203976,2,0,L|91:259,1,143.999995605469,10|0,0:0|0:0,0:0:0:0:
55,330,204315,6,0,P|12:314|11:270,1,95.9999970703126,0|0,1:2|0:0,0:0:0:0:
109,117,204654,2,0,P|47:128|49:65,1,143.999995605469,10|0,0:0|0:0,0:0:0:0:
127,38,204993,2,0,P|186:3|253:23,1,143.999995605469,2|0,1:2|0:0,0:0:0:0:
276,99,205332,2,0,P|320:89|328:45,1,95.9999970703126,10|0,0:0|0:0,0:0:0:0:
197,87,205671,6,0,L|215:229,1,143.999995605469,6|0,1:2|0:0,0:0:0:0:
288,194,206010,2,0,P|330:174|376:183,1,95.9999970703126,14|0,0:0|1:2,0:0:0:0:
393,325,206349,2,0,P|354:298|339:254,1,95.9999970703126,0|0,1:2|1:2,0:0:0:0:
403,110,206688,1,8,0:0:0:0:
418,251,206857,1,6,1:2:0:0:
288,194,207027,6,0,L|276:99,1,95.9999970703126,6|0,1:2|0:0,0:0:0:0:
183,47,207366,1,8,0:0:0:0:
112,112,207535,1,8,0:0:0:0:
112,112,207620,1,8,0:0:0:0:
112,112,207705,1,8,0:0:0:0:
147,190,207874,1,8,0:3:0:0:
89,241,208043,1,4,0:3:0:0:
115,303,208213,1,0,1:2:0:0:
69,342,208383,5,6,1:2:0:0:
69,342,208722,2,0,L|149:333,1,80,2|2,0:0|1:2,0:0:0:0:
214,220,209061,2,0,B|195:249|219:293|219:293|239:333|219:373,1,160,10|2,0:0|0:0,0:0:0:0:
289,248,209569,6,0,L|448:228,2,160,2|2|2,1:2|0:0|1:2,0:0:0:0:
224,132,210417,2,0,P|189:115|150:122,1,80,10|0,0:0|1:2,0:0:0:0:
88,176,210756,2,0,P|53:193|14:186,1,80,2|0,0:0|0:0,0:0:0:0:
224,132,211095,5,6,1:2:0:0:
224,132,211434,2,0,L|304:123,1,80,2|2,0:0|1:2,0:0:0:0:
343,48,211773,2,0,P|385:113|361:186,1,160,10|2,0:0|0:0,0:0:0:0:
475,255,212281,6,0,B|446:236|402:260|402:260|362:280|322:260,2,160,2|10|0,0:0|0:0|1:2,0:0:0:0:
243,233,213129,6,0,B|236:285|236:285|240:282|240:282|234:330,2,106.666666666667,6|6|6,1:2|1:2|1:2,0:0:0:0:
285,19,213807,6,0,L|305:178,1,160,6|0,1:2|1:2,0:0:0:0:
204,71,214315,1,0,1:2:0:0:
204,71,214485,2,0,L|213:151,1,80,8|0,0:0|0:0,0:0:0:0:
285,19,214824,1,6,0:0:0:0:
305,178,214993,6,0,B|345:198|385:178|385:178|429:154|458:173,1,160,6|8,1:2|0:0,0:0:0:0:
512,297,215501,1,0,1:2:0:0:
431,246,215671,2,0,L|436:286,2,40,2|0|8,1:2|1:2|0:3,0:0:0:0:
464,360,216010,2,0,P|425:367|389:350,1,80,4|0,0:3|1:2,0:0:0:0:
230,368,216349,5,6,1:2:0:0:
230,368,216688,2,0,L|239:288,1,80,8|8,0:0|0:0,0:0:0:0:
239,150,217026,1,8,0:0:0:0:
119,220,217196,1,8,0:0:0:0:
279,220,217365,1,8,0:0:0:0:
159,150,217535,1,10,0:0:0:0:
159,289,217704,1,10,0:0:0:0:
239,150,217874,6,0,L|244:110,2,40,2|0|0,1:2|1:2|1:2,0:0:0:0:
254,29,218213,1,10,0:0:0:0:
279,220,218382,1,2,1:2:0:0:
256,192,219230,12,6,220586,1:2:0:0:
21,23,220925,5,6,1:2:0:0:
21,23,221264,2,0,L|25:62,3,40,8|8|4|4,0:3|0:3|0:3|0:3,0:0:0:0:
81,120,221603,2,0,L|76:159,3,40,8|8|8|8,0:0|0:0|0:0|0:0,0:0:0:0:
66,240,221942,5,6,1:2:0:0:
147,230,222112,2,0,P|186:213|229:218,1,88.000002685547,2|8,0:0|0:0,0:0:0:0:
168,372,222451,2,0,P|133:346|116:306,1,88.000002685547,2|2,0:0|1:2,0:0:0:0:
280,283,222790,2,0,P|275:325|249:360,1,88.000002685547,2|10,0:0|0:0,0:0:0:0:
198,295,223129,1,2,0:0:0:0:
262,140,223298,6,0,P|301:123|345:129,1,88.000002685547,0|2,1:2|0:0,0:0:0:0:
361,271,223637,1,10,0:0:0:0:
311,207,223807,1,0,0:0:0:0:
436,134,223976,2,0,L|425:222,1,88.000002685547,2|2,1:2|0:0,0:0:0:0:
345,129,224315,2,0,L|356:41,1,88.000002685547,10|2,0:0|0:0,0:0:0:0:
175,151,224654,5,2,1:2:0:0:
89,7,224823,2,0,L|142:77,1,88.000002685547,2|8,0:0|0:0,0:0:0:0:
58,222,225162,2,0,L|92:139,1,88.000002685547,2|2,0:0|1:2,0:0:0:0:
262,140,225501,2,0,L|174:150,1,88.000002685547,2|10,0:0|0:0,0:0:0:0:
142,77,225840,1,2,0:0:0:0:
184,231,226010,6,0,L|173:318,1,88.000002685547,0|2,1:2|0:0,0:0:0:0:
262,140,226349,2,0,L|251:53,1,88.000002685547,14|0,0:0|0:0,0:0:0:0:
404,71,226688,1,2,1:2:0:0:
485,24,226857,1,10,0:0:0:0:
335,8,227027,1,6,1:2:0:0:
485,117,227196,1,10,0:0:0:0:
485,117,227281,1,8,0:0:0:0:
485,117,227366,5,6,1:2:0:0:
415,251,227535,2,0,L|404:164,1,88.000002685547,2|14,0:0|0:0,0:0:0:0:
496,241,227874,2,0,L|485:328,1,88.000002685547,2|2,0:0|1:2,0:0:0:0:
334,261,228213,2,0,L|323:174,1,88.000002685547,2|10,0:0|0:0,0:0:0:0:
383,326,228552,1,2,0:0:0:0:
219,346,228722,6,0,P|258:329|302:335,1,88.000002685547,0|2,1:2|0:0,0:0:0:0:
238,204,229061,2,0,P|199:187|155:193,1,88.000002685547,10|0,0:0|0:0,0:0:0:0:
139,335,229400,1,2,1:2:0:0:
189,271,229570,1,2,0:0:0:0:
89,142,229739,2,0,P|72:181|78:225,1,88.000002685547,10|2,0:0|0:0,0:0:0:0:
287,137,230078,6,0,P|343:105|405:122,1,132.00000402832,2|0,1:2|0:0,0:0:0:0:
486,112,230417,2,0,L|475:25,1,88.000002685547,14|2,0:0|0:0,0:0:0:0:
341,72,230756,1,2,1:2:0:0:
354,183,230925,1,2,1:2:0:0:
486,112,231095,2,0,L|497:199,1,88.000002685547,14|2,0:0|0:0,0:0:0:0:
409,247,231434,5,8,0:0:0:0:
378,265,231518,1,8,0:0:0:0:
343,269,231603,1,0,1:2:0:0:
310,257,231688,1,0,1:2:0:0:
282,233,231773,2,0,L|238:227,3,44.0000013427735,8|8|4|4,0:3|0:3|0:3|0:3,0:0:0:0:
157,217,232112,5,8,0:0:0:0:
124,142,232281,2,0,L|108:101,2,44.0000013427735,8|8|8,0:0|0:0|0:0,0:0:0:0:
81,318,232620,2,0,L|108:282,1,44.0000013427735,8|8,0:0|0:0,0:0:0:0:
157,217,232790,5,6,1:2:0:0:
217,64,232959,2,0,L|206:151,1,88.000002685547,2|14,0:0|0:0,0:0:0:0:
295,0,233298,2,0,L|306:87,1,88.000002685547,2|2,0:0|1:2,0:0:0:0:
383,197,233637,2,0,L|394:110,1,88.000002685547,2|14,0:0|0:0,0:0:0:0:
404,29,233976,1,2,0:0:0:0:
294,174,234146,6,0,L|305:261,1,88.000002685547,0|2,1:2|0:0,0:0:0:0:
472,220,234485,1,14,0:0:0:0:
383,197,234654,1,0,0:0:0:0:
396,373,234824,2,0,L|407:286,1,88.000002685547,2|2,1:2|0:0,0:0:0:0:
447,131,235162,2,0,L|436:44,1,88.000002685547,14|2,0:0|0:0,0:0:0:0:
266,150,235501,5,2,1:2:0:0:
210,13,235670,2,0,P|193:52|198:95,1,88.000002685547,2|14,0:0|0:0,0:0:0:0:
348,116,236009,2,0,P|322:81|282:64,1,88.000002685547,2|2,0:0|1:2,0:0:0:0:
189,184,236348,2,0,P|232:176|266:150,1,88.000002685547,2|14,0:0|0:0,0:0:0:0:
118,132,236688,6,0,P|101:171|106:214,1,88.000002685547,2|0,0:0|1:2,0:0:0:0:
241,323,237027,5,10,0:0:0:0:
175,271,237196,1,2,1:2:0:0:
14,334,237367,5,8,0:0:0:0:
91,302,237535,1,2,1:2:0:0:
118,132,237705,1,10,0:0:0:0:
118,132,237789,1,8,0:0:0:0:
118,132,237874,2,0,L|112:88,3,44.0000013427735,8|8|4|4,0:3|0:3|0:3|0:3,0:0:0:0:
102,7,238213,5,6,1:2:0:0:
199,122,238383,2,0,P|238:105|281:110,1,88.000002685547,2|14,0:0|0:0,0:0:0:0:
219,266,238722,2,0,P|223:223|249:188,1,88.000002685547,2|2,0:0|1:2,0:0:0:0:
353,320,239061,2,0,P|318:294|301:254,1,88.000002685547,2|14,0:0|0:0,0:0:0:0:
282,110,239400,1,2,0:0:0:0:
382,241,239569,6,0,P|426:247|466:230,1,88.000002685547,0|2,1:2|0:0,0:0:0:0:
403,79,239908,2,0,L|414:166,1,88.000002685547,14|0,0:0|0:0,0:0:0:0:
301,254,240247,5,2,1:2:0:0:
249,187,240417,1,2,0:0:0:0:
282,110,240586,5,14,0:0:0:0:
331,178,240756,1,2,1:2:0:0:
219,263,240925,5,14,0:0:0:0:
344,365,241095,2,0,L|350:321,3,44.0000013427735,8|4|0|0,0:3|0:3|1:2|0:0,0:0:0:0:
301,254,241434,1,8,0:0:0:0:
163,369,241603,2,0,L|169:325,3,44.0000013427735,8|8|4|4,0:3|0:3|0:3|0:3,0:0:0:0:
219,263,241942,2,0,P|177:246|134:253,1,88.000002685547,14|2,0:0|0:0,0:0:0:0:
36,308,242281,5,10,0:0:0:0:
125,171,242451,2,0,L|114:84,1,88.000002685547,10|10,0:0|0:0,0:0:0:0:
249,0,242790,1,10,0:0:0:0:
383,113,242959,1,10,0:0:0:0:
194,80,243129,1,10,0:0:0:0:
394,26,243298,2,0,L|383:113,1,88.000002685547,10|8,0:0|0:0,0:0:0:0:
256,192,243637,5,6,1:2:0:0:
256,192,243722,12,0,247705,0:0:0:0:
