osu file format v14

[General]
AudioFilename: audio.mp3
AudioLeadIn: 0
PreviewTime: 164569
Countdown: 0
SampleSet: Soft
StackLeniency: 0.7
Mode: 0
LetterboxInBreaks: 0
WidescreenStoryboard: 0

[Editor]
DistanceSpacing: 0.8
BeatDivisor: 4
GridSize: 32
TimelineZoom: 2

[Metadata]
Title:LEVEL
TitleUnicode:LEVEL <やなぎなぎ ver.>
Artist:yanaginagi x THE SIXTH LIE
ArtistUnicode:やなぎなぎ×THE SIXTH LIE
Creator:ItsCactus
Version:Heartbeat
Source:天才王子の赤字国家再生術
Tags:japanese jp pop jpop j-pop opening op Tensai Ouji no Akaji Kokka Saisei Jutsu The Genius Prince's Guide to Raising a Nation Out of Debt Yokohama Animation Anime Laboratory Lab Murada- Ninym
BeatmapID:3539535
BeatmapSetID:1731620

[Difficulty]
HPDrainRate:6
CircleSize:4
OverallDifficulty:8.5
ApproachRate:9.2
SliderMultiplier:1.7
SliderTickRate:1

[Events]
//Background and Video events
0,0,"bg.jpg",0,0
//Break Periods
2,143497,152898
2,165193,175270
//Storyboard Layer 0 (Background)
//Storyboard Layer 1 (Fail)
//Storyboard Layer 2 (Pass)
//Storyboard Layer 3 (Foreground)
//Storyboard Layer 4 (Overlay)
//Storyboard Sound Samples

[TimingPoints]
1721,344.827586206897,4,2,17,40,1,0
1721,-125,4,2,17,40,0,0
12755,-111.111111111111,4,2,17,60,0,0
23789,-117.647058823529,4,2,17,60,0,0
32065,-100,4,2,17,60,0,0
32410,-100,4,2,17,30,0,0
32755,-100,4,2,17,40,0,0
33100,-100,4,2,17,60,0,0
33445,-100,4,2,17,70,0,0
34479,-100,4,2,17,60,0,0
34824,338.983050847458,4,2,17,75,1,0
34824,-90.9090909090909,4,2,17,75,0,1
35078,-90.9090909090909,4,2,17,5,0,1
35162,-90.9090909090909,4,2,17,75,0,1
35417,-90.9090909090909,4,2,17,5,0,1
35501,-90.9090909090909,4,2,17,75,0,1
36095,-90.9090909090909,4,2,17,5,0,1
36179,-90.9090909090909,4,2,17,75,0,1
36773,-90.9090909090909,4,2,17,5,0,1
36857,-90.9090909090909,4,2,17,75,0,1
37451,-90.9090909090909,4,2,17,5,0,1
37535,-90.9090909090909,4,2,17,75,0,1
38807,-90.9090909090909,4,2,17,5,0,1
38891,-90.9090909090909,4,2,17,75,0,1
40840,-90.9090909090909,4,2,17,5,0,1
40925,-90.9090909090909,4,2,17,75,0,1
41518,-90.9090909090909,4,2,17,5,0,1
41603,-90.9090909090909,4,2,17,75,0,1
42535,-90.9090909090909,4,2,17,5,0,1
42620,-90.9090909090909,4,2,17,75,0,1
45925,-90.9090909090909,4,2,17,5,0,1
46010,-90.9090909090909,4,2,17,75,0,1
46603,-90.9090909090909,4,2,17,5,0,1
46688,-90.9090909090909,4,2,17,75,0,1
47281,-90.9090909090909,4,2,17,5,0,1
47366,-90.9090909090909,4,2,17,75,0,1
47620,-90.9090909090909,4,2,17,5,0,1
47705,-90.9090909090909,4,2,17,75,0,1
48298,-90.9090909090909,4,2,17,5,0,1
48383,-90.9090909090909,4,2,17,75,0,1
48976,-90.9090909090909,4,2,17,5,0,1
49061,-90.9090909090909,4,2,17,75,0,1
49654,-90.9090909090909,4,2,17,5,0,1
49739,-90.9090909090909,4,2,17,75,0,1
51688,-90.9090909090909,4,2,17,5,0,1
51773,-90.9090909090909,4,2,17,75,0,1
52366,-90.9090909090909,4,2,17,5,0,1
52451,-90.9090909090909,4,2,17,75,0,1
53044,-90.9090909090909,4,2,17,5,0,1
53129,-90.9090909090909,4,2,17,75,0,1
53383,-90.9090909090909,4,2,17,5,0,1
53468,-90.9090909090909,4,2,17,75,0,1
54061,-90.9090909090909,4,2,17,5,0,1
54146,-90.9090909090909,4,2,17,75,0,1
56518,-117.647058823529,4,2,17,60,0,0
64485,-99.9999999999999,4,2,17,60,0,0
64824,-99.9999999999999,4,2,17,30,0,0
65162,-99.9999999999999,4,2,17,40,0,0
65501,-99.9999999999999,4,2,17,60,0,0
65840,-99.9999999999999,4,2,17,70,0,0
66857,-99.9999999999999,4,2,17,60,0,0
67366,-105.263157894737,4,2,17,70,0,0
75501,-100,4,2,17,70,0,0
78213,-125,4,2,17,55,0,0
99908,-117.647058823529,4,2,17,65,0,0
108044,-100,4,2,17,80,0,0
108383,-100,4,2,17,30,0,0
108721,-100,4,2,17,40,0,0
109060,-100,4,2,17,60,0,0
109399,-100,4,2,17,70,0,0
110756,-90.9090909090909,4,2,17,75,0,1
111010,-90.9090909090909,4,2,17,5,0,1
111094,-90.9090909090909,4,2,17,75,0,1
111349,-90.9090909090909,4,2,17,5,0,1
111433,-90.9090909090909,4,2,17,75,0,1
112027,-90.9090909090909,4,2,17,5,0,1
112111,-90.9090909090909,4,2,17,75,0,1
112705,-90.9090909090909,4,2,17,5,0,1
112789,-90.9090909090909,4,2,17,75,0,1
113383,-90.9090909090909,4,2,17,5,0,1
113467,-90.9090909090909,4,2,17,75,0,1
114739,-90.9090909090909,4,2,17,5,0,1
114823,-90.9090909090909,4,2,17,75,0,1
116773,-90.9090909090909,4,2,17,5,0,1
116857,-90.9090909090909,4,2,17,75,0,1
117451,-90.9090909090909,4,2,17,5,0,1
117535,-90.9090909090909,4,2,17,75,0,1
118468,-90.9090909090909,4,2,17,5,0,1
118552,-90.9090909090909,4,2,17,75,0,1
120840,-90.9090909090909,4,2,17,5,0,1
120924,-90.9090909090909,4,2,17,75,0,1
121518,-90.9090909090909,4,2,17,5,0,1
121602,-90.9090909090909,4,2,17,75,0,1
121857,-90.9090909090909,4,2,17,5,0,1
121941,-90.9090909090909,4,2,17,75,0,1
122535,-90.9090909090909,4,2,17,5,0,1
122619,-90.9090909090909,4,2,17,75,0,1
123213,-90.9090909090909,4,2,17,5,0,1
123297,-90.9090909090909,4,2,17,75,0,1
123552,-90.9090909090909,4,2,17,5,0,1
123636,-90.9090909090909,4,2,17,75,0,1
124230,-90.9090909090909,4,2,17,5,0,1
124314,-90.9090909090909,4,2,17,75,0,1
124908,-90.9090909090909,4,2,17,5,0,1
124992,-90.9090909090909,4,2,17,75,0,1
125586,-90.9090909090909,4,2,17,5,0,1
125670,-90.9090909090909,4,2,17,75,0,1
127620,-90.9090909090909,4,2,17,5,0,1
127704,-90.9090909090909,4,2,17,75,0,1
128298,-90.9090909090909,4,2,17,5,0,1
128382,-90.9090909090909,4,2,17,75,0,1
128976,-90.9090909090909,4,2,17,5,0,1
129060,-90.9090909090909,4,2,17,75,0,1
129315,-90.9090909090909,4,2,17,5,0,1
129399,-90.9090909090909,4,2,17,75,0,1
129993,-90.9090909090909,4,2,17,5,0,1
130077,-90.9090909090909,4,2,17,75,0,1
132451,-117.647058823529,4,2,17,60,0,0
138807,-117.647058823529,4,2,17,5,0,0
138891,-117.647058823529,4,2,17,60,0,0
140417,-99.9999999999999,4,2,17,60,0,0
140756,-99.9999999999999,4,2,17,30,0,0
141094,-99.9999999999999,4,2,17,40,0,0
141433,-99.9999999999999,4,2,17,60,0,0
141772,-99.9999999999999,4,2,17,70,0,0
143298,-125,4,2,17,60,0,0
154146,-117.647058823529,4,2,17,65,0,0
159569,-99.9999999999999,4,2,17,65,0,0
159739,-99.9999999999999,4,2,17,30,0,0
160246,-99.9999999999999,4,2,17,40,0,0
160585,-99.9999999999999,4,2,17,60,0,0
160924,-99.9999999999999,4,2,17,70,0,0
164993,-142.857142857143,4,2,17,40,0,0
175840,-125,4,2,17,60,0,0
181264,-99.9999999999999,4,2,17,60,0,0
181603,-99.9999999999999,4,2,17,30,0,0
181941,-99.9999999999999,4,2,17,40,0,0
182280,-99.9999999999999,4,2,17,60,0,0
182619,-99.9999999999999,4,2,17,70,0,0
186688,-99.9999999999999,4,2,17,60,0,0
187027,-90.9090909090909,4,2,17,75,0,1
187281,-90.9090909090909,4,2,17,5,0,1
187365,-90.9090909090909,4,2,17,75,0,1
187959,-90.9090909090909,4,2,17,5,0,1
188043,-90.9090909090909,4,2,17,75,0,1
188637,-90.9090909090909,4,2,17,5,0,1
188721,-90.9090909090909,4,2,17,75,0,1
189315,-90.9090909090909,4,2,17,5,0,1
189399,-90.9090909090909,4,2,17,75,0,1
190671,-90.9090909090909,4,2,17,5,0,1
190755,-90.9090909090909,4,2,17,75,0,1
192705,-90.9090909090909,4,2,17,5,0,1
192789,-90.9090909090909,4,2,17,75,0,1
193383,-90.9090909090909,4,2,17,5,0,1
193467,-90.9090909090909,4,2,17,75,0,1
194400,-90.9090909090909,4,2,17,5,0,1
194484,-90.9090909090909,4,2,17,75,0,1
197790,-90.9090909090909,4,2,17,5,0,1
197874,-90.9090909090909,4,2,17,75,0,1
198468,-90.9090909090909,4,2,17,5,0,1
198552,-90.9090909090909,4,2,17,75,0,1
199146,-90.9090909090909,4,2,17,5,0,1
199230,-90.9090909090909,4,2,17,75,0,1
199485,-90.9090909090909,4,2,17,5,0,1
199569,-90.9090909090909,4,2,17,75,0,1
200162,-90.9090909090909,4,2,17,5,0,1
200246,-90.9090909090909,4,2,17,75,0,1
200840,-90.9090909090909,4,2,17,5,0,1
200924,-90.9090909090909,4,2,17,75,0,1
201518,-90.9090909090909,4,2,17,5,0,1
201602,-90.9090909090909,4,2,17,75,0,1
203552,-90.9090909090909,4,2,17,5,0,1
203636,-90.9090909090909,4,2,17,75,0,1
204230,-90.9090909090909,4,2,17,5,0,1
204314,-90.9090909090909,4,2,17,75,0,1
204908,-90.9090909090909,4,2,17,5,0,1
204992,-90.9090909090909,4,2,17,75,0,1
205247,-90.9090909090909,4,2,17,5,0,1
205331,-90.9090909090909,4,2,17,75,0,1
205925,-90.9090909090909,4,2,17,5,0,1
206009,-90.9090909090909,4,2,17,75,0,1
206264,-90.9090909090909,4,2,17,5,0,1
206348,-90.9090909090909,4,2,17,75,0,1
208383,-117.647058823529,4,2,17,60,0,0
214739,-117.647058823529,4,2,17,5,0,0
214824,-117.647058823529,4,2,17,60,0,0
216349,-99.9999999999999,4,2,17,80,0,0
216688,-99.9999999999999,4,2,17,30,0,0
217026,-99.9999999999999,4,2,17,40,0,0
217365,-99.9999999999999,4,2,17,60,0,0
217704,-99.9999999999999,4,2,17,70,0,0
218383,-125,4,2,17,60,0,0
220586,-111.111111111111,4,2,17,65,0,0
221942,-105.263157894737,4,2,17,70,0,0
227620,-105.263157894737,4,2,17,5,0,0
227705,-105.263157894737,4,2,17,70,0,0
227959,-105.263157894737,4,2,17,5,0,0
228044,-105.263157894737,4,2,17,70,0,0
230078,-95.2380952380952,4,2,17,70,0,0
230332,-95.2380952380954,4,2,17,5,0,0
230417,-95.2380952380952,4,2,17,70,0,0
230671,-95.2380952380952,4,2,17,5,0,0
230756,-95.2380952380952,4,2,17,70,0,0
231349,-95.2380952380952,4,2,17,5,0,0
231434,-105.263157894737,4,2,17,70,0,0
232790,-100,4,2,17,70,0,0
238468,-100,4,2,17,5,0,0
238552,-100,4,2,17,70,0,0
238807,-100,4,2,17,5,0,0
238891,-100,4,2,17,70,0,0
240925,-95.2380952380952,4,2,17,70,0,0
247705,-95.2380952380952,4,2,17,5,0,0

[Colours]
Combo1 : 241,164,112
Combo2 : 253,241,172
Combo3 : 255,197,193
Combo4 : 212,39,38

[HitObjects]
57,35,1721,5,6,0:0:0:0:
140,136,1893,1,2,0:0:0:0:
205,49,2065,2,0,P|171:52|137:56,1,68,2|0,0:0|0:0,0:0:0:0:
311,36,2410,2,0,P|378:28|446:21,1,136,2|2,0:0|0:0,0:0:0:0:
391,128,2927,6,0,P|381:195|371:262,1,136,2|2,0:0|0:0,0:0:0:0:
482,362,3445,2,0,P|492:330|481:299,1,68,2|2,0:0|0:0,0:0:0:0:
337,345,3789,2,0,P|370:341|404:339,2,68,2|2|2,0:0|0:0|0:0,0:0:0:0:
170,263,4479,5,2,0:0:0:0:
218,384,4652,1,2,0:0:0:0:
264,279,4824,2,0,P|271:245|279:212,1,68,2|2,0:0|0:0,0:0:0:0:
195,109,5169,2,0,P|129:113|89:166,1,136,2|2,0:0|0:0,0:0:0:0:
170,263,5686,6,0,B|124:272|124:272|97:296|97:296|46:307,1,136,2|2,0:0|0:0,0:0:0:0:
218,384,6203,2,0,P|251:378|285:374,1,68,2|0,0:0|0:0,0:0:0:0:
264,279,6548,1,2,0:0:0:0:
264,279,6721,1,2,0:0:0:0:
187,197,6893,2,0,P|178:229|169:262,1,68,2|0,0:0|0:0,0:0:0:0:
284,145,7238,5,2,0:0:0:0:
359,269,7410,1,2,0:0:0:0:
410,190,7583,2,0,P|414:156|419:122,1,68,2|2,0:0|0:0,0:0:0:0:
302,38,7927,2,0,B|234:17|239:67|171:50,1,136,2|2,0:0|0:0,0:0:0:0:
50,159,8445,6,0,P|114:167|142:226,1,136,2|2,0:0|0:0,0:0:0:0:
57,332,8962,2,0,P|51:298|46:264,1,68,2|2,0:0|0:0,0:0:0:0:
166,324,9307,1,2,0:0:0:0:
50,159,9652,1,2,0:0:0:0:
145,33,9996,5,2,0:0:0:0:
0,96,10169,1,2,0:0:0:0:
128,121,10341,2,0,P|196:110|263:102,1,136,2|2,0:0|0:0,0:0:0:0:
460,71,11031,1,2,0:0:0:0:
390,13,11203,6,0,P|367:75|394:135,1,136,2|2,0:0|0:0,0:0:0:0:
480,181,11721,1,2,0:0:0:0:
480,181,12238,1,2,0:0:0:0:
475,197,12324,1,2,0:0:0:0:
471,213,12410,2,0,P|479:263|488:313,1,102,2|0,0:0|0:0,0:0:0:0:
426,366,12755,5,6,1:2:0:0:
270,286,12927,1,0,1:2:0:0:
338,238,13100,2,0,P|344:275|350:313,1,76.4999976654053,10|2,0:0|0:0,0:0:0:0:
219,220,13445,2,0,P|147:223|114:289,1,152.999995330811,2|10,0:0|0:0,0:0:0:0:
11,358,13962,6,0,B|-19:288|-19:288|8:260|12:218,1,152.999995330811,2|2,1:2|1:2,0:0:0:0:
90,80,14479,1,10,0:0:0:0:
0,22,14652,1,2,0:0:0:0:
90,80,14824,2,0,P|128:74|166:70,1,76.4999976654053,2|2,0:0|1:2,0:0:0:0:
357,44,15169,1,10,0:0:0:0:
228,0,15514,5,0,1:2:0:0:
255,161,15686,1,0,1:2:0:0:
357,44,15858,2,0,P|319:49|281:57,1,76.4999976654053,10|2,0:0|0:0,0:0:0:0:
374,161,16203,2,0,B|431:176|431:176|456:201|456:201|512:215,1,152.999995330811,2|8,0:0|0:0,0:0:0:0:
428,295,16721,6,0,P|357:310|314:252,1,152.999995330811,2|2,1:2|1:2,0:0:0:0:
186,110,17238,2,0,P|180:147|174:185,1,76.4999976654053,10|2,0:0|0:0,0:0:0:0:
150,331,17583,1,2,0:0:0:0:
223,275,17755,1,2,1:2:0:0:
51,240,17927,2,0,P|56:277|62:315,1,76.4999976654053,10|0,0:0|0:0,0:0:0:0:
223,275,18272,5,6,1:2:0:0:
99,140,18445,1,0,1:2:0:0:
186,110,18617,2,0,P|223:105|258:121,1,76.4999976654053,10|2,0:0|0:0,0:0:0:0:
388,233,18962,2,0,P|413:164|370:104,1,152.999995330811,2|10,0:0|0:0,0:0:0:0:
210,17,19479,6,0,B|132:-8|139:54|63:32,1,152.999995330811,2|2,1:2|1:2,0:0:0:0:
169,184,19996,2,0,P|176:146|185:109,1,76.4999976654053,10|2,0:0|0:0,0:0:0:0:
32,164,20341,1,2,0:0:0:0:
91,247,20514,1,0,1:2:0:0:
14,349,20686,1,10,0:0:0:0:
14,349,21031,5,2,1:2:0:0:
185,292,21203,1,0,1:2:0:0:
91,247,21376,2,0,P|97:284|103:322,1,76.4999976654053,10|0,0:0|0:0,0:0:0:0:
263,345,21721,2,0,P|269:307|275:269,1,76.4999976654053,2|0,0:0|1:2,0:0:0:0:
356,136,22065,2,0,P|410:149|443:194,1,114.749996498108,10|0,0:0|0:0,0:0:0:0:
404,264,22410,5,6,1:2:0:0:
258,169,22583,1,0,1:2:0:0:
337,62,22755,2,0,P|346:99|355:136,1,76.4999976654053,8|8,0:0|0:0,0:0:0:0:
355,136,23014,1,8,0:0:0:0:
355,136,23100,1,10,0:0:0:0:
245,46,23272,1,8,0:3:0:0:
413,0,23445,1,4,0:3:0:0:
258,169,23617,1,0,1:2:0:0:
238,166,23703,1,0,1:2:0:0:
219,164,23789,6,0,B|146:143|156:206|82:187,1,144.500002756119,6|0,1:2|1:2,0:0:0:0:
12,341,24479,2,0,P|62:354|100:318,1,108.375002067089,8|0,0:0|0:0,0:0:0:0:
155,266,24824,2,0,P|190:273|225:281,1,72.2500013780594,2|2,1:2|1:2,0:0:0:0:
351,353,25169,5,0,0:0:0:0:
421,313,25341,1,8,0:0:0:0:
340,203,25514,2,0,P|347:238|353:274,1,72.2500013780594,0|0,0:0|1:2,0:0:0:0:
486,371,25858,1,8,0:0:0:0:
486,371,26203,2,0,P|493:335|499:299,1,72.2500013780594,2|2,1:2|0:0,0:0:0:0:
339,202,26548,6,0,P|271:200|235:259,1,144.500002756119,2|2,1:2|1:2,0:0:0:0:
100,318,27065,1,2,1:2:0:0:
198,359,27238,1,8,0:0:0:0:
198,359,27583,1,2,1:2:0:0:
100,318,27755,1,2,1:2:0:0:
137,179,27927,6,0,P|144:214|151:249,1,72.2500013780594,8|0,0:0|1:2,0:0:0:0:
29,152,28272,1,2,1:2:0:0:
165,86,28445,1,8,0:0:0:0:
54,0,28617,1,6,1:2:0:0:
0,68,28789,1,8,0:0:0:0:
137,179,28962,1,2,1:2:0:0:
154,180,29048,1,0,1:2:0:0:
172,182,29134,1,0,1:2:0:0:
271,24,29307,6,0,P|201:25|163:84,1,144.500002756119,6|0,1:2|0:0,0:0:0:0:
265,193,29824,1,0,1:2:0:0:
355,73,29996,2,0,P|361:126|368:180,1,108.375002067089,8|0,0:0|0:0,0:0:0:0:
424,237,30341,2,0,P|459:236|489:217,1,72.2500013780594,2|2,0:0|1:2,0:0:0:0:
443,125,30686,5,0,1:2:0:0:
340,254,30858,2,0,P|288:299|221:283,1,144.500002756119,8|0,0:0|1:2,0:0:0:0:
163,84,31376,1,10,0:0:0:0:
265,193,31548,1,8,0:0:0:0:
129,281,31721,1,8,0:3:0:0:
65,171,31893,1,4,0:3:0:0:
162,189,32065,5,6,1:2:0:0:
162,189,32410,1,8,0:0:0:0:
65,171,32583,1,8,0:0:0:0:
129,281,32755,1,8,0:0:0:0:
265,193,32927,1,8,0:0:0:0:
163,84,33100,1,8,0:0:0:0:
35,264,33272,1,8,0:0:0:0:
234,362,33445,5,6,1:2:0:0:
263,358,33531,1,0,3:3:0:0:
292,354,33617,1,8,0:3:0:0:
322,350,33703,1,0,3:3:0:0:
351,346,33789,2,0,L|392:339,1,42.5,8|4,0:3|0:3,0:0:0:0:
512,355,33962,2,0,L|484:322,1,42.5,0|0,1:2|1:2,0:0:0:0:
422,247,34134,5,8,0:0:0:0:
422,247,34824,6,0,B|400:175|457:185|443:113,1,140.25000428009,6|0,1:2|0:0,0:0:0:0:
408,44,35162,2,0,P|340:48|302:104,1,140.25000428009,10|0,0:0|0:0,0:0:0:0:
246,158,35501,2,0,P|199:150|153:142,1,93.5000028533936,2|0,1:2|0:0,0:0:0:0:
47,7,35840,6,0,P|88:58|61:119,1,140.25000428009,10|0,0:0|0:0,0:0:0:0:
8,178,36179,2,0,P|18:223|27:269,1,93.5000028533936,2|0,1:2|0:0,0:0:0:0:
211,362,36518,6,0,P|280:352|350:345,1,140.25000428009,10|0,0:0|0:0,0:0:0:0:
400,286,36857,2,0,P|409:241|383:203,1,93.5000028533936,2|0,1:2|0:0,0:0:0:0:
184,83,37196,2,0,P|200:151|215:219,1,140.25000428009,10|0,0:0|0:0,0:0:0:0:
161,277,37535,6,0,P|114:271|68:265,1,93.5000028533936,2|0,1:2|0:0,0:0:0:0:
211,362,37874,1,10,0:0:0:0:
383,203,38044,2,0,P|336:208|290:214,1,93.5000028533936,2|0,0:0|1:2,0:0:0:0:
429,380,38383,1,2,0:0:0:0:
461,245,38552,2,0,P|470:177|425:126,1,140.25000428009,10|0,0:0|0:0,0:0:0:0:
346,118,38891,6,0,P|253:127|160:139,2,187.000005706787,0|8|2,1:2|0:0|1:2,0:0:0:0:
266,218,39739,1,0,1:2:0:0:
243,28,39908,1,10,0:0:0:0:
266,218,40078,6,0,B|193:275|193:275|153:240|106:244,1,187.000005706787,6|0,1:2|0:0,0:0:0:0:
13,33,40586,6,0,P|25:102|38:170,1,140.25000428009,14|0,0:0|0:0,0:0:0:0:
15,245,40925,2,0,P|8:291|1:337,1,93.5000028533936,2|0,1:2|0:0,0:0:0:0:
196,354,41264,6,0,B|268:332|258:389|330:375,1,140.25000428009,10|0,0:0|0:0,0:0:0:0:
389,323,41603,2,0,P|397:277|374:238,1,93.5000028533936,0|0,1:2|0:0,0:0:0:0:
169,79,41942,6,0,P|177:125|185:170,1,93.5000028533936,10|0,0:0|0:0,0:0:0:0:
375,239,42281,2,0,P|437:228|518:213,1,140.25000428009,2|0,1:2|0:0,0:0:0:0:
512,135,42620,2,0,P|503:88|495:43,1,93.5000028533936,10|0,0:0|0:0,0:0:0:0:
430,2,42959,5,14,0:0:0:0:
296,172,43129,1,0,1:2:0:0:
512,213,43298,1,0,1:2:0:0:
288,24,43468,5,14,0:0:0:0:
375,239,43637,1,0,1:2:0:0:
495,43,43807,1,10,0:0:0:0:
296,172,43976,6,0,B|227:183|227:183|199:215|199:215|125:229,1,187.000005706787,6|0,1:2|0:0,0:0:0:0:
288,319,44485,1,0,1:2:0:0:
282,296,44569,1,0,1:2:0:0:
276,273,44654,1,14,0:0:0:0:
157,374,44824,1,0,1:2:0:0:
8,162,44993,5,8,0:0:0:0:
14,185,45077,1,8,0:0:0:0:
20,207,45162,1,8,0:0:0:0:
26,230,45247,1,8,0:0:0:0:
32,252,45331,1,10,0:0:0:0:
104,59,45501,5,8,0:0:0:0:
104,59,45586,1,8,0:0:0:0:
104,59,45671,2,0,B|155:67|155:67|176:91|176:91|231:101,1,140.25000428009,6|0,1:2|0:0,0:0:0:0:
298,146,46010,2,0,P|342:136|370:99,1,93.5000028533936,10|0,0:0|0:0,0:0:0:0:
512,0,46349,6,0,P|495:68|477:135,1,140.25000428009,2|0,1:2|0:0,0:0:0:0:
441,204,46688,2,0,P|452:249|463:294,1,93.5000028533936,10|0,0:0|0:0,0:0:0:0:
273,349,47027,6,0,P|211:377|157:338,1,140.25000428009,2|0,1:2|0:0,0:0:0:0:
172,263,47366,2,0,P|187:194|204:126,1,140.25000428009,10|0,0:0|0:0,0:0:0:0:
164,60,47705,2,0,P|118:65|72:71,1,93.5000028533936,2|0,1:2|0:0,0:0:0:0:
274,215,48044,6,0,P|341:216|378:160,1,140.25000428009,10|0,0:0|0:0,0:0:0:0:
356,84,48383,2,0,P|402:84|440:108,1,93.5000028533936,2|0,1:2|0:0,0:0:0:0:
512,272,48722,6,0,P|444:270|407:326,1,140.25000428009,10|0,0:0|0:0,0:0:0:0:
339,367,49061,2,0,P|292:358|246:351,1,93.5000028533936,2|0,1:2|0:0,0:0:0:0:
64,317,49400,2,0,P|29:259|55:197,1,140.25000428009,10|0,0:0|0:0,0:0:0:0:
115,148,49739,6,0,P|96:63|8:53,2,187.000005706787,0|8|2,1:2|0:0|1:2,0:0:0:0:
186,0,50586,1,0,1:2:0:0:
43,121,50756,1,10,0:0:0:0:
186,0,50925,6,0,B|255:11|255:11|283:43|283:43|357:57,1,187.000005706787,6|0,1:2|0:0,0:0:0:0:
473,263,51434,6,0,P|467:196|406:168,1,140.25000428009,14|0,0:0|0:0,0:0:0:0:
357,231,51773,2,0,P|364:277|371:323,1,93.5000028533936,2|0,1:2|0:0,0:0:0:0:
150,341,52112,6,0,P|160:271|170:202,1,140.25000428009,10|0,0:0|0:0,0:0:0:0:
128,136,52451,2,0,P|83:137|48:168,1,93.5000028533936,0|0,1:2|0:0,0:0:0:0:
357,231,52790,6,0,P|347:161|337:92,1,140.25000428009,10|0,0:0|0:0,0:0:0:0:
372,20,53129,2,0,P|437:8|481:59,1,140.25000428009,2|0,1:2|0:0,0:0:0:0:
449,128,53468,2,0,P|431:171|441:216,1,93.5000028533936,10|0,0:0|0:0,0:0:0:0:
240,355,53807,6,0,P|250:285|260:216,1,140.25000428009,2|0,1:2|0:0,0:0:0:0:
233,142,54146,1,14,0:0:0:0:
329,308,54315,1,0,1:2:0:0:
60,384,54485,5,10,0:0:0:0:
56,360,54569,1,8,0:0:0:0:
53,337,54654,1,8,0:0:0:0:
50,314,54739,1,0,1:2:0:0:
46,291,54823,1,2,1:2:0:0:
43,268,54908,1,0,1:2:0:0:
40,245,54993,6,0,L|32:198,1,46.7500014266968,0|0,1:2|1:2,0:0:0:0:
160,271,55162,1,6,1:2:0:0:
233,142,55332,5,8,0:0:0:0:
255,146,55416,1,8,0:0:0:0:
278,151,55501,1,8,0:0:0:0:
57,65,55671,5,8,0:0:0:0:
34,60,55755,1,8,0:0:0:0:
11,55,55840,1,8,0:0:0:0:
276,59,56010,1,8,0:3:0:0:
121,186,56179,1,4,0:3:0:0:
107,0,56349,1,0,1:2:0:0:
278,151,56518,6,0,P|343:127|369:61,1,144.500002756119,6|2,1:2|0:0,0:0:0:0:
446,4,57027,1,2,1:2:0:0:
505,77,57196,2,0,P|488:147|472:217,1,144.500002756119,10|2,0:0|0:0,0:0:0:0:
308,311,57705,6,0,P|301:275|294:240,1,72.2500013780594,2|0,1:2|1:2,0:0:0:0:
383,222,58044,2,0,P|389:257|396:292,1,72.2500013780594,2|0,0:0|0:0,0:0:0:0:
217,291,58383,1,2,1:2:0:0:
294,240,58552,1,10,0:0:0:0:
241,377,58722,1,0,1:2:0:0:
137,339,58891,2,0,P|101:342|65:348,1,72.2500013780594,2|0,0:0|0:0,0:0:0:0:
6,202,59230,6,0,B|54:211|54:211|82:239|82:239|136:249,1,144.500002756119,6|2,1:2|0:0,0:0:0:0:
217,291,59739,1,2,1:2:0:0:
293,239,59908,2,0,P|251:184|181:187,1,144.500002756119,10|2,0:0|0:0,0:0:0:0:
84,95,60417,6,0,P|92:59|102:25,1,72.2500013780594,2|0,0:0|0:0,0:0:0:0:
3,115,60756,1,0,3:3:0:0:
181,186,60925,1,8,0:3:0:0:
176,168,61009,1,8,0:3:0:0:
172,151,61094,1,4,0:3:0:0:
167,133,61179,1,4,0:3:0:0:
163,116,61263,5,6,1:2:0:0:
217,291,61490,5,6,1:2:0:0:
368,196,61716,5,6,1:2:0:0:
268,88,61942,6,0,B|344:64|333:123|405:111,1,144.500002756119,6|0,1:2|0:0,0:0:0:0:
486,61,62451,1,0,1:2:0:0:
512,169,62620,2,0,P|442:176|408:236,1,144.500002756119,8|2,0:0|0:0,0:0:0:0:
497,260,63129,1,2,1:2:0:0:
319,214,63298,5,0,1:2:0:0:
381,348,63468,1,8,0:0:0:0:
408,236,63637,1,0,1:2:0:0:
262,341,63807,1,2,1:2:0:0:
244,343,63891,1,0,1:2:0:0:
226,345,63976,1,8,0:3:0:0:
319,214,64146,1,4,0:3:0:0:
381,348,64315,1,0,1:2:0:0:
191,236,64485,1,6,1:2:0:0:
191,236,64824,5,8,0:0:0:0:
319,214,64993,1,8,0:0:0:0:
262,341,65162,1,8,0:0:0:0:
90,212,65332,1,8,0:0:0:0:
248,125,65501,1,8,0:0:0:0:
120,338,65671,1,10,0:0:0:0:
0,94,65840,1,10,0:0:0:0:
191,236,66010,5,2,1:2:0:0:
207,234,66094,1,0,1:2:0:0:
224,233,66179,1,0,1:2:0:0:
6,260,66349,1,10,0:0:0:0:
120,338,66518,1,0,1:2:0:0:
319,214,67366,5,6,1:2:0:0:
267,64,67535,2,0,P|250:99|260:137,1,80.7499978437424,2|8,0:0|0:0,0:0:0:0:
413,3,67874,1,2,0:0:0:0:
505,72,68044,2,0,P|465:77|425:84,1,80.7499978437424,2|2,1:2|0:0,0:0:0:0:
319,214,68383,1,10,0:0:0:0:
432,278,68552,6,0,P|422:238|414:199,1,80.7499978437424,2|0,0:0|1:2,0:0:0:0:
355,358,68891,1,2,0:0:0:0:
252,306,69061,2,0,P|212:306|176:325,1,80.7499978437424,10|0,0:0|0:0,0:0:0:0:
24,263,69400,1,2,1:2:0:0:
74,357,69569,1,2,0:0:0:0:
24,263,69739,1,10,0:0:0:0:
74,357,69908,1,2,0:0:0:0:
184,231,70078,5,2,1:2:0:0:
90,168,70247,2,0,P|96:207|104:247,1,80.7499978437424,2|8,0:0|0:0,0:0:0:0:
160,53,70586,1,2,0:0:0:0:
64,6,70756,2,0,P|25:16|0:46,1,80.7499978437424,2|2,1:2|0:0,0:0:0:0:
170,137,71095,1,10,0:0:0:0:
243,48,71264,6,0,P|247:88|251:128,1,80.7499978437424,2|0,0:0|1:2,0:0:0:0:
349,18,71603,1,2,0:0:0:0:
442,222,71773,2,0,P|448:161|454:101,1,121.124996765614,14|0,0:0|0:0,0:0:0:0:
428,28,72112,1,2,1:2:0:0:
251,128,72281,5,10,0:0:0:0:
253,148,72365,1,8,0:0:0:0:
255,168,72450,1,10,0:0:0:0:
257,188,72535,1,8,0:0:0:0:
259,208,72619,1,10,0:0:0:0:
261,228,72704,1,8,0:0:0:0:
263,248,72790,6,0,B|326:220|318:276|377:262,1,121.124996765614,6|0,1:2|0:0,0:0:0:0:
450,284,73129,2,0,P|413:330|355:339,1,121.124996765614,14|0,0:0|0:0,0:0:0:0:
275,327,73468,2,0,P|236:329|205:354,1,80.7499978437424,2|2,1:2|0:0,0:0:0:0:
69,298,73807,1,14,0:0:0:0:
139,199,73976,6,0,P|143:239|147:279,1,80.7499978437424,2|0,0:0|1:2,0:0:0:0:
22,151,74315,1,2,0:0:0:0:
100,28,74485,2,0,P|95:68|91:108,1,80.7499978437424,14|0,0:0|0:0,0:0:0:0:
257,188,74824,1,2,1:2:0:0:
203,99,74993,1,2,0:0:0:0:
257,188,75162,1,14,0:0:0:0:
203,99,75331,1,2,0:0:0:0:
359,184,75501,6,0,P|402:179|444:175,1,85,14|2,0:0|1:2,0:0:0:0:
239,290,75840,1,2,1:2:0:0:
285,39,76010,6,0,P|306:74|305:116,1,85,14|2,0:0|1:2,0:0:0:0:
415,295,76349,1,2,1:2:0:0:
480,93,76518,1,14,0:0:0:0:
252,184,76688,1,2,1:2:0:0:
354,349,76857,5,2,1:2:0:0:
512,238,77027,1,10,0:0:0:0:
239,290,77196,1,8,0:3:0:0:
218,294,77280,1,8,0:3:0:0:
197,298,77365,1,4,0:3:0:0:
176,302,77450,1,4,0:3:0:0:
155,306,77534,1,0,1:2:0:0:
155,306,78213,5,6,1:2:0:0:
78,361,78383,2,0,P|57:297|86:237,1,136,0|0,1:2|1:2,0:0:0:0:
145,172,78891,2,0,B|83:142|83:142|54:169|24:173,1,136,10|2,0:0|0:0,0:0:0:0:
24,172,79400,1,2,0:0:0:0:
150,85,79739,6,0,P|145:51|140:17,2,68,2|2|2,0:0|0:0|1:2,0:0:0:0:
220,133,80247,2,0,P|253:140|286:146,1,68,10|2,0:0|0:0,0:0:0:0:
356,95,80586,1,2,0:0:0:0:
509,198,80925,5,0,1:2:0:0:
509,198,81095,2,0,B|460:209|460:209|435:229|435:229|382:242,1,136,0|2,1:2|1:2,0:0:0:0:
321,295,81603,2,0,B|272:284|272:284|247:264|247:264|194:250,1,136,10|2,0:0|0:0,0:0:0:0:
101,159,82281,6,0,P|35:164|0:219,1,136,0|2,0:0|0:0,0:0:0:0:
33,296,82790,1,2,1:2:0:0:
115,238,82959,2,0,P|119:271|122:305,1,68,10|0,0:0|1:2,0:0:0:0:
187,357,83298,1,2,1:2:0:0:
321,295,83637,5,0,1:2:0:0:
321,295,83807,2,0,P|314:227|306:159,1,136,0|0,1:2|1:2,0:0:0:0:
349,85,84315,2,0,P|414:86|452:140,1,136,10|2,0:0|0:0,0:0:0:0:
441,222,84824,5,2,0:0:0:0:
512,324,85162,1,2,0:0:0:0:
361,361,85501,1,2,1:2:0:0:
361,361,85671,2,0,B|293:340|293:340|265:362|233:362,1,136,10|2,0:0|0:0,0:0:0:0:
75,318,86349,5,2,1:2:0:0:
75,318,86518,2,0,P|63:251|51:184,1,136,0|0,1:2|1:2,0:0:0:0:
83,105,87027,2,0,P|148:103|190:154,1,136,10|2,0:0|0:0,0:0:0:0:
287,49,87705,6,0,P|221:50|179:0,1,136
98,17,88213,1,0,1:2:0:0:
83,105,88383,2,0,P|92:137|100:170,1,68,8|0,0:0|1:2,0:0:0:0:
122,249,88722,1,0,1:2:0:0:
267,138,89061,5,0,1:2:0:0:
267,138,89230,2,0,P|334:148|401:158,1,136,2|2,1:2|1:2,0:0:0:0:
484,123,89739,2,0,P|476:89|467:57,1,68,10|0,0:0|0:0,0:0:0:0:
401,158,90078,2,0,P|393:191|384:223,1,68,2|0,0:0|0:0,0:0:0:0:
488,323,90586,6,0,P|422:316|377:364,1,136,2|2,0:0|1:2,0:0:0:0:
268,288,91095,2,0,B|222:297|222:297|194:327|194:327|147:338,1,136,10|2,0:0|0:0,0:0:0:0:
24,242,91773,5,0,1:2:0:0:
24,242,91942,2,0,B|60:249|87:272|87:272|112:248|145:243,1,136,2|2,1:2|1:2,0:0:0:0:
146,138,92451,2,0,P|113:144|88:166,1,68,10|0,0:0|0:0,0:0:0:0:
144,243,92790,1,2,0:0:0:0:
232,189,92959,6,0,P|247:123|261:57,1,136,2|2,0:0|0:0,0:0:0:0:
187,7,93468,2,0,P|169:35|170:69,1,68,2|2,0:0|1:2,0:0:0:0:
261,57,93807,2,0,P|294:57|322:75,1,68,10|2,0:0|1:2,0:0:0:0:
339,158,94146,1,2,1:2:0:0:
463,60,94485,5,0,1:2:0:0:
463,60,94654,2,0,P|474:126|485:194,1,136,2|2,1:2|1:2,0:0:0:0:
431,275,95162,2,0,P|369:293|318:252,1,136,10|2,0:0|0:0,0:0:0:0:
240,193,95671,6,0,B|171:175|179:228|110:212,1,136,2|2,0:0|0:0,0:0:0:0:
27,167,96179,2,0,P|15:198|18:232,1,68,2|2,0:0|1:2,0:0:0:0:
81,304,96518,1,10,0:0:0:0:
240,193,96857,2,0,P|251:224|248:258,1,68,2|2,0:0|0:0,0:0:0:0:
206,338,97196,5,0,1:2:0:0:
206,338,97366,2,0,P|272:351|339:364,1,136,0|0,1:2|1:2,0:0:0:0:
428,293,97874,2,0,P|420:227|364:192,1,136,10|2,0:0|0:0,0:0:0:0:
248,258,98552,5,0,1:2:0:0:
321,41,98891,1,2,1:2:0:0:
278,136,99061,1,0,1:2:0:0:
282,152,99145,1,0,1:2:0:0:
287,168,99230,1,10,0:0:0:0:
238,0,99400,1,8,0:3:0:0:
385,106,99569,1,4,0:3:0:0:
198,96,99739,1,0,1:2:0:0:
41,214,99908,6,0,P|154:226|147:340,1,252.875004823208,6|0,1:2|0:0,0:0:0:0:
68,348,100586,1,0,1:2:0:0:
287,168,100925,1,2,0:0:0:0:
353,280,101095,1,2,0:0:0:0:
353,280,101264,6,0,P|283:284|243:341,2,144.500002756119,0|2|0,1:2|0:0|1:2,0:0:0:0:
437,351,102112,1,8,0:3:0:0:
512,246,102281,2,0,P|476:253|441:261,1,72.2500013780594,2|4,0:0|0:3,0:0:0:0:
254,142,102620,6,0,B|304:157|304:157|329:184|329:184|382:198,1,144.500002756119,6|2,1:2|0:0,0:0:0:0:
457,122,103129,1,2,0:0:0:0:
457,122,103298,2,0,P|421:114|386:106,1,72.2500013780594,0|0,1:2|0:0,0:0:0:0:
331,7,103637,2,0,P|278:18|225:33,1,108.375002067089,2|0,0:0|0:0,0:0:0:0:
163,89,103976,6,0,P|119:104|78:83,1,96.3333351707459,0|4,1:2|0:3,0:0:0:0:
10,121,104315,6,0,L|20:168,1,48.1666675853729,2|0,0:0|1:2,0:0:0:0:
80,217,104541,5,8,0:0:0:0:
12,263,104654,5,10,0:0:0:0:
105,356,104993,5,2,1:2:0:0:
196,266,105332,6,0,P|265:265|306:321,1,144.500002756119,6|2,1:2|0:0,0:0:0:0:
450,361,106010,2,0,P|443:325|438:289,1,72.2500013780594,8|0,0:0|0:0,0:0:0:0:
469,180,106349,1,2,0:0:0:0:
363,232,106518,1,2,0:0:0:0:
243,134,106688,6,0,P|314:141|386:149,1,144.500002756119,0|2,1:2|0:0,0:0:0:0:
464,48,107366,1,10,0:0:0:0:
331,0,107535,1,8,0:3:0:0:
331,0,107620,1,0,3:3:0:0:
331,0,107705,2,0,L|334:35,1,36.1250006890297,8|4,0:3|0:3,0:0:0:0:
162,51,107874,2,0,L|158:15,1,36.1250006890297,2|0,1:2|1:2,0:0:0:0:
247,25,108044,5,6,1:2:0:0:
247,25,108383,1,8,0:0:0:0:
243,134,108552,1,8,0:0:0:0:
62,115,108722,1,8,0:0:0:0:
162,51,108891,1,8,0:0:0:0:
224,265,109061,1,8,0:0:0:0:
0,190,109230,1,8,0:0:0:0:
179,370,109400,5,6,1:2:0:0:
208,366,109485,1,0,3:3:0:0:
237,362,109569,1,8,0:3:0:0:
267,358,109654,1,0,3:3:0:0:
296,354,109739,2,0,L|337:347,1,42.5,8|4,0:3|0:3,0:0:0:0:
457,363,109908,2,0,L|429:330,1,42.5,0|0,1:2|1:2,0:0:0:0:
367,255,110078,5,8,0:0:0:0:
334,35,110247,2,0,L|339:77,1,42.5,8|0,0:0|0:0,0:0:0:0:
414,93,110417,5,8,0:3:0:0:
395,129,110501,1,8,0:3:0:0:
359,151,110586,1,4,0:3:0:0:
317,151,110671,1,4,0:3:0:0:
281,129,110756,6,0,B|209:107|219:164|147:150,1,140.25000428009,6|0,1:2|0:0,0:0:0:0:
93,92,111095,2,0,P|26:99|0:160,1,140.25000428009,10|0,0:0|0:0,0:0:0:0:
29,229,111434,2,0,P|19:275|10:321,1,93.5000028533936,2|0,1:2|0:0,0:0:0:0:
179,370,111773,6,0,P|224:320|291:329,1,140.25000428009,10|0,0:0|0:0,0:0:0:0:
357,375,112112,2,0,P|365:329|376:283,1,93.5000028533936,2|0,1:2|0:0,0:0:0:0:
454,35,112451,6,0,P|467:103|479:172,1,140.25000428009,10|0,0:0|0:0,0:0:0:0:
412,208,112790,2,0,P|366:207|339:171,1,93.5000028533936,2|0,1:2|0:0,0:0:0:0:
231,72,113129,2,0,P|161:81|92:91,1,140.25000428009,10|0,0:0|0:0,0:0:0:0:
37,144,113468,6,0,P|44:190|50:236,1,93.5000028533936,2|0,1:2|0:0,0:0:0:0:
226,318,113807,1,10,0:0:0:0:
339,171,113976,2,0,P|292:178|246:184,1,93.5000028533936,2|0,0:0|1:2,0:0:0:0:
376,283,114315,1,2,0:0:0:0:
467,68,114485,2,0,P|401:52|348:94,1,140.25000428009,10|0,0:0|0:0,0:0:0:0:
339,170,114824,6,0,P|429:181|482:255,2,187.000005706787,0|8|2,1:2|0:0|1:2,0:0:0:0:
376,283,115671,1,0,1:2:0:0:
467,68,115840,1,10,0:0:0:0:
376,283,116010,6,0,B|332:291|291:323|291:323|255:288|209:285,1,187.000005706787,6|0,1:2|0:0,0:0:0:0:
18,365,116518,6,0,P|31:297|46:228,1,140.25000428009,14|0,0:0|0:0,0:0:0:0:
97,168,116857,2,0,P|87:122|78:76,1,93.5000028533936,2|0,1:2|0:0,0:0:0:0:
257,203,117196,6,0,B|329:225|319:168|391:182,1,140.25000428009,10|0,0:0|0:0,0:0:0:0:
463,211,117535,2,0,P|471:165|448:125,1,93.5000028533936,0|0,1:2|0:0,0:0:0:0:
166,58,117874,6,0,P|176:104|185:150,1,93.5000028533936,10|0,0:0|0:0,0:0:0:0:
18,365,118213,2,0,P|86:352|155:337,1,140.25000428009,2|0,1:2|0:0,0:0:0:0:
233,320,118552,2,0,P|278:328|324:338,1,93.5000028533936,10|0,0:0|0:0,0:0:0:0:
402,354,118891,5,14,0:0:0:0:
499,166,119061,1,0,1:2:0:0:
332,221,119230,1,0,1:2:0:0:
512,296,119400,5,14,0:0:0:0:
421,101,119569,1,0,1:2:0:0:
258,242,119739,1,10,0:0:0:0:
499,165,119908,6,0,P|513:76|455:6,1,187.000005706787,6|0,1:2|0:0,0:0:0:0:
207,166,120417,1,0,1:2:0:0:
207,166,120501,1,0,1:2:0:0:
207,166,120586,2,0,B|247:175|247:175|283:209|283:209|331:220,1,140.25000428009,14|0,0:0|0:0,0:0:0:0:
395,169,120925,5,0,1:2:0:0:
390,146,121009,1,0,1:2:0:0:
385,123,121094,1,0,1:2:0:0:
381,100,121179,1,0,1:2:0:0:
376,76,121264,6,0,P|312:100|256:62,1,140.25000428009,14|0,0:0|0:0,0:0:0:0:
196,12,121603,2,0,B|155:21|155:21|119:55|119:55|71:66,1,140.25000428009,6|0,1:2|0:0,0:0:0:0:
23,127,121942,2,0,P|11:172|30:214,1,93.5000028533936,10|0,0:0|0:0,0:0:0:0:
276,381,122281,6,0,P|267:311|257:241,1,140.25000428009,2|0,1:2|0:0,0:0:0:0:
198,189,122620,2,0,P|153:198|107:209,1,93.5000028533936,10|0,0:0|0:0,0:0:0:0:
353,301,122959,6,0,P|413:329|468:291,1,140.25000428009,2|0,1:2|0:0,0:0:0:0:
453,214,123298,2,0,P|461:144|471:74,1,140.25000428009,10|0,0:0|0:0,0:0:0:0:
416,20,123637,2,0,P|370:10|324:0,1,93.5000028533936,2|0,1:2|0:0,0:0:0:0:
198,188,123976,6,0,P|212:123|161:79,1,140.25000428009,10|0,0:0|0:0,0:0:0:0:
106,20,124315,2,0,P|81:59|84:105,1,93.5000028533936,2|0,1:2|0:0,0:0:0:0:
15,295,124654,6,0,P|78:274|126:321,1,140.25000428009,10|0,0:0|0:0,0:0:0:0:
190,366,124993,2,0,P|236:359|282:353,1,93.5000028533936,2|0,1:2|0:0,0:0:0:0:
455,304,125332,2,0,P|462:237|411:193,1,140.25000428009,10|0,0:0|0:0,0:0:0:0:
335,173,125671,6,0,P|334:84|416:52,2,187.000005706787,0|8|2,1:2|0:0|1:2,0:0:0:0:
232,50,126518,1,0,1:2:0:0:
416,137,126688,1,10,0:0:0:0:
232,50,126857,6,0,B|138:21|145:92|51:67,1,187.000005706787,6|0,1:2|0:0,0:0:0:0:
0,258,127366,6,0,P|33:199|100:199,1,140.25000428009,14|0,0:0|0:0,0:0:0:0:
147,264,127705,2,0,P|136:309|127:355,1,93.5000028533936,2|0,1:2|0:0,0:0:0:0:
364,310,128044,6,0,P|348:241|334:172,1,140.25000428009,10|0,0:0|0:0,0:0:0:0:
373,106,128383,2,0,P|419:102|456:129,1,93.5000028533936,0|0,1:2|0:0,0:0:0:0:
171,163,128722,6,0,P|186:94|200:25,1,140.25000428009,10|0,0:0|0:0,0:0:0:0:
124,0,129061,2,0,P|57:10|22:68,1,140.25000428009,2|0,1:2|0:0,0:0:0:0:
75,124,129400,2,0,P|92:167|76:210,1,93.5000028533936,10|0,0:0|0:0,0:0:0:0:
272,267,129739,6,0,P|206:255|164:307,1,140.25000428009,6|0,1:2|0:0,0:0:0:0:
188,381,130078,1,2,1:2:0:0:
217,173,130247,1,8,0:0:0:0:
398,241,130417,1,2,1:2:0:0:
342,364,130586,1,0,1:2:0:0:
337,341,130670,1,0,1:2:0:0:
332,318,130755,1,10,0:0:0:0:
491,137,130925,1,0,1:2:0:0:
486,159,131009,1,0,1:2:0:0:
481,182,131094,5,14,0:0:0:0:
398,241,131434,1,8,0:3:0:0:
336,166,131603,1,8,0:3:0:0:
507,57,131773,1,0,0:0:0:0:
491,137,131942,1,4,0:3:0:0:
353,0,132112,1,4,0:3:0:0:
353,0,132281,1,0,0:0:0:0:
205,128,132451,6,0,B|154:117|154:117|126:86|126:86|76:74,1,144.500002756119,6|2,1:2|0:0,0:0:0:0:
7,145,132959,1,0,1:2:0:0:
78,208,133129,2,0,P|147:203|186:260,1,144.500002756119,10|2,0:0|0:0,0:0:0:0:
27,371,133637,6,0,P|22:335|17:299,1,72.2500013780594,2|0,1:2|1:2,0:0:0:0:
106,289,133976,2,0,P|110:324|115:360,1,72.2500013780594,2|0,0:0|0:0,0:0:0:0:
186,260,134315,1,2,1:2:0:0:
276,351,134485,2,0,P|345:348|380:289,1,144.500002756119,10|2,0:0|0:0,0:0:0:0:
483,131,135162,6,0,P|413:133|378:192,1,144.500002756119,6|2,1:2|0:0,0:0:0:0:
380,289,135671,1,2,1:2:0:0:
286,246,135840,2,0,P|214:256|143:267,1,144.500002756119,10|2,0:0|0:0,0:0:0:0:
54,145,136349,6,0,P|61:180|68:215,1,72.2500013780594,2|0,0:0|0:0,0:0:0:0:
139,99,136688,1,0,3:3:0:0:
2,23,136857,1,8,0:3:0:0:
17,13,136941,1,8,0:3:0:0:
34,8,137026,1,4,0:3:0:0:
52,7,137111,1,4,0:3:0:0:
69,12,137195,5,6,1:2:0:0:
230,159,137422,5,6,1:2:0:0:
208,28,137648,5,6,1:2:0:0:
318,144,137874,6,0,P|389:132|460:121,1,144.500002756119,6|0,1:2|1:2,0:0:0:0:
512,202,138383,1,0,1:2:0:0:
439,266,138552,2,0,P|387:262|346:295,1,108.375002067089,8|0,0:0|0:0,0:0:0:0:
335,374,138891,1,6,0:0:0:0:
189,261,139061,6,0,P|224:267|259:276,1,72.2500013780594,6|0,1:2|1:2,0:0:0:0:
126,334,139400,1,8,0:0:0:0:
72,191,139569,1,0,1:2:0:0:
218,131,139739,1,2,1:2:0:0:
214,148,139823,1,0,1:2:0:0:
210,166,139908,1,8,0:3:0:0:
356,109,140078,1,4,0:3:0:0:
244,37,140247,1,0,1:2:0:0:
125,100,140417,1,6,1:2:0:0:
125,100,140756,5,8,0:0:0:0:
210,166,140925,1,8,0:0:0:0:
244,37,141095,1,8,0:0:0:0:
25,34,141264,1,8,0:0:0:0:
154,242,141434,1,8,0:0:0:0:
326,30,141603,1,10,0:0:0:0:
125,100,141773,1,10,0:0:0:0:
275,302,141942,5,8,0:3:0:0:
296,299,142026,1,8,0:3:0:0:
317,296,142111,1,4,0:3:0:0:
338,293,142196,1,0,1:2:0:0:
359,290,142281,2,0,L|401:284,1,42.5,4|4,0:3|0:3,0:0:0:0:
465,177,142451,2,0,L|507:171,1,42.5,0|0,1:2|1:2,0:0:0:0:
326,30,142620,5,14,0:0:0:0:
486,1,142790,1,8,0:0:0:0:
344,133,142959,5,8,0:3:0:0:
302,136,143043,1,8,0:3:0:0:
262,121,143128,1,4,0:3:0:0:
234,90,143213,1,4,0:3:0:0:
223,49,143297,1,6,1:2:0:0:
223,49,153468,5,0,1:2:0:0:
407,15,153637,1,4,0:3:0:0:
344,133,153807,1,0,1:2:0:0:
313,42,153976,1,8,0:0:0:0:
453,118,154146,5,6,1:2:0:0:
372,220,154315,1,2,0:0:0:0:
372,220,154485,2,0,P|378:255|384:291,1,72.2500013780594,10|2,0:0|0:0,0:0:0:0:
504,377,154824,1,2,1:2:0:0:
482,292,154993,1,8,0:0:0:0:
360,374,155162,2,0,P|325:377|294:359,1,72.2500013780594,2|2,1:2|0:0,0:0:0:0:
267,170,155501,6,0,P|260:205|254:241,1,72.2500013780594,2|2,1:2|0:0,0:0:0:0:
151,294,155840,2,0,P|97:301|43:310,1,108.375002067089,10|0,0:0|0:0,0:0:0:0:
0,246,156179,1,2,1:2:0:0:
106,177,156349,1,10,0:0:0:0:
34,111,156518,1,2,1:2:0:0:
137,23,156688,1,8,0:0:0:0:
137,23,156773,1,8,0:0:0:0:
136,23,156857,6,0,P|171:28|207:35,1,72.2500013780594,0|2,1:2|0:0,0:0:0:0:
271,83,157112,1,8,0:0:0:0:
271,83,157196,2,0,P|306:77|342:70,1,72.2500013780594,2|2,1:2|0:0,0:0:0:0:
505,38,157535,1,2,1:2:0:0:
415,2,157705,1,8,0:0:0:0:
390,140,157874,2,0,P|384:175|379:211,1,72.2500013780594,2|2,1:2|0:0,0:0:0:0:
265,312,158213,6,0,P|259:276|254:240,1,72.2500013780594,2|2,1:2|0:0,0:0:0:0:
196,196,158468,1,8,0:0:0:0:
196,196,158552,2,0,P|144:185|98:213,1,108.375002067089,10|0,0:0|0:0,0:0:0:0:
88,291,158891,1,2,1:2:0:0:
200,384,159061,2,0,L|194:348,1,36.1250006890297,8|8,0:0|0:0,0:0:0:0:
265,312,159230,5,8,0:3:0:0:
290,315,159314,1,8,0:3:0:0:
315,319,159399,1,4,0:3:0:0:
340,323,159484,1,4,0:3:0:0:
365,326,159568,1,6,1:2:0:0:
512,283,159908,5,10,0:0:0:0:
378,211,160078,1,10,0:0:0:0:
365,326,160247,1,10,0:0:0:0:
498,186,160417,1,8,0:0:0:0:
305,141,160586,1,10,0:0:0:0:
265,312,160756,1,8,0:0:0:0:
447,122,160925,5,8,0:0:0:0:
447,332,161095,1,10,0:0:0:0:
233,215,161264,1,10,0:0:0:0:
388,64,161434,1,10,0:0:0:0:
265,312,161603,1,10,0:0:0:0:
83,144,161773,1,8,0:0:0:0:
288,23,161942,5,10,0:0:0:0:
292,53,162026,1,8,0:0:0:0:
296,82,162111,1,10,0:0:0:0:
301,112,162196,1,8,0:0:0:0:
305,141,162281,5,14,0:0:0:0:
45,249,162451,1,0,1:2:0:0:
83,144,162620,1,0,1:2:0:0:
192,368,162790,5,14,0:0:0:0:
305,141,162959,1,0,1:2:0:0:
353,240,163129,1,0,1:2:0:0:
192,64,163298,5,14,0:0:0:0:
193,254,163468,1,0,1:2:0:0:
463,84,163637,5,6,1:2:0:0:
459,63,163721,1,0,1:2:0:0:
456,42,163806,1,8,0:0:0:0:
490,230,163976,5,8,0:0:0:0:
493,250,164060,1,8,0:0:0:0:
496,271,164145,1,8,0:0:0:0:
500,292,164230,1,8,0:0:0:0:
503,313,164315,5,8,0:0:0:0:
301,227,164485,1,0,1:2:0:0:
390,160,164654,1,10,0:0:0:0:
301,227,164993,5,6,1:2:0:0:
301,227,175840,6,0,P|310:159|321:92,2,136,6|2|2,1:2|1:2|1:2,0:0:0:0:
285,320,176857,1,2,1:2:0:0:
180,263,177196,6,0,P|114:269|68:317,1,136,2|2,1:2|1:2,0:0:0:0:
20,229,177874,2,0,P|10:161|0:94,1,136,2|2,1:2|1:2,0:0:0:0:
89,11,178552,5,2,1:2:0:0:
178,58,178891,2,0,B|223:65|223:65|258:92|258:92|303:99,2,136,2|2|2,1:2|1:2|1:2,0:0:0:0:
115,165,179908,5,0,1:2:0:0:
188,224,180247,1,0,1:2:0:0:
270,178,180586,2,0,P|335:194|401:210,1,136,2|2,1:2|1:2,0:0:0:0:
512,156,181264,5,6,1:2:0:0:
512,156,181603,1,8,0:0:0:0:
364,104,181773,1,8,0:0:0:0:
489,235,181942,1,10,0:0:0:0:
505,68,182112,1,8,0:0:0:0:
304,185,182281,1,10,0:0:0:0:
426,308,182451,1,8,0:0:0:0:
364,104,182620,5,8,0:0:0:0:
489,235,182790,1,8,0:0:0:0:
278,328,182959,1,10,0:0:0:0:
221,123,183129,1,8,0:0:0:0:
421,37,183298,1,10,0:0:0:0:
304,185,183468,1,8,0:0:0:0:
138,59,183637,5,10,0:0:0:0:
108,64,183721,1,8,0:0:0:0:
79,69,183806,1,0,1:2:0:0:
50,74,183891,1,0,1:2:0:0:
20,80,183976,5,14,0:0:0:0:
180,273,184146,1,0,1:2:0:0:
284,53,184315,1,2,1:2:0:0:
32,176,184485,5,14,0:0:0:0:
265,248,184654,1,2,1:2:0:0:
138,59,184824,1,0,1:2:0:0:
93,298,184993,5,14,0:0:0:0:
212,105,185162,1,0,1:2:0:0:
324,319,185332,1,0,1:2:0:0:
113,211,185501,5,14,0:0:0:0:
359,104,185671,1,14,0:0:0:0:
397,255,185840,1,0,1:2:0:0:
212,105,186010,1,8,0:0:0:0:
435,1,186179,5,8,0:0:0:0:
442,42,186263,1,8,0:0:0:0:
449,84,186348,1,10,0:0:0:0:
456,126,186433,1,8,0:0:0:0:
463,168,186518,2,0,L|469:210,1,42.5,8|0,0:0|0:0,0:0:0:0:
512,280,186688,5,2,0:0:0:0:
213,356,187027,6,0,P|257:306|323:318,1,140.25000428009,14|0,0:0|0:0,0:0:0:0:
390,277,187366,2,0,P|383:230|376:184,1,93.5000028533936,2|0,1:2|0:0,0:0:0:0:
196,22,187705,6,0,P|143:64|141:132,1,140.25000428009,10|0,0:0|0:0,0:0:0:0:
91,194,188044,2,0,P|45:184|0:176,1,93.5000028533936,2|0,1:2|0:0,0:0:0:0:
213,356,188383,6,0,P|220:286|228:216,1,140.25000428009,10|0,0:0|0:0,0:0:0:0:
281,158,188722,2,0,P|327:154|363:182,1,93.5000028533936,2|0,1:2|0:0,0:0:0:0:
106,335,189061,2,0,P|98:265|90:195,1,140.25000428009,10|0,0:0|0:0,0:0:0:0:
45,131,189400,6,0,P|50:84|55:38,1,93.5000028533936,2|0,1:2|0:0,0:0:0:0:
165,178,189739,1,10,0:0:0:0:
310,16,189908,2,0,P|263:21|217:26,1,93.5000028533936,2|0,0:0|1:2,0:0:0:0:
363,182,190247,1,2,0:0:0:0:
493,43,190417,2,0,P|500:112|508:182,1,140.25000428009,10|0,0:0|0:0,0:0:0:0:
468,251,190756,6,0,B|379:223|379:223|339:259|292:251,2,187.000005706787,0|8|2,1:2|0:0|1:2,0:0:0:0:
330,334,191603,1,0,1:2:0:0:
307,155,191773,1,10,0:0:0:0:
330,334,191942,6,0,B|233:365|246:287|151:309,1,187.000005706787,6|0,1:2|0:0,0:0:0:0:
0,42,192451,6,0,P|9:111|17:181,1,140.25000428009,14|0,0:0|0:0,0:0:0:0:
75,235,192790,2,0,P|120:225|166:215,1,93.5000028533936,2|0,1:2|0:0,0:0:0:0:
411,23,193129,6,0,B|360:31|360:31|339:55|339:55|284:65,1,140.25000428009,10|0,0:0|0:0,0:0:0:0:
216,22,193468,2,0,P|202:65|217:109,1,93.5000028533936,0|0,1:2|0:0,0:0:0:0:
467,258,193807,6,0,P|456:212|444:167,1,93.5000028533936,10|0,0:0|0:0,0:0:0:0:
275,300,194146,2,0,P|205:293|135:287,1,140.25000428009,2|0,1:2|0:0,0:0:0:0:
75,235,194485,2,0,P|85:189|97:144,1,93.5000028533936,10|0,0:0|0:0,0:0:0:0:
52,80,194824,5,14,0:0:0:0:
283,65,194993,1,0,1:2:0:0:
160,211,195162,1,0,1:2:0:0:
128,3,195332,5,14,0:0:0:0:
314,172,195501,1,0,1:2:0:0:
97,144,195671,1,10,0:0:0:0:
396,0,195840,6,0,P|414:91|432:183,1,187.000005706787,6|0,1:2|0:0,0:0:0:0:
273,346,196349,1,0,1:2:0:0:
277,323,196433,1,0,1:2:0:0:
282,300,196518,1,14,0:0:0:0:
456,304,196688,1,0,1:2:0:0:
314,172,196857,5,8,0:0:0:0:
292,162,196941,1,8,0:0:0:0:
269,161,197026,1,8,0:0:0:0:
247,167,197111,1,8,0:0:0:0:
228,180,197195,1,10,0:0:0:0:
46,367,197366,5,8,0:0:0:0:
46,367,197451,1,8,0:0:0:0:
46,367,197535,2,0,B|24:295|81:305|67:233,1,140.25000428009,6|0,1:2|0:0,0:0:0:0:
107,166,197874,2,0,P|152:154|195:171,1,93.5000028533936,10|0,0:0|0:0,0:0:0:0:
457,9,198213,6,0,P|388:22|319:37,1,140.25000428009,2|0,1:2|0:0,0:0:0:0:
245,58,198552,2,0,P|199:48|153:38,1,93.5000028533936,10|0,0:0|0:0,0:0:0:0:
346,283,198891,6,0,P|361:217|313:171,1,140.25000428009,2|0,1:2|0:0,0:0:0:0:
242,204,199230,2,0,P|252:273|263:342,1,140.25000428009,10|0,0:0|0:0,0:0:0:0:
195,384,199569,2,0,P|149:375|103:366,1,93.5000028533936,2|0,1:2|0:0,0:0:0:0:
153,126,199908,6,0,P|110:177|43:170,1,140.25000428009,10|0,0:0|0:0,0:0:0:0:
16,100,200247,2,0,P|8:53|1:7,1,93.5000028533936,2|0,1:2|0:0,0:0:0:0:
245,58,200586,6,0,P|287:109|354:102,1,140.25000428009,10|0,0:0|0:0,0:0:0:0:
420,57,200925,2,0,P|436:99|421:143,1,93.5000028533936,2|0,1:2|0:0,0:0:0:0:
206,295,201264,2,0,P|275:288|345:282,1,140.25000428009,10|0,0:0|0:0,0:0:0:0:
402,225,201603,6,0,P|417:313|343:362,2,187.000005706787,0|8|2,1:2|0:0|1:2,0:0:0:0:
345,282,202451,1,0,1:2:0:0:
512,352,202620,1,10,0:0:0:0:
345,282,202790,6,0,P|252:290|159:299,1,187.000005706787,6|0,1:2|0:0,0:0:0:0:
11,62,203298,6,0,P|77:48|124:96,1,140.25000428009,14|0,0:0|0:0,0:0:0:0:
92,168,203637,2,0,P|46:176|0:183,1,93.5000028533936,2|0,1:2|0:0,0:0:0:0:
245,210,203976,6,0,P|253:140|261:70,1,140.25000428009,10|0,0:0|0:0,0:0:0:0:
316,15,204315,2,0,P|363:15|400:41,1,93.5000028533936,0|0,1:2|0:0,0:0:0:0:
484,269,204654,6,0,P|414:274|344:281,1,140.25000428009,10|0,0:0|0:0,0:0:0:0:
283,330,204993,2,0,P|216:324|184:265,1,140.25000428009,2|0,1:2|0:0,0:0:0:0:
130,209,205332,2,0,P|84:218|38:228,1,93.5000028533936,10|0,0:0|0:0,0:0:0:0:
196,68,205671,6,0,P|264:82|333:97,1,140.25000428009,6|0,1:2|0:0,0:0:0:0:
396,143,206010,2,0,P|406:212|415:282,1,140.25000428009,14|0,0:0|0:0,0:0:0:0:
376,352,206349,1,0,1:2:0:0:
267,249,206518,1,0,1:2:0:0:
490,207,206688,1,8,0:0:0:0:
467,349,206857,1,6,1:2:0:0:
316,180,207027,1,6,1:2:0:0:
316,180,207366,5,8,0:0:0:0:
460,90,207535,1,8,0:0:0:0:
482,95,207619,1,8,0:0:0:0:
505,101,207704,1,8,0:0:0:0:
271,52,207874,1,8,0:3:0:0:
340,0,208044,1,4,0:3:0:0:
396,143,208213,1,0,1:2:0:0:
256,271,208383,6,0,P|237:201|219:131,1,144.500002756119,6|2,1:2|0:0,0:0:0:0:
140,86,208891,1,2,1:2:0:0:
45,163,209061,2,0,P|114:167|150:227,1,144.500002756119,10|2,0:0|0:0,0:0:0:0:
19,372,209569,6,0,P|11:336|2:301,1,72.2500013780594,2|0,1:2|1:2,0:0:0:0:
88,282,209908,2,0,P|95:317|104:352,1,72.2500013780594,2|0,0:0|0:0,0:0:0:0:
150,227,210247,1,2,1:2:0:0:
239,320,210417,2,0,B|287:327|287:327|322:353|322:353|373:360,1,144.500002756119,10|2,0:0|0:0,0:0:0:0:
472,234,211095,6,0,P|406:214|359:264,1,144.500002756119,6|2,1:2|0:0,0:0:0:0:
280,241,211603,1,2,1:2:0:0:
319,157,211773,2,0,P|326:85|334:13,1,144.500002756119,10|2,0:0|0:0,0:0:0:0:
224,75,212281,6,0,B|152:97|157:43|84:60,1,144.500002756119,2|10,0:0|0:0,0:0:0:0:
17,172,212959,1,0,1:2:0:0:
150,340,213129,5,6,1:2:0:0:
95,228,213355,5,6,1:2:0:0:
18,329,213581,5,6,1:2:0:0:
237,202,213807,6,0,P|166:215|94:227,1,144.500002756119,6|0,1:2|1:2,0:0:0:0:
17,172,214315,1,0,1:2:0:0:
74,96,214485,2,0,P|125:107|163:72,1,108.375002067089,8|0,0:0|0:0,0:0:0:0:
199,0,214824,1,6,0:0:0:0:
318,92,214993,6,0,P|282:86|246:83,1,72.2500013780594,6|0,1:2|1:2,0:0:0:0:
386,22,215332,1,8,0:0:0:0:
434,166,215501,1,0,1:2:0:0:
340,227,215671,1,2,1:2:0:0:
336,209,215755,1,0,1:2:0:0:
333,191,215840,1,8,0:3:0:0:
362,337,216010,1,4,0:3:0:0:
424,255,216179,1,0,1:2:0:0:
264,336,216349,1,6,1:2:0:0:
264,336,216688,5,8,0:0:0:0:
200,248,216857,1,8,0:0:0:0:
333,191,217027,1,8,0:0:0:0:
362,337,217196,1,8,0:0:0:0:
232,140,217366,1,8,0:0:0:0:
481,29,217535,1,10,0:0:0:0:
412,172,217705,1,10,0:0:0:0:
194,55,217874,5,2,1:2:0:0:
151,60,217958,1,0,1:2:0:0:
109,66,218043,1,0,1:2:0:0:
67,71,218128,1,0,1:2:0:0:
25,77,218213,2,0,L|18:118,1,42.5,10|0,0:0|0:0,0:0:0:0:
58,187,218383,1,2,1:2:0:0:
256,192,219230,12,0,220417,0:0:0:0:
256,192,220586,5,6,1:2:0:0:
256,192,220925,5,6,1:2:0:0:
256,192,221264,5,8,0:3:0:0:
280,221,221348,1,8,0:3:0:0:
315,235,221433,1,4,0:3:0:0:
353,231,221518,1,4,0:3:0:0:
384,210,221603,2,0,L|421:216,1,38.2499988327027,8|8,0:0|0:0,0:0:0:0:
475,135,221773,2,0,L|512:128,1,38.2499988327027,8|8,0:0|0:0,0:0:0:0:
337,98,221942,5,6,1:2:0:0:
401,0,222112,2,0,P|407:39|415:79,1,80.7499978437424,2|8,0:0|0:0,0:0:0:0:
268,31,222451,1,2,0:0:0:0:
137,98,222620,2,0,P|176:104|216:113,1,80.7499978437424,2|2,1:2|0:0,0:0:0:0:
41,17,222959,1,10,0:0:0:0:
0,217,223129,6,0,P|12:179|4:140,1,80.7499978437424,2|0,0:0|1:2,0:0:0:0:
122,223,223468,1,2,0:0:0:0:
65,313,223637,2,0,P|104:319|144:325,1,80.7499978437424,10|0,0:0|0:0,0:0:0:0:
297,369,223976,1,2,1:2:0:0:
271,255,224146,1,2,0:0:0:0:
297,369,224315,1,10,0:0:0:0:
271,255,224485,1,2,0:0:0:0:
407,350,224654,5,2,1:2:0:0:
481,258,224824,2,0,P|441:252|404:268,1,80.7499978437424,2|8,0:0|0:0,0:0:0:0:
271,255,225162,1,2,0:0:0:0:
325,118,225332,2,0,P|333:157|339:197,1,80.7499978437424,2|2,1:2|0:0,0:0:0:0:
449,99,225671,1,10,0:0:0:0:
309,38,225840,6,0,P|269:41|236:64,1,80.7499978437424,2|0,0:0|1:2,0:0:0:0:
207,155,226179,1,2,0:0:0:0:
65,70,226349,2,0,P|104:77|144:86,1,80.7499978437424,14|0,0:0|0:0,0:0:0:0:
309,38,226688,1,2,1:2:0:0:
207,155,226857,1,10,0:0:0:0:
130,0,227027,1,6,1:2:0:0:
11,145,227196,1,10,0:0:0:0:
11,145,227281,1,8,0:0:0:0:
11,145,227366,6,0,P|17:205|23:265,1,121.124996765614,6|0,1:2|0:0,0:0:0:0:
76,321,227705,2,0,P|133:326|168:280,1,121.124996765614,14|0,0:0|0:0,0:0:0:0:
233,233,228044,2,0,P|272:239|312:248,1,80.7499978437424,2|2,1:2|0:0,0:0:0:0:
396,327,228383,1,10,0:0:0:0:
488,207,228552,6,0,P|477:246|466:284,1,80.7499978437424,2|0,0:0|1:2,0:0:0:0:
386,181,228891,1,2,0:0:0:0:
433,52,229061,2,0,P|443:91|454:129,1,80.7499978437424,10|0,0:0|0:0,0:0:0:0:
246,51,229400,1,2,1:2:0:0:
343,7,229569,1,2,0:0:0:0:
246,51,229739,1,10,0:0:0:0:
343,7,229908,1,2,0:0:0:0:
303,143,230078,6,0,P|236:135|170:126,1,133.874995914459,2|0,1:2|0:0,0:0:0:0:
123,62,230417,2,0,P|90:119|110:181,1,133.874995914459,14|0,0:0|0:0,0:0:0:0:
81,256,230756,1,2,1:2:0:0:
81,256,230925,1,2,1:2:0:0:
221,329,231095,2,0,P|287:321|353:312,1,133.874995914459,14|0,0:0|0:0,0:0:0:0:
411,260,231434,5,8,0:0:0:0:
413,237,231518,1,8,0:0:0:0:
416,215,231603,1,0,1:2:0:0:
419,193,231688,1,0,1:2:0:0:
422,171,231773,2,0,L|425:130,1,40.3749989218712,8|8,0:3|0:3,0:0:0:0:
347,51,231942,2,0,L|342:10,1,40.3749989218712,4|4,0:3|0:3,0:0:0:0:
303,143,232112,5,8,0:0:0:0:
440,43,232281,1,8,0:0:0:0:
462,45,232365,1,8,0:0:0:0:
484,47,232450,1,8,0:0:0:0:
248,22,232620,1,8,0:0:0:0:
225,19,232704,1,8,0:0:0:0:
203,17,232789,5,6,1:2:0:0:
116,118,232959,2,0,P|158:123|200:129,1,85,2|14,0:0|0:0,0:0:0:0:
14,49,233298,1,2,0:0:0:0:
0,205,233468,2,0,P|42:199|84:193,1,85,2|2,1:2|0:0,0:0:0:0:
277,245,233807,1,14,0:0:0:0:
182,339,233976,6,0,P|176:296|171:254,1,85,2|0,0:0|1:2,0:0:0:0:
303,143,234315,1,2,0:0:0:0:
411,260,234485,2,0,P|451:269|490:254,1,85,14|0,0:0|0:0,0:0:0:0:
376,57,234824,1,2,1:2:0:0:
512,94,234993,1,2,0:0:0:0:
376,57,235162,1,14,0:0:0:0:
512,94,235331,1,2,0:0:0:0:
303,143,235501,5,2,1:2:0:0:
205,5,235671,2,0,P|210:47|215:89,1,85,2|14,0:0|0:0,0:0:0:0:
171,254,236010,1,2,0:0:0:0:
31,107,236179,2,0,P|73:112|115:117,1,85,2|2,1:2|0:0,0:0:0:0:
277,245,236518,1,14,0:0:0:0:
182,339,236688,1,2,0:0:0:0:
220,186,236857,5,0,1:2:0:0:
357,327,237027,1,10,0:0:0:0:
445,179,237196,1,2,1:2:0:0:
303,143,237366,1,8,0:0:0:0:
361,220,237535,1,2,1:2:0:0:
182,339,237705,5,10,0:0:0:0:
160,336,237789,1,8,0:0:0:0:
139,334,237874,1,8,0:3:0:0:
118,331,237959,1,8,0:3:0:0:
97,329,238044,2,0,L|54:324,1,42.5,4|4,0:3|0:3,0:0:0:0:
0,271,238213,6,0,P|13:208|26:146,1,127.5,6|0,1:2|0:0,0:0:0:0:
83,91,238552,2,0,P|144:102|176:155,1,127.5,14|0,0:0|0:0,0:0:0:0:
137,225,238891,2,0,P|178:233|218:222,1,85,2|2,1:2|0:0,0:0:0:0:
388,108,239230,1,14,0:0:0:0:
288,59,239400,6,0,P|295:100|302:142,1,85,2|0,0:0|1:2,0:0:0:0:
357,327,239739,1,2,0:0:0:0:
509,243,239908,2,0,P|468:235|433:259,1,85,14|0,0:0|0:0,0:0:0:0:
151,158,240247,1,2,1:2:0:0:
302,142,240417,1,2,0:0:0:0:
151,158,240586,1,14,0:0:0:0:
302,142,240756,1,2,1:2:0:0:
87,53,240925,5,14,0:0:0:0:
113,287,241095,1,8,0:3:0:0:
115,309,241179,1,4,0:3:0:0:
118,331,241264,1,0,1:2:0:0:
229,81,241434,5,8,0:0:0:0:
368,227,241603,1,8,0:3:0:0:
398,231,241687,1,8,0:3:0:0:
428,223,241772,1,4,0:3:0:0:
452,203,241857,1,4,0:3:0:0:
467,176,241942,2,0,P|459:131|451:88,1,89.2499972763062,14|2,0:0|0:0,0:0:0:0:
245,225,242281,5,10,0:0:0:0:
357,327,242451,1,10,0:0:0:0:
382,150,242620,1,10,0:0:0:0:
161,219,242790,1,10,0:0:0:0:
282,357,242959,1,10,0:0:0:0:
320,78,243129,1,10,0:0:0:0:
55,208,243298,1,10,0:0:0:0:
204,346,243468,1,8,0:0:0:0:
245,225,243637,5,6,1:2:0:0:
256,192,243722,12,0,247705,0:0:0:0:
