osu file format v14

[General]
AudioFilename: audio.mp3
AudioLeadIn: 0
PreviewTime: 164575
Countdown: 0
SampleSet: Soft
StackLeniency: 0.7
Mode: 0
LetterboxInBreaks: 0
WidescreenStoryboard: 0

[Editor]
Bookmarks: 211088,226003,243630
DistanceSpacing: 1.5
BeatDivisor: 4
GridSize: 32
TimelineZoom: 1

[Metadata]
Title:LEVEL
TitleUnicode:LEVEL <やなぎなぎ ver.>
Artist:yanaginagi x THE SIXTH LIE
ArtistUnicode:やなぎなぎ×THE SIXTH LIE
Creator:Erisu
Version:Insane
Source:天才王子の赤字国家再生術
Tags:The Genius Gaia Guide to Raising a Nation Out of Debt Hey, How About Treason? Tensai Ouji no Akaji Kokka Saisei Jutsu anime opening japanese pop full ver version lanzhu mayuzumi fuyuko ninym thicc thighs Prince's
BeatmapID:3571343
BeatmapSetID:1745954

[Difficulty]
HPDrainRate:5
CircleSize:3.8
OverallDifficulty:8
ApproachRate:9
SliderMultiplier:1.7
SliderTickRate:1

[Events]
//Background and Video events
0,0,"ninym.jpg",0,0
//Break Periods
2,78419,88467
2,165199,175246
//Storyboard Layer 0 (Background)
//Storyboard Layer 1 (Fail)
//Storyboard Layer 2 (Pass)
//Storyboard Layer 3 (Foreground)
//Storyboard Layer 4 (Overlay)
//Storyboard Sound Samples

[TimingPoints]
1727,344.827586206897,4,2,1,50,1,0
1727,-142.857142857143,4,2,1,50,0,0
12244,-111.111111111111,4,2,1,50,0,0
12416,-166.666666666667,4,2,1,50,0,0
12761,-125,4,2,1,60,0,0
22071,-90.9090909090909,4,2,1,60,0,0
23795,-142.857142857143,4,2,1,50,0,0
25864,-142.857142857143,4,2,1,30,0,0
25951,-142.857142857143,4,2,1,50,0,0
29140,-83.3333333333333,4,2,1,50,0,0
29313,-111.111111111111,4,2,1,50,0,0
32416,-111.111111111111,4,2,1,40,0,0
32761,-111.111111111111,4,2,1,50,0,0
33106,-111.111111111111,4,2,1,60,0,0
34485,-249.999999999999,4,2,1,60,0,0
34830,338.983050847458,4,2,1,70,1,0
34830,-100,4,2,1,70,0,0
42965,-83.3333333333333,4,2,1,70,0,0
45677,-100,4,2,1,70,0,0
56524,-100,4,2,1,60,0,0
61270,-90.9090909090909,4,2,1,60,0,0
61948,-100,4,2,1,60,0,0
64830,-100,4,2,1,40,0,0
65168,-100,4,2,1,50,0,0
65507,-100,4,2,1,60,0,0
66016,-100,4,2,1,70,0,0
66524,-333.333333333333,4,2,1,70,0,0
67372,-111.111111111111,4,2,1,70,0,0
73813,-111.111111111111,4,2,1,70,0,0
75507,-90.9090909090909,4,2,1,70,0,0
77541,-333.333333333332,4,2,1,70,0,0
78219,-1000,4,2,1,40,0,0
78982,-1000,4,2,1,10,0,0
79914,-1000,4,2,1,40,0,0
81694,-1000,4,2,1,10,0,0
82287,-1000,4,2,1,40,0,0
84406,-1000,4,2,1,10,0,0
85338,-1000,4,2,1,40,0,0
87118,-1000,4,2,1,10,0,0
88050,-1000,4,2,1,40,0,0
89067,-142.857142857143,4,2,1,40,0,0
99914,-125,4,2,1,50,0,0
101609,-125,4,2,1,30,0,0
101694,-125,4,2,1,50,0,0
103982,-100,4,2,1,50,0,0
105338,-125,4,2,1,50,0,0
108389,-125,4,2,1,40,0,0
108728,-125,4,2,1,50,0,0
109067,-125,4,2,1,60,0,0
109745,-76.9230769230769,4,2,1,60,0,0
110762,-100,4,2,1,70,0,0
116524,-90.9090909090909,4,2,1,70,0,0
116863,-100,4,2,1,70,0,0
118897,-83.3333333333333,4,2,1,70,0,0
119914,-100,4,2,1,70,0,0
121609,-100,4,2,1,70,0,0
127372,-90.9090909090909,4,2,1,70,0,0
127711,-100,4,2,1,70,0,0
132457,-111.111111111111,4,2,1,60,0,0
137201,-90.9090909090909,4,2,1,60,0,0
137654,-90.9090909090909,4,2,1,60,0,0
137880,-111.111111111111,4,2,1,60,0,0
140762,-111.111111111111,4,2,1,40,0,0
141100,-111.111111111111,4,2,1,50,0,0
141439,-111.111111111111,4,2,1,60,0,0
141948,-111.111111111111,4,2,1,70,0,0
143304,-111.111111111111,4,2,1,60,0,0
154491,-111.111111111111,4,2,1,60,0,0
159575,-125,4,2,1,60,0,0
159745,-125,4,2,1,40,0,0
160253,-100,4,2,1,40,0,0
160931,-125,4,2,1,50,0,0
161609,-90.9090909090909,4,2,1,60,0,0
162287,-83.3333333333333,4,2,1,70,0,0
164830,-62.5,4,2,1,50,0,0
175846,-125,4,2,1,50,0,0
181609,-125,4,2,1,30,0,0
181948,-125,4,2,1,40,0,0
182287,-125,4,2,1,50,0,0
182626,-125,4,2,1,60,0,0
183304,-125,4,2,1,70,0,0
183982,-76.9230769230769,4,2,1,70,0,0
186694,-200,4,2,1,30,0,0
187033,-71.4285714285714,4,2,1,70,0,0
187372,-100,4,2,1,70,0,0
192457,-90.9090909090909,4,2,1,70,0,0
192796,-100,4,2,1,70,0,0
194830,-76.9230769230769,4,2,1,70,0,0
195846,-100,4,2,1,70,0,0
196694,-76.9230769230769,4,2,1,70,0,0
197541,-100,4,2,1,70,0,0
208389,-100,4,2,1,60,0,0
213135,-90.9090909090909,4,2,1,60,0,0
213587,-90.9090909090909,4,2,1,60,0,0
213813,-100,4,2,1,60,0,0
216694,-100,4,2,1,40,0,0
217032,-100,4,2,1,50,0,0
217371,-100,4,2,1,60,0,0
217880,-100,4,2,1,70,0,0
218219,-83.3333333333333,4,2,1,70,0,0
220423,-83.3333333333333,4,2,1,5,0,0
220592,-83.3333333333333,4,2,1,70,0,0
221948,-100,4,2,1,70,0,0
227711,-100,4,2,1,70,0,0
232796,-100,4,2,1,70,0,0
238219,-166.666666666667,4,2,1,70,0,0
238558,-100,4,2,1,70,0,0
243728,-76.9230769230769,4,2,1,40,0,0
244999,-76.9230769230769,4,2,1,30,0,0
246355,-76.9230769230769,4,2,1,20,0,0
247711,-76.9230769230769,4,2,1,10,0,0

[Colours]
Combo1 : 216,166,133
Combo2 : 138,244,205
Combo3 : 116,173,237
Combo4 : 245,221,137

[HitObjects]
44,81,1727,5,6,3:2:0:0:
111,119,1899,2,0,L|123:189,1,59.4999981842042,2|4,0:0|0:3,0:0:0:0:
30,350,2761,5,4,0:3:0:0:
85,291,2933,2,0,P|145:287|199:342,1,118.999996368408,2|2,0:0|0:0,0:0:0:0:
254,369,3451,2,0,L|328:357,1,59.4999981842042,4|0,0:3|0:0,0:0:0:0:
366,304,3795,2,0,L|440:316,1,59.4999981842042
493,354,4140,1,4,0:3:0:0:
326,125,4485,5,2,0:0:0:0:
260,169,4658,2,0,L|275:241,1,59.4999981842042,2|4,0:0|0:3,0:0:0:0:
483,82,5520,5,4,0:3:0:0:
428,26,5692,2,0,B|365:16|365:16|308:58,1,118.999996368408,2|2,0:0|0:0,0:0:0:0:
245,26,6209,2,0,L|236:91,1,59.4999981842042,4|0,0:3|0:0,0:0:0:0:
180,136,6554,2,0,L|189:201,1,59.4999981842042,0|4,0:0|0:3,0:0:0:0:
237,254,6899,1,2,0:1:0:0:
63,314,7244,5,2,0:2:0:0:
9,259,7416,2,0,L|20:180,1,59.4999981842042,2|4,0:0|0:3,0:0:0:0:
82,14,8278,5,4,0:3:0:0:
30,69,8451,2,0,L|169:58,1,118.999996368408,2|2,0:0|0:0,0:0:0:0:
219,21,8968,2,0,L|288:36,1,59.4999981842042,4|0,0:3|0:0,0:0:0:0:
327,95,9313,2,0,L|396:80,1,59.4999981842042
442,34,9658,1,4,0:3:0:0:
479,225,10002,5,2,0:0:0:0:
411,187,10175,2,0,P|381:188|353:207,1,59.4999981842042,2|4,0:0|0:3,0:0:0:0:
196,315,11037,5,4,0:3:0:0:
145,262,11209,2,0,L|290:280,1,118.999996368408,2|2,0:0|0:0,0:0:0:0:
321,329,11727,1,4,0:3:0:0:
21,140,12244,5,4,0:3:0:0:
21,140,12330,1,4,0:3:0:0:
21,140,12416,2,0,L|38:234,1,76.4999976654053,2|0,0:1|0:0,0:0:0:0:
44,237,12761,5,4,3:2:0:0:
44,237,12933,1,0,3:2:0:0:
143,153,13106,2,0,P|178:154|220:185,1,68,10|2,0:0|0:0,0:0:0:0:
343,252,13451,2,0,P|313:267|279:268,1,68,2|0,0:0|0:0,0:0:0:0:
354,157,13795,1,8,0:0:0:0:
450,290,13968,6,0,P|455:231|466:132,1,136,2|2,3:2|3:2,0:0:0:0:
375,10,14485,1,8,0:0:0:0:
331,88,14658,1,2,0:0:0:0:
500,36,14830,1,2,0:0:0:0:
429,82,15002,1,2,3:2:0:0:
282,21,15175,2,0,P|227:17|177:60,1,102,8|0,0:0|0:0,0:0:0:0:
134,100,15520,5,2,3:2:0:0:
134,100,15692,1,0,3:2:0:0:
31,37,15864,2,0,P|41:74|47:116,1,68,8|2,0:0|0:0,0:0:0:0:
141,181,16209,2,0,P|130:218|125:260,1,68,2|2,0:0|0:0,0:0:0:0:
46,195,16554,1,8,0:0:0:0:
228,139,16727,6,0,B|305:133|282:184|367:167,1,136,2|2,3:2|3:2,0:0:0:0:
467,230,17244,2,0,P|428:236|372:257,1,68,8|2,0:0|0:0,0:0:0:0:
280,339,17589,2,0,P|319:345|375:366,1,68,0|2,0:0|3:2,0:0:0:0:
250,254,17933,2,0,P|195:264|167:331,1,102,10|0,0:0|0:0,0:0:0:0:
110,363,18278,5,2,3:2:0:0:
110,363,18451,1,0,3:2:0:0:
18,293,18623,2,0,P|22:261|31:213,1,68,10|2,0:0|0:0,0:0:0:0:
87,172,18968,1,2,0:0:0:0:
238,73,19313,1,8,0:0:0:0:
172,20,19485,6,0,P|102:26|61:84,1,136,2|2,3:2|3:2,0:0:0:0:
217,99,20002,2,0,P|247:102|303:112,1,68,8|2,0:0|0:0,0:0:0:0:
135,178,20347,2,0,P|139:214|144:262,1,68,2|2,0:0|3:2,0:0:0:0:
206,353,20692,2,0,P|256:363|310:317,1,102,8|0,0:0|0:0,0:0:0:0:
348,274,21037,6,0,P|381:271|421:293,1,68,2|0,3:2|3:2,0:0:0:0:
267,214,21382,2,0,P|247:186|246:141,1,68,8|2,0:0|0:0,0:0:0:0:
402,90,21727,2,0,P|398:123|379:151,1,68,2|2,0:0|3:2,0:0:0:0:
280,62,22071,1,12,0:0:0:0:
280,62,22416,5,4,3:1:0:0:
344,130,22589,1,0,3:2:0:0:
182,80,22761,1,8,0:0:0:0:
225,167,22933,1,0,3:2:0:0:
225,167,23020,1,0,3:2:0:0:
225,167,23106,2,0,P|214:210|207:262,1,93.5000028533936,8|8,0:0|0:3,0:0:0:0:
52,201,23451,2,0,P|41:128|24:59,1,140.25000428009,8|0,3:3|0:0,0:0:0:0:
96,26,23795,6,0,P|160:28|197:78,1,118.999996368408,6|0,3:2|3:2,0:0:0:0:
454,56,24485,2,0,P|413:97|356:96,1,118.999996368408,8|0,0:0|3:1,0:0:0:0:
286,17,25002,6,0,P|282:75|271:154,1,118.999996368408,2|8,3:2|0:0,0:0:0:0:
204,220,25520,1,2,0:1:0:0:
311,288,25692,1,0,3:0:0:0:
366,226,25864,2,0,L|438:243,1,59.4999981842042,14|0,0:1|0:0,0:0:0:0:
292,308,26209,2,0,L|220:325,1,59.4999981842042,0|2,3:0|0:0,0:0:0:0:
218,327,26468,1,2,0:0:0:0:
206,331,26554,6,0,P|185:279|219:206,1,118.999996368408,0|0,3:0|3:0,0:0:0:0:
64,199,27071,1,0,3:0:0:0:
64,199,27244,2,0,P|77:256|91:327,1,118.999996368408,8|0,0:0|3:0,0:0:0:0:
137,141,27761,1,2,3:2:0:0:
38,28,27933,1,8,0:0:0:0:
9,140,28106,1,2,3:2:0:0:
132,26,28278,2,0,P|164:32|202:42,1,59.4999981842042,2|8,3:1|0:0,0:0:0:0:
344,106,28623,2,0,P|315:113|285:118,1,59.4999981842042,4|8,0:1|0:0,0:0:0:0:
215,155,28968,2,0,L|225:208,2,29.7499990921021,8|8|0,0:0|0:3|3:2,0:0:0:0:
313,211,29313,6,0,P|304:265|294:369,1,152.999995330811,4|0,3:2|0:0,0:0:0:0:
428,370,29830,1,0,3:2:0:0:
428,370,30002,2,0,P|434:293|446:218,1,152.999995330811,8|2,0:0|0:0,0:0:0:0:
386,73,30520,2,0,P|393:110|404:160,1,76.4999976654053,2|0,3:2|3:2,0:0:0:0:
480,95,30864,1,8,0:0:0:0:
328,206,31037,6,0,B|231:214|277:159|159:172,1,152.999995330811,2|8,0:0|0:0,0:0:0:0:
20,124,31554,1,8,0:0:0:0:
141,48,31727,1,8,0:3:0:0:
35,16,31899,1,8,0:3:0:0:
31,142,32071,6,0,L|48:235,1,76.4999976654053,12|0,3:2|0:0,0:0:0:0:
92,348,32416,1,0,3:0:0:0:
162,310,32589,1,0,3:0:0:0:
307,358,32761,1,0,3:2:0:0:
268,294,32933,1,8,3:2:0:0:
426,229,33106,1,8,0:0:0:0:
389,300,33278,1,8,0:0:0:0:
261,217,33451,5,8,0:0:0:0:
261,217,33537,1,8,0:0:0:0:
261,217,33623,1,8,0:3:0:0:
261,217,33709,1,8,0:3:0:0:
261,217,33795,2,0,L|243:150,1,38.2499988327027,0|0,3:2|3:2,0:0:0:0:
314,133,33968,2,0,L|323:96,1,38.2499988327027,8|8,3:3|3:3,0:0:0:0:
305,18,34140,1,8,0:0:0:0:
481,239,34485,6,0,L|420:230,1,51,2|0,0:0|0:0,0:0:0:0:
403,207,34830,6,0,P|355:214|317:258,1,85,6|2,3:2|0:0,0:0:0:0:
213,162,35168,2,0,P|207:120|224:82,1,85,8|2,0:0|0:0,0:0:0:0:
78,210,35507,2,0,P|120:254|106:314,1,127.5,2|0,3:2|0:0,0:0:0:0:
38,357,35846,2,0,P|33:314|27:272,1,85,8|2,0:0|0:0,0:0:0:0:
45,71,36185,5,2,3:2:0:0:
123,142,36355,1,2,0:0:0:0:
26,166,36524,1,8,0:0:0:0:
158,253,36694,1,2,0:0:0:0:
158,253,36779,1,2,0:0:0:0:
158,253,36863,2,0,P|224:240|299:280,1,127.5,2|0,3:2|0:0,0:0:0:0:
278,261,37202,2,0,P|292:215|305:171,1,85,8|2,0:0|0:0,0:0:0:0:
462,71,37541,5,2,3:2:0:0:
407,125,37711,2,0,P|421:171|434:215,1,85,2|8,0:0|0:0,0:0:0:0:
222,56,38050,1,2,0:0:0:0:
284,8,38219,2,0,P|326:15|379:27,1,85,2|2,3:2|0:0,0:0:0:0:
260,200,38558,2,0,P|207:167|118:169,1,127.5,10|0,0:0|0:0,0:0:0:0:
71,112,38897,5,2,3:2:0:0:
13,225,39067,1,2,0:0:0:0:
161,321,39236,1,8,0:0:0:0:
136,227,39406,1,2,0:0:0:0:
47,352,39575,1,2,3:2:0:0:
47,352,39660,1,0,0:0:0:0:
47,352,39745,1,2,3:2:0:0:
216,246,39914,1,8,0:0:0:0:
13,225,40084,6,0,P|4:127|74:53,1,170,6|0,3:2|3:2,0:0:0:0:
194,117,40592,2,0,P|140:128|87:155,1,85,12|2,0:1|0:0,0:0:0:0:
253,27,40931,2,0,P|292:42|334:50,1,85,2|2,3:2|0:0,0:0:0:0:
464,108,41270,1,8,0:0:0:0:
391,186,41440,1,2,0:0:0:0:
316,151,41609,5,2,3:2:0:0:
464,108,41779,1,2,0:0:0:0:
485,214,41948,2,0,P|479:256|476:311,1,85,8|2,0:0|0:0,0:0:0:0:
426,365,42287,1,2,3:2:0:0:
118,268,42626,2,0,P|183:261|232:317,1,127.5,8|0,0:0|0:0,0:0:0:0:
277,359,42965,6,0,L|254:257,1,101.999996887207,12|0,0:0|3:2,0:0:0:0:
402,68,43304,1,0,3:2:0:0:
248,276,43474,6,0,L|271:174,1,101.999996887207,12|0,0:0|3:2,0:0:0:0:
120,0,43813,1,8,3:2:0:0:
281,187,43982,6,0,B|163:185|220:268|85:260,1,203.999993774414,4|0,3:2|0:0,0:0:0:0:
30,149,44491,1,0,3:0:0:0:
30,149,44575,1,0,3:0:0:0:
30,149,44660,2,0,L|84:158,2,50.9999984436036,12|0|0,0:0|0:0|3:0,0:0:0:0:
155,57,44999,2,0,L|176:121,1,50.9999984436036,12|8,0:1|0:0,0:0:0:0:
258,159,45168,2,0,L|274:111,1,50.9999984436036,8|8,0:0|0:0,0:0:0:0:
361,39,45338,1,8,3:3:0:0:
361,39,45423,1,8,3:3:0:0:
361,39,45507,1,8,0:0:0:0:
361,39,45592,1,8,0:0:0:0:
361,39,45677,6,0,P|421:36|477:94,1,127.5,6|0,3:2|0:0,0:0:0:0:
420,139,46016,2,0,P|413:186|413:223,1,85,8|2,0:0|0:0,0:0:0:0:
244,119,46355,2,0,P|243:76|237:34,1,85,2|2,3:2|0:0,0:0:0:0:
40,157,46694,2,0,P|104:161|155:233,1,127.5,8|0,0:0|0:0,0:0:0:0:
177,274,47033,5,2,3:2:0:0:
95,318,47202,1,2,0:0:0:0:
253,208,47372,1,8,0:0:0:0:
335,252,47541,1,2,0:0:0:0:
272,381,47711,2,0,P|256:346|263:292,1,85,2|2,3:2|0:0,0:0:0:0:
470,133,48050,2,0,P|476:200|425:249,1,127.5,8|0,0:0|0:0,0:0:0:0:
379,192,48389,6,0,P|375:150|365:91,1,85,2|2,3:2|0:0,0:0:0:0:
179,22,48728,1,8,0:0:0:0:
241,108,48897,1,2,0:0:0:0:
297,22,49067,2,0,P|251:27|195:36,1,85,2|2,3:2|0:0,0:0:0:0:
34,152,49406,1,10,0:0:0:0:
59,64,49575,1,2,0:0:0:0:
59,64,49660,1,0,0:0:0:0:
59,64,49745,6,0,P|118:117|93:230,2,170,2|8|2,3:2|0:0|3:2,0:0:0:0:
214,134,50592,1,2,3:2:0:0:
214,134,50762,1,8,0:0:0:0:
86,298,50931,6,0,P|168:277|277:266,1,170,6|0,3:2|3:2,0:0:0:0:
361,340,51440,2,0,P|401:352|443:356,1,85,12|2,0:1|0:0,0:0:0:0:
273,251,51779,2,0,P|275:208|287:168,1,85,2|2,3:2|0:0,0:0:0:0:
445,57,52118,1,8,0:0:0:0:
491,165,52287,1,2,0:0:0:0:
416,244,52457,6,0,P|404:203|402:160,1,85,2|2,3:2|0:0,0:0:0:0:
238,31,52796,1,8,0:0:0:0:
238,31,53135,2,0,P|198:37|162:89,1,85,2|2,3:2|0:0,0:0:0:0:
65,201,53474,1,8,0:0:0:0:
187,189,53643,1,2,0:0:0:0:
28,39,53813,6,0,P|43:80|55:132,1,85,2|2,3:2|0:0,0:0:0:0:
228,40,54152,1,12,0:1:0:0:
133,15,54321,1,2,3:2:0:0:
232,156,54491,1,8,0:0:0:0:
232,156,54575,1,8,0:0:0:0:
232,156,54660,1,0,3:2:0:0:
359,29,54830,1,8,0:3:0:0:
384,24,54914,1,8,0:3:0:0:
408,33,54999,1,8,3:3:0:0:
425,53,55084,1,8,3:3:0:0:
430,78,55168,5,12,0:0:0:0:
311,244,55338,1,8,0:0:0:0:
311,244,55423,1,8,0:0:0:0:
311,244,55507,2,0,L|299:185,1,42.5,0|0,3:2|0:0,0:0:0:0:
350,144,55677,1,8,0:0:0:0:
396,155,55762,1,8,0:0:0:0:
431,187,55846,1,0,3:2:0:0:
452,278,56016,1,8,0:3:0:0:
388,340,56185,1,8,3:3:0:0:
361,347,56355,1,8,3:3:0:0:
338,348,56524,6,0,P|260:333|149:326,1,170,4|4,3:2|0:3,0:0:0:0:
24,225,57033,1,2,3:2:0:0:
75,157,57202,2,0,P|104:192|99:263,1,85,8|2,0:0|0:0,0:0:0:0:
10,84,57541,1,4,0:3:0:0:
79,14,57711,6,0,B|194:5|120:68|256:56,1,170,2|2,3:2|0:0,0:0:0:0:
335,19,58219,2,0,P|321:65|316:129,1,85,4|2,0:3|3:2,0:0:0:0:
446,245,58558,1,8,0:0:0:0:
446,245,58728,1,2,3:2:0:0:
411,156,58897,1,4,0:3:0:0:
344,299,59067,1,2,0:0:0:0:
344,299,59152,1,2,0:0:0:0:
344,299,59236,6,0,P|263:296|178:354,1,170,4|4,3:2|0:3,0:0:0:0:
288,190,59745,1,0,3:2:0:0:
224,132,59914,2,0,P|204:167|206:215,1,85,8|2,0:0|0:0,0:0:0:0:
322,93,60253,1,4,0:3:0:0:
198,34,60423,6,0,B|155:8|112:26|112:26|90:73|28:76,1,170,2|8,0:0|0:0,0:0:0:0:
135,193,60931,1,8,0:3:0:0:
135,193,61016,1,8,0:3:0:0:
135,193,61101,1,8,0:3:0:0:
43,278,61270,6,0,P|30:210|0:154,2,124.666670471192,4|4|4,3:2|3:2|3:2,0:0:0:0:
182,368,61948,6,0,B|226:365|226:365|253:344|253:344|344:334,1,170,4|4,3:2|0:3,0:0:0:0:
412,194,62457,1,0,3:2:0:0:
321,162,62626,2,0,L|341:257,1,85,8|2,0:0|0:0,0:0:0:0:
470,96,62965,1,4,0:3:0:0:
470,96,63135,6,0,P|428:55|297:69,1,170,2|8,0:0|0:0,0:0:0:0:
131,162,63643,1,8,0:0:0:0:
323,188,63813,2,0,L|380:199,2,42.5,0|0|8,3:0|3:0|0:3,0:0:0:0:
232,101,64152,1,8,0:3:0:0:
188,256,64321,1,8,3:3:0:0:
250,373,64491,6,0,P|272:308|200:231,1,170,12|0,0:0|3:0,0:0:0:0:
18,150,64999,1,0,3:0:0:0:
60,215,65168,1,0,3:2:0:0:
161,88,65338,1,8,3:2:0:0:
139,162,65507,1,8,3:2:0:0:
31,56,65677,1,8,3:2:0:0:
101,5,65846,1,8,3:2:0:0:
200,17,66016,5,8,3:2:0:0:
200,17,66101,1,8,0:3:0:0:
200,17,66185,2,0,L|261:33,1,42.5,0|0,3:3|3:3,0:0:0:0:
421,46,66355,1,8,3:2:0:0:
333,0,66524,6,0,P|341:45|352:122,1,114.749996498108,4|0,3:1|0:0,0:0:0:0:
315,183,67372,5,4,3:2:0:0:
350,251,67541,1,2,0:0:0:0:
457,338,67711,1,8,0:0:0:0:
492,270,67880,1,2,0:0:0:0:
453,201,68050,1,0,3:0:0:0:
337,328,68219,2,0,P|256:300|173:298,1,152.999995330811,2|2,0:0|0:0,0:0:0:0:
240,196,68728,6,0,P|270:188|315:182,1,76.4999976654053,0|2,3:2|0:0,0:0:0:0:
171,129,69067,2,0,P|119:118|39:99,1,114.749996498108,10|0,0:0|0:0,0:0:0:0:
19,138,69406,1,2,3:1:0:0:
64,201,69575,1,2,0:0:0:0:
28,268,69745,1,10,0:1:0:0:
73,330,69914,1,2,0:0:0:0:
20,384,70084,6,0,P|87:370|198:357,1,152.999995330811,0|8,3:2|0:0,0:0:0:0:
320,254,70592,1,2,0:0:0:0:
240,193,70762,2,0,P|229:231|225:283,1,76.4999976654053,0|2,3:0|0:0,0:0:0:0:
415,356,71101,2,0,P|410:318|400:281,1,76.4999976654053,8|2,0:0|0:0,0:0:0:0:
333,90,71440,5,0,3:0:0:0:
460,173,71609,1,2,0:0:0:0:
314,75,71779,2,0,L|442:58,1,114.749996498108,12|0,0:0|0:0,0:0:0:0:
450,57,72118,1,10,0:1:0:0:
302,181,72287,1,8,0:0:0:0:
302,181,72372,1,8,0:0:0:0:
302,181,72457,2,0,L|316:234,3,38.2499988327027,10|8|8|8,0:1|0:0|0:0|0:0,0:0:0:0:
295,302,72796,5,4,3:2:0:0:
211,330,72965,1,2,0:0:0:0:
188,244,73135,2,0,P|195:206|202:158,1,76.4999976654053,12|2,0:2|0:0,0:0:0:0:
149,39,73474,5,0,3:0:0:0:
65,11,73643,1,2,0:0:0:0:
42,97,73813,2,0,P|49:135|56:183,1,76.4999976654053,12|2,0:1|0:0,0:0:0:0:
178,42,74152,6,0,B|241:42|229:78|293:69,1,114.749996498108,0|0,3:0|0:0,0:0:0:0:
343,15,74491,2,0,P|379:10|444:4,1,76.4999976654053,12|2,0:0|0:0,0:0:0:0:
339,224,74830,1,2,3:1:0:0:
437,163,74999,1,2,0:0:0:0:
348,132,75168,1,14,0:1:0:0:
440,278,75338,1,2,0:0:0:0:
385,338,75507,6,0,L|283:325,1,93.5000028533936,12|0,3:2|3:2,0:0:0:0:
99,297,75846,1,0,3:2:0:0:
188,382,76016,6,0,L|201:280,1,93.5000028533936,12|0,3:2|3:2,0:0:0:0:
229,96,76355,1,0,3:2:0:0:
50,163,76524,6,0,L|152:175,1,93.5000028533936,4|0,3:1|3:2,0:0:0:0:
336,203,76863,1,0,3:2:0:0:
130,20,77033,1,8,0:0:0:0:
139,55,77118,1,8,0:0:0:0:
149,94,77202,1,8,0:0:0:0:
344,210,77372,1,0,3:2:0:0:
363,136,77541,2,0,L|348:39,1,89.2499972763062,8|0,0:0|0:0,0:0:0:0:
344,16,78219,5,4,3:2:0:0:
453,277,89067,5,2,3:2:0:0:
385,313,89236,2,0,P|351:316|311:335,1,59.4999981842042,0|2,3:2|0:0,0:0:0:0:
453,277,89575,1,0,3:2:0:0:
391,226,89745,2,0,P|393:191|403:156,1,59.4999981842042,0|2,1:0|0:0,0:0:0:0:
487,6,90084,2,0,P|503:63|506:122,1,118.999996368408,0|2,0:0|0:0,0:0:0:0:
390,139,90592,6,0,P|360:143|331:149,1,59.4999981842042
144,52,90931,1,0,3:2:0:0:
102,126,91101,2,0,P|149:93|207:102,1,118.999996368408,0|2,1:0|0:0,0:0:0:0:
230,226,91609,1,0,0:0:0:0:
230,226,91694,1,0,0:0:0:0:
230,226,91779,5,0,3:2:0:0:
251,315,91948,1,2,3:2:0:0:
162,337,92118,1,2,0:0:0:0:
139,249,92287,1,0,3:2:0:0:
271,330,92457,2,0,P|317:317|398:308,1,118.999996368408,2|0,1:2|0:0,0:0:0:0:
469,175,92965,6,0,P|456:207|452:246,1,59.4999981842042,2|2,0:0|0:0,0:0:0:0:
357,136,93304,2,0,P|351:106|340:79,1,59.4999981842042
227,6,93643,1,0,3:2:0:0:
249,106,93813,1,2,1:2:0:0:
160,85,93982,1,0,3:2:0:0:
160,85,94152,2,0,P|108:74|65:65,1,89.2499972763062,0|2,3:2|0:0,0:0:0:0:
52,63,94491,6,0,P|10:101|15:167,1,118.999996368408,2|2,3:2|0:0,0:0:0:0:
139,287,94999,1,0,3:2:0:0:
192,210,95168,2,0,P|161:204|114:198,1,59.4999981842042,0|2,1:0|0:0,0:0:0:0:
13,335,95507,1,0,0:0:0:0:
13,335,95677,2,0,P|43:329|148:315,1,118.999996368408,2|0,0:0|0:0,0:0:0:0:
304,300,96185,1,0,0:0:0:0:
233,368,96355,2,0,L|221:300,1,59.4999981842042,0|0,3:2|1:0,0:0:0:0:
300,195,96694,2,0,L|312:127,1,59.4999981842042
241,52,97033,1,0,0:0:0:0:
241,52,97118,1,0,0:0:0:0:
241,52,97202,6,0,P|297:21|361:49,1,118.999996368408,0|2,3:2|0:0,0:0:0:0:
491,152,97711,1,0,3:2:0:0:
406,111,97880,2,0,P|416:174|421:233,1,118.999996368408,2|0,1:2|0:0,0:0:0:0:
484,359,98389,1,2,0:0:0:0:
484,359,98474,1,0,0:0:0:0:
484,359,98558,6,0,P|431:326|356:338,1,118.999996368408,2|2,3:2|0:0,0:0:0:0:
201,245,99067,1,8,0:0:0:0:
201,245,99152,1,8,0:0:0:0:
201,245,99236,1,8,0:3:0:0:
276,286,99406,1,8,0:3:0:0:
137,333,99575,1,8,3:2:0:0:
62,374,99745,1,8,3:2:0:0:
13,299,99914,6,0,P|25:238|39:146,1,136,4|0,3:2|0:0,0:0:0:0:
194,16,100592,2,0,P|204:83|217:149,1,136,0|4,3:0|3:3,0:0:0:0:
157,241,101101,1,2,0:0:0:0:
157,241,101185,1,2,0:0:0:0:
157,241,101270,6,0,B|232:239|206:278|297:273,1,136,2|4,3:1|0:1,0:0:0:0:
286,273,101779,1,0,0:0:0:0:
408,232,101948,2,0,P|411:200|426:160,1,68,0|8,3:2|0:3,0:0:0:0:
311,75,102287,2,0,P|322:106|325:140,1,68,0|0,0:0|3:2,0:0:0:0:
181,34,102626,6,0,P|102:22|61:82,1,136,4|2,3:2|0:1,0:0:0:0:
1,184,103135,1,0,0:0:0:0:
1,184,103219,1,4,0:3:0:0:
1,184,103304,2,0,B|47:181|47:181|71:199|71:199|157:211,1,136,0|2,3:2|0:1,0:0:0:0:
239,247,103813,1,0,0:0:0:0:
232,126,103982,6,0,P|224:73|213:12,2,113.333333333333,8|8|8,3:3|3:3|3:3,0:0:0:0:
299,179,104547,1,8,0:0:0:0:
299,179,104660,2,0,P|365:170|424:216,1,127.5,8|0,3:2|0:0,0:0:0:0:
439,216,104999,2,0,P|429:308|429:309,1,85,10|0,0:2|0:0,0:0:0:0:
275,384,105338,6,0,P|269:307|257:232,1,136,4|2,3:2|0:1,0:0:0:0:
77,75,106016,2,0,P|66:142|62:210,1,136,8|2,0:0|0:1,0:0:0:0:
176,92,106524,1,0,0:0:0:0:
235,32,106694,6,0,B|308:27|279:78|376:62,1,136,0|2,3:2|0:1,0:0:0:0:
494,112,107202,1,0,0:0:0:0:
376,185,107372,1,8,0:0:0:0:
376,185,107457,1,0,0:0:0:0:
376,185,107541,1,0,3:2:0:0:
376,185,107626,1,0,3:2:0:0:
376,185,107711,2,0,L|387:241,1,34,8|8,0:3|0:3,0:0:0:0:
259,341,107880,2,0,L|265:307,1,34,8|8,3:3|3:3,0:0:0:0:
226,201,108050,5,4,3:2:0:0:
226,200,108389,1,0,3:0:0:0:
110,299,108558,1,0,3:0:0:0:
212,187,108728,1,0,3:2:0:0:
50,117,108897,1,8,3:2:0:0:
197,169,109067,1,8,0:0:0:0:
277,10,109236,1,8,0:0:0:0:
116,51,109406,5,8,0:0:0:0:
89,72,109490,1,8,0:0:0:0:
73,101,109575,1,8,0:3:0:0:
68,135,109660,1,8,0:3:0:0:
77,167,109745,2,0,P|90:196|119:211,1,55.2499974708558,0|0,3:2|3:2,0:0:0:0:
101,287,109914,2,0,P|132:290|160:272,1,55.2499974708558,8|8,3:3|3:3,0:0:0:0:
215,331,110084,2,0,P|233:305|232:272,1,55.2499974708558,8|0,0:0|0:0,0:0:0:0:
274,213,110253,1,8,0:0:0:0:
443,365,110423,1,8,0:0:0:0:
443,365,110507,1,8,0:0:0:0:
443,365,110592,1,8,3:3:0:0:
443,365,110677,1,8,3:3:0:0:
443,365,110762,6,0,L|347:352,1,85,6|2,3:2|0:0,0:0:0:0:
396,151,111101,1,8,0:0:0:0:
351,260,111270,1,2,0:0:0:0:
492,202,111440,2,0,P|506:118|458:65,1,127.5,2|0,3:2|0:0,0:0:0:0:
420,40,111779,2,0,P|370:49|330:54,1,85,8|2,0:0|0:0,0:0:0:0:
133,77,112118,5,2,3:2:0:0:
261,153,112287,1,2,0:0:0:0:
114,263,112457,2,0,P|112:222|159:172,1,85,8|2,0:0|0:0,0:0:0:0:
354,160,112796,2,0,P|316:151|270:144,1,85,2|2,3:2|0:0,0:0:0:0:
408,313,113135,1,8,0:0:0:0:
408,313,113474,5,2,3:2:0:0:
325,242,113643,2,0,L|236:258,1,85,2|8,0:0|0:0,0:0:0:0:
75,61,113982,1,2,0:0:0:0:
33,130,114152,1,2,3:2:0:0:
52,208,114321,1,2,0:0:0:0:
201,46,114491,2,0,P|193:85|184:138,1,85,10|2,0:0|0:0,0:0:0:0:
206,260,114830,5,2,3:2:0:0:
277,197,114999,1,2,0:0:0:0:
415,291,115168,1,8,0:0:0:0:
322,279,115338,1,2,0:0:0:0:
474,131,115507,1,2,3:2:0:0:
437,213,115677,1,2,3:2:0:0:
333,104,115846,1,8,0:0:0:0:
464,27,116016,6,0,P|386:35|331:123,1,170,6|0,3:2|3:2,0:0:0:0:
171,10,116524,2,0,P|224:18|282:30,1,93.5000028533936,12|2,0:1|0:0,0:0:0:0:
123,126,116863,2,0,P|131:172|138:235,1,85,2|2,3:2|0:0,0:0:0:0:
289,304,117202,2,0,P|223:308|184:364,1,127.5,8|0,0:0|0:0,0:0:0:0:
186,352,117541,6,0,L|86:339,1,85,2|2,3:2|0:0,0:0:0:0:
43,114,117880,1,8,0:0:0:0:
10,206,118050,1,2,0:0:0:0:
100,209,118219,2,0,L|195:193,1,85,2|2,3:2|0:0,0:0:0:0:
411,60,118558,1,8,0:0:0:0:
346,162,118728,1,2,0:0:0:0:
182,48,118897,6,0,L|253:61,1,50.9999984436036,12|0,0:0|0:0,0:0:0:0:
309,71,119067,1,0,3:2:0:0:
387,84,119236,1,0,3:2:0:0:
494,229,119406,6,0,L|423:242,1,50.9999984436036,12|0,0:0|0:0,0:0:0:0:
367,252,119576,1,0,3:2:0:0:
289,265,119745,1,8,3:2:0:0:
55,317,119914,6,0,B|151:307|113:377|222:366,1,170,4|0,3:1|0:0,0:0:0:0:
155,126,120423,1,0,3:0:0:0:
134,130,120507,1,0,3:0:0:0:
113,135,120592,1,12,0:0:0:0:
51,219,120762,1,0,0:0:0:0:
193,280,120931,1,0,3:0:0:0:
193,280,121016,1,0,3:0:0:0:
193,280,121101,1,8,3:3:0:0:
276,188,121270,2,0,P|291:123|236:69,1,127.5,12|0,0:1|0:0,0:0:0:0:
204,21,121609,6,0,P|245:13|288:10,1,85,4|2,3:2|0:0,0:0:0:0:
463,113,121948,2,0,P|444:151|430:213,1,85,8|2,0:0|0:0,0:0:0:0:
324,384,122287,2,0,P|311:321|284:264,1,127.5,2|0,3:2|0:0,0:0:0:0:
284,264,122626,2,0,L|193:278,1,85,8|2,0:0|0:0,0:0:0:0:
8,160,122965,5,2,3:2:0:0:
62,260,123135,1,2,0:0:0:0:
172,101,123304,1,8,0:0:0:0:
128,191,123474,1,2,0:0:0:0:
100,42,123643,2,0,P|179:56|296:80,1,170,2|8,3:2|0:0,0:0:0:0:
439,109,124152,1,2,0:0:0:0:
308,232,124321,6,0,P|290:191|295:138,1,85,2|2,3:2|0:0,0:0:0:0:
510,30,124661,1,8,0:0:0:0:
453,136,124830,1,2,0:0:0:0:
394,27,124999,1,2,3:2:0:0:
510,30,125168,1,2,0:0:0:0:
453,136,125338,2,0,L|440:288,1,127.5,10|0,0:0|0:0,0:0:0:0:
418,336,125677,5,2,3:2:0:0:
328,281,125846,1,2,0:0:0:0:
196,339,126016,1,8,0:0:0:0:
285,384,126185,1,2,0:0:0:0:
193,239,126355,2,0,L|206:138,1,85,2|2,3:2|3:2,0:0:0:0:
90,24,126694,1,8,0:0:0:0:
39,91,126863,6,0,P|121:100|174:38,1,170,6|0,3:2|3:2,0:0:0:0:
1,167,127372,2,0,P|18:220|27:291,1,93.5000028533936,12|2,0:1|0:0,0:0:0:0:
123,384,127711,2,0,P|131:338|146:293,1,85,2|2,3:2|0:0,0:0:0:0:
329,199,128050,2,0,P|274:168|214:182,1,127.5,8|0,0:0|0:0,0:0:0:0:
214,181,128389,6,0,P|226:224|237:271,1,85,2|2,3:2|0:0,0:0:0:0:
335,364,128728,1,8,0:0:0:0:
407,334,128897,1,2,0:0:0:0:
496,240,129067,1,2,3:2:0:0:
424,210,129236,1,2,0:0:0:0:
307,140,129406,2,0,L|326:215,1,42.5,8|0,0:0|0:0,0:0:0:0:
479,121,129575,2,0,L|498:46,1,42.5,2|0,0:0|0:0,0:0:0:0:
446,8,129745,6,0,B|346:-9|383:68|268:56,1,170,6|2,3:2|3:2,0:0:0:0:
116,53,130253,1,8,3:2:0:0:
152,130,130423,1,2,3:2:0:0:
50,252,130592,1,0,3:2:0:0:
18,174,130762,1,10,3:2:0:0:
164,258,130931,1,0,3:2:0:0:
22,360,131101,6,0,P|71:364|124:375,1,85,4|0,3:1|0:0,0:0:0:0:
285,198,131440,1,8,0:3:0:0:
285,198,131524,1,8,3:3:0:0:
285,198,131609,1,8,3:3:0:0:
345,269,131779,1,2,0:0:0:0:
295,348,131948,1,8,0:3:0:0:
204,326,132118,1,8,3:3:0:0:
198,233,132287,1,8,3:3:0:0:
386,354,132457,6,0,P|390:281|405:183,1,152.999995330811,4|2,3:2|3:1,0:0:0:0:
325,65,132966,1,2,3:2:0:0:
495,107,133135,2,0,L|394:93,1,76.4999976654053,8|2,0:0|0:0,0:0:0:0:
171,170,133474,1,2,3:1:0:0:
191,84,133644,6,0,P|251:123|240:215,1,152.999995330811,2|2,3:2|3:2,0:0:0:0:
99,358,134152,2,0,P|91:313|80:278,1,76.4999976654053,2|2,0:1|3:2,0:0:0:0:
0,115,134491,1,8,0:0:0:0:
0,115,134661,1,2,3:2:0:0:
13,208,134830,1,2,3:1:0:0:
118,50,135000,1,10,0:0:0:0:
118,50,135085,1,2,0:0:0:0:
118,50,135169,6,0,B|205:41|169:112|284:105,1,152.999995330811,4|2,3:2|0:1,0:0:0:0:
437,132,135678,1,0,3:2:0:0:
381,17,135847,2,0,P|361:49|359:87,1,76.4999976654053,8|2,0:0|0:0,0:0:0:0:
437,327,136186,1,2,0:1:0:0:
372,266,136356,6,0,B|330:259|330:259|307:282|307:282|207:313,1,152.999995330811,2|8,0:0|0:0,0:0:0:0:
91,239,136864,1,8,0:3:0:0:
91,239,136949,1,8,0:3:0:0:
91,239,137034,1,8,0:3:0:0:
145,143,137203,6,0,P|185:135|292:125,2,124.666670471192,4|4|4,3:2|3:2|3:2,0:0:0:0:
1,258,137881,6,0,P|120:300|127:341,1,152.999995330811,4|2,3:2|3:1,0:0:0:0:
215,341,138390,1,0,3:2:0:0:
330,274,138559,2,0,P|290:265|239:256,1,76.4999976654053,8|2,0:0|0:0,0:0:0:0:
383,367,138898,1,6,0:1:0:0:
383,367,139068,6,0,P|421:320|415:225,1,152.999995330811,6|8,0:0|0:0,0:0:0:0:
313,19,139576,1,8,0:3:0:0:
421,126,139746,1,0,3:2:0:0:
210,143,139915,1,8,3:3:0:0:
288,100,140085,1,8,0:2:0:0:
297,242,140254,1,8,3:3:0:0:
222,289,140424,6,0,P|155:270|65:266,1,152.999995330811,12|0,0:0|3:0,0:0:0:0:
184,101,140932,1,0,3:0:0:0:
86,147,141101,1,0,3:2:0:0:
222,19,141271,1,8,3:2:0:0:
314,53,141440,1,8,3:2:0:0:
416,173,141610,1,8,3:2:0:0:
321,206,141779,1,8,3:2:0:0:
481,32,141949,5,8,3:2:0:0:
481,32,142034,1,8,3:3:0:0:
481,32,142118,2,0,L|465:93,1,38.2499988327027,0|0,3:3|3:3,0:0:0:0:
455,144,142288,1,0,3:2:0:0:
333,281,142457,1,0,3:3:0:0:
333,281,142541,1,0,3:3:0:0:
333,281,142626,1,12,3:1:0:0:
216,140,142796,1,8,3:1:0:0:
176,329,142965,6,0,L|183:291,1,38.2499988327027,8|8,0:3|0:3,0:0:0:0:
64,164,143135,2,0,L|71:202,1,38.2499988327027,8|8,3:3|3:3,0:0:0:0:
17,311,143304,5,4,3:2:0:0:
12,324,143643,1,0,3:0:0:0:
7,337,143982,1,0,3:0:0:0:
4,348,144321,1,0,3:0:0:0:
169,193,144660,5,0,3:0:0:0:
164,180,144999,1,0,3:0:0:0:
159,167,145338,1,0,3:0:0:0:
156,156,145677,1,0,3:0:0:0:
42,62,146016,5,0,3:0:0:0:
55,65,146355,1,0,3:0:0:0:
69,68,146694,1,0,3:0:0:0:
79,71,147033,1,0,3:0:0:0:
318,170,147372,5,0,3:0:0:0:
331,167,147711,1,0,3:0:0:0:
345,164,148050,1,0,3:0:0:0:
355,161,148389,1,0,3:0:0:0:
500,46,148728,5,4,3:2:0:0:
464,27,149067,1,0,3:0:0:0:
436,56,149406,1,0,3:0:0:0:
454,91,149745,1,0,3:0:0:0:
353,272,150084,5,0,3:0:0:0:
389,253,150423,1,0,3:0:0:0:
417,282,150762,1,0,3:0:0:0:
399,317,151101,1,0,3:0:0:0:
246,368,151440,5,0,3:0:0:0:
215,359,151779,1,0,3:0:0:0:
184,351,152118,1,0,3:0:0:0:
153,343,152457,1,0,3:0:0:0:
218,138,152796,5,0,3:0:0:0:
204,214,153135,1,0,3:0:0:0:
40,283,153474,1,8,0:0:0:0:
40,283,153559,1,8,0:3:0:0:
40,283,153643,1,8,0:3:0:0:
85,121,153813,1,0,3:3:0:0:
35,182,153982,1,8,0:0:0:0:
36,49,154152,6,0,P|120:39|177:107,1,152.999995330811,4|0,3:2|3:3,0:0:0:0:
167,81,154660,1,2,0:0:0:0:
342,36,154830,2,0,P|301:23|247:16,1,76.4999976654053,2|8,3:2|0:0,0:0:0:0:
307,132,155168,1,2,3:2:0:0:
307,132,155338,1,2,0:0:0:0:
462,53,155507,6,0,P|452:90|446:139,1,76.4999976654053,0|2,3:3|0:0,0:0:0:0:
320,156,155846,2,0,P|329:196|336:242,1,76.4999976654053,8|2,0:0|0:0,0:0:0:0:
436,366,156185,1,0,3:3:0:0:
492,309,156355,1,10,0:0:0:0:
451,243,156524,1,2,3:2:0:0:
335,343,156694,1,0,3:2:0:0:
335,343,156779,1,8,0:0:0:0:
335,343,156863,6,0,B|244:352|280:293|183:294,1,152.999995330811,0|8,3:2|0:0,0:0:0:0:
51,244,157372,1,2,0:0:0:0:
111,175,157541,2,0,L|190:194,1,76.4999976654053,2|8,3:2|0:0,0:0:0:0:
398,203,157880,1,2,3:2:0:0:
310,146,158050,1,2,0:0:0:0:
404,283,158219,5,0,3:2:0:0:
479,235,158389,1,2,0:0:0:0:
456,146,158558,2,0,P|464:109|472:67,1,76.4999976654053,8|2,0:0|0:0,0:0:0:0:
343,16,158897,1,0,3:2:0:0:
299,92,159067,2,0,L|309:140,1,38.2499988327027,8|8,0:0|0:0,0:0:0:0:
376,182,159236,2,0,L|368:229,1,38.2499988327027,0|0,3:2|3:2,0:0:0:0:
299,297,159406,1,8,3:3:0:0:
299,297,159491,1,8,3:3:0:0:
299,297,159575,6,0,P|232:297|187:368,1,136,4|2,3:2|0:0,0:0:0:0:
27,290,160084,1,2,0:0:0:0:
132,249,160253,2,0,P|165:254|227:272,1,85,0|0,3:0|3:0,0:0:0:0:
24,125,160592,1,8,0:2:0:0:
117,262,160762,1,8,0:2:0:0:
209,92,160931,5,8,0:2:0:0:
122,167,161101,1,8,0:2:0:0:
322,50,161270,1,8,0:2:0:0:
132,40,161440,1,8,0:2:0:0:
341,168,161609,2,0,P|332:200|323:267,1,93.5000028533936,8|8,0:2|0:2,0:0:0:0:
256,352,161948,1,8,0:2:0:0:
256,352,162033,1,8,0:2:0:0:
256,352,162118,1,8,0:2:0:0:
256,352,162202,1,8,0:2:0:0:
256,352,162287,5,12,3:2:0:0:
107,281,162457,1,0,3:2:0:0:
107,281,162626,1,0,3:2:0:0:
301,222,162796,5,12,3:2:0:0:
144,170,162966,1,0,3:2:0:0:
144,170,163135,1,0,3:2:0:0:
339,93,163304,5,12,3:2:0:0:
180,45,163474,1,0,3:2:0:0:
180,45,163643,1,12,3:2:0:0:
325,232,163813,5,0,3:2:0:0:
438,87,163982,1,0,3:2:0:0:
438,87,164067,1,0,3:2:0:0:
438,87,164152,2,0,L|449:26,2,50.9999984436036,0|0|8,3:2|3:2|3:2,0:0:0:0:
396,186,164491,1,0,3:2:0:0:
458,273,164660,1,8,3:2:0:0:
398,365,164830,1,2,0:0:0:0:
497,170,164999,5,4,3:2:0:0:
53,74,175846,6,0,P|84:87|101:129,1,68,4|0,3:1|0:0,0:0:0:0:
220,23,176185,2,0,P|224:56|196:92,1,68,2|0,3:2|0:0,0:0:0:0:
17,177,176524,2,0,B|100:173|65:217|162:220,1,136,0|0,3:2|3:2,0:0:0:0:
142,218,177033,1,0,0:0:0:0:
256,325,177202,6,0,L|267:242,1,68,0|0,3:2|0:0,0:0:0:0:
362,178,177541,2,0,L|373:261,1,68,2|0,3:2|0:0,0:0:0:0:
374,350,177880,2,0,P|425:354|470:294,1,102,0|0,3:2|0:0,0:0:0:0:
470,249,178219,2,0,P|475:217|484:170,1,68,0|4,3:2|0:3,0:0:0:0:
405,30,178558,6,0,P|361:26|325:84,1,102,0|0,3:2|0:0,0:0:0:0:
275,126,178897,2,0,P|237:119|189:117,1,68,2|0,3:2|0:0,0:0:0:0:
21,42,179236,2,0,P|54:39|88:32,1,68,2|2,3:2|0:0,0:0:0:0:
65,157,179575,2,0,L|48:248,1,68,2|4,3:2|0:3,0:0:0:0:
38,249,179830,1,0,0:0:0:0:
38,249,179914,6,0,B|128:243|75:294|196:277,1,136,0|2,3:2|3:2,0:0:0:0:
166,280,180423,1,0,0:0:0:0:
330,205,180592,1,2,3:2:0:0:
291,290,180762,1,2,0:0:0:0:
236,200,180931,2,0,L|220:125,1,68,2|0,3:2|0:0,0:0:0:0:
332,50,181270,5,12,0:0:0:0:
332,50,181609,1,0,3:0:0:0:
436,89,181779,1,0,3:0:0:0:
311,160,181948,1,0,3:2:0:0:
420,216,182118,1,0,3:2:0:0:
270,249,182287,1,8,3:2:0:0:
363,369,182457,1,8,0:0:0:0:
392,242,182626,5,8,3:2:0:0:
237,343,182796,1,8,0:0:0:0:
251,155,182965,1,8,0:0:0:0:
291,255,183135,1,8,0:0:0:0:
146,308,183304,1,8,0:0:0:0:
89,126,183474,1,8,0:0:0:0:
188,192,183643,1,8,3:2:0:0:
188,192,183728,1,8,3:2:0:0:
188,192,183813,2,0,L|248:175,1,34,8|8,3:3|3:3,0:0:0:0:
394,117,183982,5,4,3:2:0:0:
330,39,184152,1,0,3:0:0:0:
474,26,184321,1,0,3:0:0:0:
374,280,184491,1,4,3:2:0:0:
473,211,184660,1,0,3:0:0:0:
340,169,184830,1,0,3:0:0:0:
245,293,184999,2,0,P|291:297|354:309,1,110.499994941712,12|0,0:0|3:0,0:0:0:0:
191,157,185338,5,0,3:0:0:0:
110,226,185507,2,0,P|124:278|132:344,1,110.499994941712,4|8,3:1|0:0,0:0:0:0:
340,169,185846,2,0,P|347:114|361:60,1,110.499994941712,0|12,3:2|0:1,0:0:0:0:
343,29,186101,1,0,0:0:0:0:
343,29,186185,2,0,P|309:27|278:43,1,55.2499974708558,8|8,0:0|0:0,0:0:0:0:
195,21,186355,2,0,P|176:49|174:84,1,55.2499974708558,8|8,0:0|0:0,0:0:0:0:
98,152,186524,1,8,0:0:0:0:
98,152,186609,1,8,0:0:0:0:
98,152,186694,2,0,L|81:72,1,63.75
73,5,187033,6,0,B|-5:52|-5:52|25:179,1,178.499994552612,12|0,0:2|0:0,0:0:0:0:
46,209,187372,2,0,P|38:263|31:308,1,85,2|2,3:2|0:0,0:0:0:0:
232,369,187711,2,0,P|224:315|217:270,1,85,8|2,0:0|0:0,0:0:0:0:
226,83,188050,5,2,3:2:0:0:
176,169,188219,1,2,0:0:0:0:
388,229,188389,1,8,0:0:0:0:
338,143,188558,1,2,0:0:0:0:
348,312,188728,2,0,P|446:300|478:208,1,170,2|8,3:2|0:0,0:0:0:0:
439,47,189236,1,2,0:0:0:0:
439,47,189321,1,0,0:0:0:0:
439,47,189406,6,0,P|392:50|349:99,1,85,2|2,3:2|0:0,0:0:0:0:
150,24,189745,1,8,0:0:0:0:
226,98,189914,1,2,0:0:0:0:
109,209,190084,1,2,3:2:0:0:
29,169,190253,1,2,0:0:0:0:
29,169,190338,1,0,0:0:0:0:
29,169,190423,2,0,P|113:171|197:185,1,170,10|2,0:0|3:2,0:0:0:0:
429,169,190931,5,2,0:0:0:0:
305,133,191101,1,8,0:0:0:0:
363,325,191270,1,2,0:0:0:0:
487,289,191440,1,2,3:2:0:0:
370,225,191609,1,2,3:2:0:0:
370,225,191779,1,8,0:0:0:0:
242,361,191948,6,0,P|212:321|250:201,1,170,6|0,3:2|3:2,0:0:0:0:
376,47,192457,2,0,P|396:88|384:132,1,93.5000028533936,12|2,0:1|0:0,0:0:0:0:
135,69,192796,2,0,P|185:63|278:49,1,127.5,2|0,3:2|0:0,0:0:0:0:
261,51,193135,2,0,L|244:153,1,85,8|2,0:0|0:0,0:0:0:0:
166,306,193474,6,0,B|61:295|111:366|11:359,2,170,2|8|2,3:2|0:0|3:2,0:0:0:0:
349,303,194321,1,2,0:0:0:0:
275,358,194491,2,0,P|261:318|265:269,1,85,8|2,0:0|0:0,0:0:0:0:
364,128,194830,6,0,P|418:134|472:147,1,110.499994941712,12|0,0:0|3:2,0:0:0:0:
285,34,195168,1,0,3:2:0:0:
173,203,195338,6,0,P|174:142|204:94,1,110.499994941712,12|0,0:0|3:2,0:0:0:0:
348,242,195677,1,8,3:2:0:0:
204,362,195846,6,0,P|121:353|17:348,1,170,4|0,3:1|0:0,0:0:0:0:
184,213,196355,1,0,3:0:0:0:
184,213,196440,1,0,3:0:0:0:
184,213,196524,1,12,0:0:0:0:
66,168,196694,1,8,3:3:0:0:
153,66,196863,2,0,L|177:135,1,55.2499974708558,0|0,3:0|3:0,0:0:0:0:
19,60,197033,2,0,L|43:-9,1,55.2499974708558,8|8,3:3|3:3,0:0:0:0:
180,93,197202,1,12,0:1:0:0:
21,263,197372,1,8,0:0:0:0:
21,263,197457,1,8,0:0:0:0:
21,263,197541,6,0,P|77:260|123:328,1,127.5,4|0,3:2|0:0,0:0:0:0:
121,310,197880,2,0,L|214:298,1,85,8|2,0:0|0:0,0:0:0:0:
394,198,198219,1,2,3:2:0:0:
344,316,198389,1,2,0:0:0:0:
282,211,198558,2,0,P|267:171|266:120,1,85,8|2,0:0|0:0,0:0:0:0:
466,22,198897,6,0,P|464:98|439:169,1,127.5,2|0,3:2|0:0,0:0:0:0:
394,198,199236,2,0,P|411:234|412:293,1,85,8|2,0:0|0:0,0:0:0:0:
239,141,199575,2,0,P|196:147|124:159,1,85,2|2,3:2|0:0,0:0:0:0:
155,154,199830,1,2,0:0:0:0:
155,154,199914,1,8,0:0:0:0:
36,78,200084,1,2,0:0:0:0:
126,20,200253,6,0,B|230:-1|184:76|302:51,1,170,2|8,3:2|0:0,0:0:0:0:
475,30,200762,1,2,0:0:0:0:
406,106,200931,1,2,3:2:0:0:
466,272,201101,1,2,0:0:0:0:
512,179,201270,1,10,0:0:0:0:
384,219,201440,1,2,0:0:0:0:
384,219,201524,1,0,0:0:0:0:
384,219,201609,6,0,P|293:223|253:311,1,170,2|8,3:2|0:0,0:0:0:0:
253,283,202118,1,2,0:0:0:0:
172,358,202287,1,2,3:2:0:0:
106,247,202457,1,2,3:2:0:0:
196,122,202626,1,8,0:0:0:0:
29,149,202796,6,0,P|99:133|202:122,1,170,6|0,3:2|3:2,0:0:0:0:
412,240,203304,2,0,P|368:225|319:221,1,85,8|2,0:2|0:0,0:0:0:0:
435,38,203643,2,0,P|463:70|452:145,1,85,2|2,3:2|0:0,0:0:0:0:
283,317,203982,2,0,P|254:263|255:167,1,127.5,8|0,0:0|0:0,0:0:0:0:
287,134,204321,6,0,P|291:95|300:41,1,85,2|2,3:2|0:0,0:0:0:0:
82,8,204660,2,0,P|88:49|93:92,1,85,8|2,0:0|0:0,0:0:0:0:
28,295,204999,1,2,3:2:0:0:
111,227,205168,1,2,0:0:0:0:
219,355,205338,1,8,0:0:0:0:
135,328,205507,1,2,0:0:0:0:
36,195,205677,6,0,L|227:229,1,170,6|8,3:2|3:2,0:0:0:0:
425,329,206185,1,2,0:0:0:0:
425,329,206270,1,0,0:0:0:0:
425,329,206355,1,0,3:2:0:0:
344,282,206524,1,0,3:2:0:0:
270,349,206694,1,8,0:2:0:0:
432,227,206863,6,0,P|426:183|422:128,1,85,4|4,0:0|0:1,0:0:0:0:
354,49,207202,2,0,L|364:-5,2,42.5,2|0|8,3:2|0:0|0:2,0:0:0:0:
290,104,207541,1,8,3:3:0:0:
326,180,207711,5,2,3:2:0:0:
127,215,207880,1,8,0:3:0:0:
260,288,208050,1,8,3:3:0:0:
186,103,208219,1,8,3:3:0:0:
221,177,208389,6,0,P|232:246|241:327,1,127.5,4|0,3:2|0:0,0:0:0:0:
196,365,208728,1,2,3:1:0:0:
196,365,208897,1,2,3:2:0:0:
60,295,209067,2,0,P|64:219|75:120,1,170,8|2,0:0|3:1,0:0:0:0:
178,30,209575,6,0,P|210:55|214:135,1,85,2|2,3:2|0:2,0:0:0:0:
367,37,209914,2,0,P|361:77|294:120,1,85,2|2,3:2|0:1,0:0:0:0:
241,199,210253,1,2,3:2:0:0:
413,278,210423,2,0,P|354:288|287:300,1,127.5,8|0,0:0|0:0,0:0:0:0:
256,328,210762,2,0,P|211:320|164:314,1,85,2|10,3:1|0:0,0:0:0:0:
11,164,211101,6,0,B|116:151|67:237|194:213,1,170,4|2,3:2|0:1,0:0:0:0:
395,147,211609,1,0,3:2:0:0:
241,89,211779,2,0,P|254:126|262:179,1,85,8|2,0:0|0:0,0:0:0:0:
381,359,212118,1,2,3:1:0:0:
454,313,212287,2,0,P|460:271|474:230,1,85,2|2,3:2|0:2,0:0:0:0:
338,282,212626,2,0,P|255:283|197:343,1,170,8|0,0:0|3:0,0:0:0:0:
184,219,213135,6,0,P|138:222|58:246,2,124.666670471192,4|4|4,3:2|3:2|3:2,0:0:0:0:
378,128,213813,6,0,P|296:110|199:102,1,170,4|2,3:2|3:1,0:0:0:0:
40,131,214321,1,0,3:2:0:0:
106,11,214491,2,0,B|130:45|130:45|123:106,1,85,8|2,0:0|0:0,0:0:0:0:
61,307,214830,1,6,0:1:0:0:
124,253,214999,6,0,B|165:257|165:257|187:274|187:274|317:289,1,170,6|8,3:2|0:0,0:0:0:0:
287,285,215423,1,0,0:0:0:0:
287,285,215507,1,8,3:2:0:0:
478,220,215677,2,0,L|466:281,1,42.5,0|0,3:2|3:2,0:0:0:0:
422,323,215846,1,8,3:3:0:0:
362,207,216016,1,8,0:2:0:0:
443,121,216185,1,8,3:3:0:0:
371,30,216355,1,12,0:0:0:0:
371,30,216694,5,0,3:0:0:0:
239,152,216863,1,0,3:0:0:0:
221,62,217033,1,0,3:2:0:0:
323,224,217202,1,8,3:2:0:0:
211,335,217372,1,8,3:2:0:0:
163,186,217541,1,8,3:2:0:0:
305,315,217711,1,8,3:2:0:0:
98,280,217880,1,8,3:2:0:0:
98,280,217965,1,8,3:3:0:0:
98,280,218050,2,0,L|154:272,1,42.5,0|0,3:3|3:3,0:0:0:0:
223,250,218219,5,8,3:2:0:0:
49,101,218389,1,0,3:2:0:0:
256,192,219236,12,0,220423,0:0:0:0:
371,44,220592,5,4,0:0:0:0:
371,44,220931,5,4,0:0:0:0:
467,112,221270,5,8,0:0:0:0:
467,112,221355,1,8,0:3:0:0:
467,112,221440,2,0,L|479:172,1,50.9999984436036,0|0,3:3|3:3,0:0:0:0:
375,327,221609,1,8,0:3:0:0:
375,327,221694,1,8,0:3:0:0:
375,327,221779,2,0,L|387:267,1,50.9999984436036,8|8,0:0|0:0,0:0:0:0:
388,197,221948,5,4,3:2:0:0:
301,228,222118,1,2,0:0:0:0:
137,323,222287,1,8,0:0:0:0:
224,354,222457,1,2,0:0:0:0:
211,257,222626,1,0,3:0:0:0:
46,370,222796,2,0,P|42:296|25:201,1,170,2|2,0:0|0:0,0:0:0:0:
175,65,223304,6,0,P|177:108|157:163,1,85,0|2,3:2|0:0,0:0:0:0:
231,297,223643,2,0,B|327:306|282:234|393:243,1,170,10|2,0:0|3:1,0:0:0:0:
473,108,224152,1,2,0:0:0:0:
386,84,224321,1,10,0:1:0:0:
255,160,224491,1,2,0:0:0:0:
246,15,224660,5,0,3:2:0:0:
255,160,224830,2,0,P|186:126|80:124,1,170,2|2,0:0|0:0,0:0:0:0:
16,22,225338,2,0,P|66:28|111:37,1,85,0|2,3:0|0:0,0:0:0:0:
4,169,225677,2,0,P|13:211|22:270,1,85,8|2,0:0|0:0,0:0:0:0:
117,365,226016,5,0,3:0:0:0:
117,365,226355,1,12,0:0:0:0:
227,286,226524,1,2,0:0:0:0:
128,187,226694,2,0,P|138:232|144:274,1,85,2|8,3:1|0:0,0:0:0:0:
304,187,227033,2,0,P|310:144|319:103,1,85,12|8,0:1|0:0,0:0:0:0:
336,71,227287,1,8,0:0:0:0:
336,71,227372,6,0,P|400:65|443:118,1,127.5,6|0,3:2|0:0,0:0:0:0:
409,180,227711,2,0,P|417:223|420:264,1,85,12|2,0:2|0:0,0:0:0:0:
236,374,228050,1,0,3:0:0:0:
304,285,228219,1,2,0:0:0:0:
152,202,228389,1,8,0:1:0:0:
152,202,228474,1,0,0:0:0:0:
152,202,228558,2,0,P|101:212|40:227,1,85,2|0,0:0|3:0,0:0:0:0:
236,101,228897,5,2,0:0:0:0:
116,28,229067,2,0,P|91:62|104:127,1,85,8|2,0:0|0:0,0:0:0:0:
259,239,229406,1,2,3:1:0:0:
287,150,229575,1,2,0:0:0:0:
133,237,229745,1,10,0:1:0:0:
170,329,229914,1,2,0:0:0:0:
333,360,230084,5,2,3:1:0:0:
333,360,230253,1,2,0:0:0:0:
389,252,230423,2,0,L|486:270,1,85,12|2,0:1|0:1,0:0:0:0:
240,61,230762,1,0,3:2:0:0:
240,61,230931,1,2,3:2:0:0:
379,152,231101,2,0,L|296:168,1,85,14|2,0:1|0:0,0:0:0:0:
123,176,231440,5,8,0:0:0:0:
152,174,231524,1,8,0:3:0:0:
177,189,231609,1,0,3:0:0:0:
191,215,231694,1,0,3:0:0:0:
190,244,231778,1,8,0:0:0:0:
106,361,231948,2,0,L|118:298,2,42.5,0|0|8,3:0|3:0|0:0,0:0:0:0:
34,238,232287,1,0,3:0:0:0:
34,238,232372,1,8,0:0:0:0:
34,238,232457,2,0,L|18:169,1,42.5,8|0,0:0|3:0,0:0:0:0:
98,122,232626,2,0,L|114:53,1,42.5,8|8,0:0|0:0,0:0:0:0:
37,28,232796,6,0,P|116:43|221:66,1,170,4|12,3:2|0:1,0:0:0:0:
376,209,233304,1,2,0:0:0:0:
402,113,233474,2,0,P|357:119|303:133,1,85,0|2,3:0|0:0,0:0:0:0:
168,308,233813,1,12,0:2:0:0:
212,242,233982,6,0,P|297:242|331:324,1,170,2|2,0:0|0:0,0:0:0:0:
158,322,234491,2,0,P|121:315|56:311,1,85,14|2,0:1|0:0,0:0:0:0:
218,105,234830,1,2,3:1:0:0:
267,170,234999,1,2,0:0:0:0:
240,245,235168,1,14,0:1:0:0:
369,141,235338,1,2,0:0:0:0:
263,38,235507,6,0,P|187:29|133:86,1,127.5,0|0,3:2|0:0,0:0:0:0:
88,101,235846,2,0,P|97:150|106:202,1,85,12|2,0:2|0:0,0:0:0:0:
244,273,236185,2,0,P|252:231|260:190,1,85,0|2,3:0|0:0,0:0:0:0:
155,305,236524,2,0,B|256:288|209:358|334:343,1,170,12|0,0:1|3:2,0:0:0:0:
477,212,237033,5,10,0:0:0:0:
435,309,237202,1,0,3:2:0:0:
326,151,237372,1,10,0:0:0:0:
369,246,237541,1,0,3:2:0:0:
472,98,237711,1,10,0:0:0:0:
472,98,237796,1,10,0:0:0:0:
472,98,237880,2,0,L|411:82,1,42.5,8|8,0:3|0:3,0:0:0:0:
345,26,238050,2,0,L|284:42,1,42.5,8|8,3:3|3:3,0:0:0:0:
229,93,238219,6,0,L|146:76,1,76.4999976654053,6|0,3:2|0:0,0:0:0:0:
95,21,238558,2,0,P|45:65|61:182,1,170,12|0,0:2|3:0,0:0:0:0:
159,319,239067,1,2,0:0:0:0:
220,224,239236,1,12,0:1:0:0:
64,272,239406,1,2,0:0:0:0:
233,219,239575,6,0,L|371:240,1,127.5,0|0,3:0|0:0,0:0:0:0:
420,287,239914,2,0,P|385:325|324:327,1,85,12|2,0:0|0:0,0:0:0:0:
161,270,240253,1,2,3:1:0:0:
270,123,240423,1,2,0:0:0:0:
314,226,240592,1,14,0:1:0:0:
122,75,240762,1,2,0:0:0:0:
160,175,240931,1,4,3:2:0:0:
201,28,241101,6,0,L|254:38,1,42.5,8|8,0:0|0:0,0:0:0:0:
358,62,241270,1,0,3:2:0:0:
358,62,241355,1,0,3:2:0:0:
358,62,241440,1,10,0:0:0:0:
466,177,241609,6,0,L|413:187,1,42.5,8|8,0:0|0:0,0:0:0:0:
309,211,241778,1,0,3:2:0:0:
309,211,241863,1,0,3:2:0:0:
309,211,241948,1,12,0:1:0:0:
380,69,242118,1,2,3:2:0:0:
236,21,242287,6,0,P|244:62|255:124,1,85,2|2,3:2|3:2,0:0:0:0:
86,290,242626,1,2,0:0:0:0:
130,137,242796,1,10,0:0:0:0:
39,197,242965,1,8,0:0:0:0:
122,223,243135,1,10,0:0:0:0:
204,243,243304,2,0,L|274:258,1,42.5,8|0,3:2|0:0,0:0:0:0:
389,129,243474,2,0,L|319:144,1,42.5
430,270,243643,5,6,3:2:0:0:
256,192,243728,12,0,247711,0:0:0:0:
