osu file format v14

[General]
AudioFilename: audio.mp3
AudioLeadIn: 0
PreviewTime: 164575
Countdown: 0
SampleSet: Soft
StackLeniency: 0.7
Mode: 0
LetterboxInBreaks: 0
WidescreenStoryboard: 1

[Editor]
Bookmarks: 226003,243630
DistanceSpacing: 1.6
BeatDivisor: 4
GridSize: 32
TimelineZoom: 1

[Metadata]
Title:LEVEL
TitleUnicode:LEVEL <やなぎなぎ ver.>
Artist:yanaginagi x THE SIXTH LIE
ArtistUnicode:やなぎなぎ×THE SIXTH LIE
Creator:Erisu
Version:Hard
Source:天才王子の赤字国家再生術
Tags:The Genius Gaia Guide to Raising a Nation Out of Debt Hey, How About Treason? Tensai Ouji no Akaji Kokka Saisei Jutsu anime opening japanese pop full ver version lanzhu mayuzumi fuyuko ninym thicc thighs Prince's
BeatmapID:3572629
BeatmapSetID:1745954

[Difficulty]
HPDrainRate:4
CircleSize:3.4
OverallDifficulty:7
ApproachRate:8
SliderMultiplier:1.4
SliderTickRate:1

[Events]
//Background and Video events
0,0,"ninym.jpg",0,0
//Break Periods
2,78419,88317
2,165199,175096
//Storyboard Layer 0 (Background)
//Storyboard Layer 1 (Fail)
//Storyboard Layer 2 (Pass)
//Storyboard Layer 3 (Foreground)
//Storyboard Layer 4 (Overlay)
//Storyboard Sound Samples

[TimingPoints]
1727,344.827586206897,4,2,1,50,1,0
1727,-142.857142857143,4,2,1,50,0,0
12244,-111.111111111111,4,2,1,50,0,0
12416,-166.666666666667,4,2,1,50,0,0
12761,-125,4,2,1,60,0,0
23795,-142.857142857143,4,2,1,50,0,0
25864,-142.857142857143,4,2,1,30,0,0
25951,-142.857142857143,4,2,1,50,0,0
29140,-83.3333333333333,4,2,1,50,0,0
29313,-111.111111111111,4,2,1,50,0,0
32416,-111.111111111111,4,2,1,40,0,0
32761,-111.111111111111,4,2,1,50,0,0
33106,-111.111111111111,4,2,1,60,0,0
34830,338.983050847458,4,2,1,70,1,0
34830,-100,4,2,1,70,0,0
45677,-100,4,2,1,70,0,0
56524,-111.111111111111,4,2,1,60,0,0
61270,-111.111111111111,4,2,1,60,0,0
61948,-111.111111111111,4,2,1,60,0,0
64830,-111.111111111111,4,2,1,40,0,0
65168,-111.111111111111,4,2,1,50,0,0
65507,-111.111111111111,4,2,1,60,0,0
66016,-111.111111111111,4,2,1,70,0,0
66524,-333.333333333333,4,2,1,70,0,0
67372,-105.263157894737,4,2,1,70,0,0
73813,-111.111111111111,4,2,1,70,0,0
77541,-333.333333333333,4,2,1,70,0,0
78219,-1000,4,2,1,40,0,0
78982,-1000,4,2,1,40,0,0
79914,-1000,4,2,1,40,0,0
81694,-1000,4,2,1,40,0,0
82287,-1000,4,2,1,40,0,0
84406,-1000,4,2,1,40,0,0
85338,-1000,4,2,1,40,0,0
87118,-1000,4,2,1,40,0,0
88050,-1000,4,2,1,40,0,0
89067,-142.857142857143,4,2,1,40,0,0
99914,-125,4,2,1,50,0,0
101609,-125,4,2,1,30,0,0
101694,-125,4,2,1,50,0,0
105338,-111.111111111111,4,2,1,50,0,0
108389,-125,4,2,1,40,0,0
108728,-125,4,2,1,50,0,0
109067,-125,4,2,1,60,0,0
110423,-100,4,2,1,60,0,0
110762,-100,4,2,1,70,0,0
116863,-100,4,2,1,70,0,0
119914,-100,4,2,1,70,0,0
121609,-100,4,2,1,70,0,0
127711,-100,4,2,1,70,0,0
132457,-111.111111111111,4,2,1,60,0,0
137201,-111.111111111111,4,2,1,60,0,0
137654,-111.111111111111,4,2,1,60,0,0
137880,-111.111111111111,4,2,1,60,0,0
140762,-111.111111111111,4,2,1,40,0,0
141100,-111.111111111111,4,2,1,50,0,0
141439,-111.111111111111,4,2,1,60,0,0
141948,-111.111111111111,4,2,1,70,0,0
143304,-111.111111111111,4,2,1,60,0,0
154491,-111.111111111111,4,2,1,60,0,0
159745,-111.111111111111,4,2,1,40,0,0
160931,-111.111111111111,4,2,1,50,0,0
161609,-111.111111111111,4,2,1,60,0,0
162287,-100,4,2,1,70,0,0
164830,-62.5,4,2,1,50,0,0
175846,-125,4,2,1,50,0,0
181609,-125,4,2,1,30,0,0
181948,-125,4,2,1,40,0,0
182287,-125,4,2,1,50,0,0
182626,-125,4,2,1,60,0,0
183304,-125,4,2,1,70,0,0
183982,-100,4,2,1,70,0,0
186694,-200,4,2,1,30,0,0
187033,-83.3333333333333,4,2,1,70,0,0
187372,-100,4,2,1,70,0,0
192457,-90.9090909090909,4,2,1,70,0,0
192796,-100,4,2,1,70,0,0
195846,-100,4,2,1,70,0,0
197541,-100,4,2,1,70,0,0
208389,-100,4,2,1,60,0,0
213813,-100,4,2,1,60,0,0
216694,-100,4,2,1,40,0,0
217032,-100,4,2,1,50,0,0
217371,-100,4,2,1,60,0,0
217880,-100,4,2,1,70,0,0
218219,-100,4,2,1,70,0,0
219236,-250,4,2,1,70,0,0
220507,-100,4,2,1,70,0,0
220592,-83.3333333333333,4,2,1,70,0,0
221948,-100,4,2,1,70,0,0
227711,-100,4,2,1,70,0,0
232796,-100,4,2,1,70,0,0
238558,-100,4,2,1,70,0,0
243728,-76.9230769230769,4,2,1,40,0,0
244999,-76.9230769230769,4,2,1,30,0,0
246355,-76.9230769230769,4,2,1,20,0,0
247711,-76.9230769230769,4,2,1,10,0,0

[Colours]
Combo1 : 216,166,133
Combo2 : 138,244,205
Combo3 : 116,173,237
Combo4 : 245,221,137

[HitObjects]
52,321,1727,5,6,3:2:0:0:
52,321,1899,2,0,L|122:309,1,48.9999985046387,2|4,0:0|0:3,0:0:0:0:
412,344,2761,5,4,0:3:0:0:
349,296,2933,2,0,L|358:242,1,48.9999985046387,2|0,0:0|0:0,0:0:0:0:
414,194,3278,1,2,0:0:0:0:
414,194,3451,2,0,L|397:83,1,97.9999970092774,4|0,0:3|0:0,0:0:0:0:
325,22,4485,5,2,0:0:0:0:
325,22,4658,2,0,L|258:37,1,48.9999985046387,2|4,0:0|0:3,0:0:0:0:
20,83,5520,1,4,0:3:0:0:
84,127,5692,2,0,L|93:188,1,48.9999985046387,2|0,0:0|0:0,0:0:0:0:
138,244,6037,1,2,0:0:0:0:
138,244,6209,2,0,P|162:261|229:253,1,97.9999970092774,4|0,0:3|0:0,0:0:0:0:
326,132,6899,1,2,0:1:0:0:
481,175,7244,5,2,0:2:0:0:
481,175,7416,2,0,L|471:230,1,48.9999985046387,2|4,0:0|0:3,0:0:0:0:
302,354,8278,1,4,0:3:0:0:
243,301,8451,2,0,L|174:313,1,48.9999985046387,2|0,0:0|0:0,0:0:0:0:
128,350,8795,1,2,0:0:0:0:
128,350,8968,2,0,B|91:318|91:318|101:255,1,97.9999970092774,4|0,0:3|0:0,0:0:0:0:
14,136,9658,1,4,0:3:0:0:
114,16,10002,5,2,0:0:0:0:
114,16,10175,2,0,P|129:44|129:80,1,48.9999985046387,2|4,0:0|0:3,0:0:0:0:
21,246,11037,1,4,0:3:0:0:
77,301,11209,2,0,L|147:285,1,48.9999985046387,2|0,0:0|0:0,0:0:0:0:
189,243,11554,1,2,0:0:0:0:
189,243,11727,2,0,L|259:259,1,48.9999985046387,4|0,0:3|0:0,0:0:0:0:
399,355,12244,1,4,0:3:0:0:
399,355,12330,1,4,0:3:0:0:
399,355,12416,6,0,P|421:332|414:288,1,62.9999980773926,2|0,0:1|0:0,0:0:0:0:
398,263,12761,6,0,L|406:198,1,56,4|0,3:2|3:2,0:0:0:0:
444,126,13106,1,10,0:0:0:0:
444,126,13278,1,2,0:0:0:0:
366,80,13451,2,0,P|333:83|304:107,1,56,2|0,0:0|0:0,0:0:0:0:
247,154,13795,1,8,0:0:0:0:
155,113,13968,6,0,P|156:59|101:12,1,112,2|0,3:2|0:0,0:0:0:0:
48,77,14485,2,0,L|58:151,1,56,8|2,0:0|0:0,0:0:0:0:
101,212,14830,2,0,L|93:267,1,56,2|2,0:0|3:2,0:0:0:0:
45,343,15175,2,0,P|97:322|169:340,1,112,8|2,0:0|3:2,0:0:0:0:
248,375,15692,5,0,3:2:0:0:
310,310,15864,2,0,P|311:283|296:248,1,56,8|2,0:0|0:0,0:0:0:0:
240,188,16209,2,0,L|181:198,1,56,2|2,0:0|0:0,0:0:0:0:
138,126,16554,1,8,0:0:0:0:
138,126,16727,1,2,3:2:0:0:
316,132,17071,5,2,3:2:0:0:
356,52,17244,2,0,P|354:23|341:-4,2,56,8|2|0,0:0|0:0|0:0,0:0:0:0:
414,120,17761,1,2,3:2:0:0:
471,51,17933,2,0,P|503:82|499:137,1,84,10|0,0:0|0:0,0:0:0:0:
494,163,18278,5,2,3:2:0:0:
494,163,18451,1,0,3:2:0:0:
421,214,18623,2,0,L|437:285,1,56,10|2,0:0|0:0,0:0:0:0:
468,350,18968,2,0,P|416:317|350:325,1,112,2|8,0:0|0:0,0:0:0:0:
266,355,19485,6,0,B|236:307|236:307|254:244,1,112,2|2,3:2|3:2,0:0:0:0:
298,177,20002,2,0,L|278:107,1,56,8|2,0:0|0:0,0:0:0:0:
224,50,20347,2,0,P|203:32|154:35,1,56,2|2,0:0|3:2,0:0:0:0:
99,75,20692,1,8,0:0:0:0:
0,185,21037,6,0,P|7:212|11:244,1,56,2|0,3:2|3:2,0:0:0:0:
88,284,21382,2,0,P|79:310|76:338,2,56,8|2|2,0:0|0:0|0:0,0:0:0:0:
132,206,21899,1,2,3:2:0:0:
219,273,22071,6,0,P|274:261|342:256,1,112,12|4,0:0|3:1,0:0:0:0:
416,230,22589,1,0,3:2:0:0:
480,292,22761,1,8,0:0:0:0:
427,364,22933,1,0,3:2:0:0:
427,364,23020,1,0,3:2:0:0:
427,364,23106,2,0,L|346:355,1,56,8|8,0:0|0:3,0:0:0:0:
292,314,23451,2,0,P|259:315|216:335,1,56,8|8,3:3|3:3,0:0:0:0:
137,369,23795,6,0,P|132:323|121:264,1,97.9999970092774,6|0,3:2|3:2,0:0:0:0:
42,136,24485,2,0,P|90:127|138:150,1,97.9999970092774,8|0,0:0|3:1,0:0:0:0:
190,200,25002,2,0,L|300:188,1,97.9999970092774,2|8,3:2|0:0,0:0:0:0:
343,133,25520,2,0,L|404:145,1,48.9999985046387,2|0,0:1|3:0,0:0:0:0:
465,165,25864,1,14,0:1:0:0:
401,21,26209,1,2,3:2:0:0:
321,14,26382,1,2,0:0:0:0:
321,14,26468,1,2,0:0:0:0:
321,14,26554,6,0,P|269:22|217:33,1,97.9999970092774,0|0,3:0|3:0,0:0:0:0:
191,104,27071,1,0,3:0:0:0:
191,104,27244,2,0,L|114:91,1,73.4999977569581,8|0,0:0|0:0,0:0:0:0:
87,66,27589,1,0,3:0:0:0:
19,121,27761,2,0,P|-3:150|5:218,1,97.9999970092774,2|2,3:2|3:2,0:0:0:0:
72,240,28278,2,0,L|178:221,2,97.9999970092774,2|4|8,3:1|0:1|0:0,0:0:0:0:
58,279,29054,1,8,0:3:0:0:
58,279,29140,1,0,3:2:0:0:
140,332,29313,6,0,B|216:327|191:365|270:353,1,125.999996154785,4|0,3:2|0:0,0:0:0:0:
331,285,29830,1,0,3:2:0:0:
331,285,30002,2,0,P|335:252|312:212,1,62.9999980773926,8|0,0:0|0:0,0:0:0:0:
257,157,30347,1,2,0:0:0:0:
257,157,30520,2,0,P|222:150|176:140,1,62.9999980773926,2|0,3:2|3:2,0:0:0:0:
103,124,30864,1,8,0:0:0:0:
165,54,31037,2,0,P|224:45|308:35,1,125.999996154785,2|8,0:0|0:0,0:0:0:0:
375,77,31554,1,8,0:0:0:0:
375,77,31727,2,0,L|455:97,1,62.9999980773926,8|8,0:3|0:3,0:0:0:0:
487,171,32071,6,0,P|461:211|464:282,1,94.499997116089,12|0,3:2|0:0,0:0:0:0:
439,301,32416,1,0,3:0:0:0:
362,356,32589,1,0,3:0:0:0:
283,303,32761,1,0,3:2:0:0:
352,238,32933,1,8,3:2:0:0:
283,303,33106,1,8,0:0:0:0:
204,251,33278,1,8,0:0:0:0:
262,176,33451,6,0,L|254:124,3,31.4999990386963,8|8|8|8,0:0|0:0|0:3|0:3,0:0:0:0:
221,113,33795,2,0,L|229:61,3,31.4999990386963,0|0|8|8,3:2|3:2|3:3|3:3,0:0:0:0:
255,44,34140,1,8,0:0:0:0:
68,14,34485,2,0,P|48:50|63:112,1,94.499997116089,2|0,0:0|0:0,0:0:0:0:
95,138,34830,6,0,L|80:228,1,70,6|2,3:2|0:0,0:0:0:0:
30,297,35168,2,0,P|78:294|128:339,1,105,8|0,0:0|0:0,0:0:0:0:
165,356,35507,2,0,P|202:359|249:326,1,70,2|2,3:2|0:0,0:0:0:0:
286,256,35846,1,8,0:0:0:0:
205,188,36016,1,2,0:0:0:0:
280,91,36185,6,0,L|362:76,1,70,2|2,3:2|0:0,0:0:0:0:
440,26,36524,2,0,P|488:56|483:129,1,105,8|2,0:0|0:0,0:0:0:0:
465,143,36863,2,0,L|451:243,1,70,2|2,3:2|0:0,0:0:0:0:
497,308,37202,1,8,0:0:0:0:
497,308,37372,1,2,0:0:0:0:
391,375,37541,6,0,B|306:375|348:329|249:330,1,140,2|8,3:2|0:0,0:0:0:0:
164,288,38050,2,0,L|176:217,1,70,2|2,0:0|3:2,0:0:0:0:
265,163,38389,1,2,0:0:0:0:
265,163,38558,2,0,L|253:92,1,70,10|2,0:0|0:0,0:0:0:0:
160,25,38897,6,0,B|105:17|105:17|48:63,1,105,2|0,3:2|0:0,0:0:0:0:
33,88,39236,2,0,P|44:122|51:170,1,70,8|2,0:0|0:0,0:0:0:0:
3,250,39575,1,2,3:2:0:0:
57,340,39745,1,2,3:2:0:0:
153,300,39914,1,8,0:0:0:0:
159,194,40084,6,0,L|310:215,1,140,6|0,3:2|3:2,0:0:0:0:
379,279,40592,2,0,P|411:265|464:261,1,70,12|2,0:1|0:0,0:0:0:0:
489,164,40931,2,0,P|457:150|404:146,1,70,2|2,3:2|0:0,0:0:0:0:
484,60,41270,1,8,0:0:0:0:
484,60,41440,1,2,0:0:0:0:
365,14,41609,6,0,P|294:34|235:46,1,105,2|0,3:2|0:0,0:0:0:0:
213,55,41948,2,0,P|202:91|229:140,1,70,8|2,0:0|0:0,0:0:0:0:
281,200,42287,2,0,P|273:242|268:279,1,70,2|2,3:2|0:0,0:0:0:0:
196,357,42626,1,8,0:0:0:0:
32,203,42965,6,0,P|27:170|54:124,1,70,12|0,0:0|3:2,0:0:0:0:
106,54,43304,1,0,3:2:0:0:
162,143,43474,2,0,L|251:134,1,70,12|0,0:0|3:2,0:0:0:0:
317,75,43813,1,8,3:2:0:0:
396,143,43982,2,0,L|380:295,1,140,4|0,3:2|0:0,0:0:0:0:
303,353,44491,5,0,3:0:0:0:
303,353,44575,1,0,3:0:0:0:
303,353,44660,1,12,0:0:0:0:
215,295,44830,1,0,3:0:0:0:
134,361,44999,2,0,L|119:318,3,35,12|8|8|8,0:1|0:0|0:0|0:0,0:0:0:0:
94,283,45338,2,0,L|109:240,3,35,8|8|8|8,3:3|3:3|0:0|0:0,0:0:0:0:
136,207,45677,6,0,L|122:127,1,70,6|2,3:2|0:0,0:0:0:0:
182,50,46015,2,0,B|242:56|216:82|280:92,1,105,8|0,0:0|0:0,0:0:0:0:
317,124,46354,2,0,L|409:107,1,70,2|2,3:2|0:0,0:0:0:0:
485,158,46693,1,8,0:0:0:0:
485,158,46863,1,2,0:0:0:0:
418,238,47032,6,0,P|414:275|409:333,1,70,2|2,3:2|0:0,0:0:0:0:
318,358,47371,2,0,P|262:370|214:315,1,105,8|0,0:0|0:0,0:0:0:0:
187,308,47710,2,0,L|196:238,1,70,2|2,3:2|0:0,0:0:0:0:
166,137,48049,1,8,0:0:0:0:
232,55,48219,1,2,0:0:0:0:
135,13,48388,6,0,P|84:36|74:105,1,105,2|0,3:2|0:0,0:0:0:0:
80,132,48728,2,0,L|68:201,1,70,8|2,0:0|0:0,0:0:0:0:
57,305,49067,1,2,3:2:0:0:
57,305,49236,1,2,0:0:0:0:
146,359,49405,2,0,P|178:350|220:346,1,70,10|2,0:0|0:0,0:0:0:0:
296,265,49744,6,0,B|341:276|341:276|352:288|352:288|406:303,1,105,2|0,3:2|0:0,0:0:0:0:
429,286,50083,2,0,P|422:251|412:218,1,70,8|2,0:0|0:0,0:0:0:0:
477,135,50422,1,2,3:2:0:0:
430,47,50592,1,2,3:2:0:0:
430,47,50761,1,8,0:0:0:0:
320,29,50931,6,0,L|169:50,1,140,6|0,3:2|3:2,0:0:0:0:
79,23,51439,2,0,P|62:53|72:116,1,70,12|2,0:1|0:0,0:0:0:0:
97,185,51778,2,0,P|126:206|163:204,1,70,2|2,3:2|0:0,0:0:0:0:
234,127,52117,1,8,0:0:0:0:
234,127,52287,1,2,0:0:0:0:
343,169,52456,6,0,P|406:179|473:201,1,105,2|0,3:2|0:0,0:0:0:0:
496,201,52795,2,0,P|507:237|480:286,1,70,8|2,0:0|0:0,0:0:0:0:
415,332,53134,2,0,P|372:324|336:319,1,70,2|2,3:2|0:0,0:0:0:0:
251,366,53474,2,0,P|224:323|241:249,1,105,8|0,0:0|0:0,0:0:0:0:
267,236,53813,6,0,L|256:149,1,70,2|2,3:2|0:0,0:0:0:0:
313,77,54152,1,12,0:1:0:0:
313,77,54321,1,2,3:2:0:0:
225,18,54491,2,0,L|175:31,3,35,8|8|0|0,0:0|0:0|3:2|3:2,0:0:0:0:
151,61,54830,2,0,L|90:48,3,35,8|8|8|8,0:3|0:3|3:3|3:3,0:0:0:0:
75,21,55168,6,0,P|50:48|46:101,1,70,12|8,0:0|0:0,0:0:0:0:
52,131,55423,1,8,0:0:0:0:
52,131,55507,1,0,3:2:0:0:
114,215,55677,2,0,L|105:261,2,35,8|8|0,0:0|0:0|3:2,0:0:0:0:
190,142,56016,1,8,0:3:0:0:
190,142,56185,1,8,3:3:0:0:
266,214,56355,1,8,3:3:0:0:
338,127,56524,6,0,B|411:111|388:167|470:150,1,125.999996154785,4|4,3:2|0:3,0:0:0:0:
498,238,57033,1,2,3:2:0:0:
498,238,57202,2,0,P|446:243|404:294,1,94.499997116089,8|0,0:0|0:0,0:0:0:0:
389,309,57541,1,4,0:3:0:0:
300,363,57711,1,2,3:2:0:0:
300,363,57880,6,0,P|253:352|153:342,1,125.999996154785,2|4,3:2|0:3,0:0:0:0:
223,260,58389,1,2,3:2:0:0:
223,260,58558,2,0,P|221:229|181:192,1,62.9999980773926,8|2,0:0|3:2,0:0:0:0:
210,108,58897,2,0,P|182:94|130:110,1,62.9999980773926,4|2,0:3|0:0,0:0:0:0:
107,117,59152,1,2,0:0:0:0:
107,117,59236,6,0,B|62:160|62:160|86:242,1,125.999996154785,4|4,3:2|0:3,0:0:0:0:
38,307,59745,1,0,3:2:0:0:
38,307,59914,2,0,B|109:293|82:360|171:337,1,125.999996154785,8|4,0:0|0:3,0:0:0:0:
230,285,60423,1,2,0:0:0:0:
230,285,60592,6,0,L|306:298,1,62.9999980773926,0|8,3:2|0:0,0:0:0:0:
379,331,60931,2,0,L|430:322,3,31.4999990386963,8|8|8|8,0:3|0:3|0:3|0:3,0:0:0:0:
438,294,61270,2,0,P|480:299|514:325,2,83.9999974365235,4|4|4,3:2|3:2|3:2,0:0:0:0:
351,207,61948,6,0,P|346:142|404:89,1,125.999996154785,4|4,3:2|0:3,0:0:0:0:
469,58,62457,1,0,3:2:0:0:
382,97,62626,2,0,P|314:107|236:117,1,125.999996154785,8|4,0:0|0:3,0:0:0:0:
192,51,63135,1,2,0:0:0:0:
192,51,63304,5,0,3:2:0:0:
111,101,63474,2,0,L|37:90,2,62.9999980773926,8|8|0,0:0|0:0|3:0,0:0:0:0:
144,135,63897,1,0,3:0:0:0:
144,135,63982,1,8,0:3:0:0:
199,211,64152,2,0,P|191:247|185:291,1,62.9999980773926,8|8,0:3|3:3,3:3:0:0:
216,383,64491,6,0,P|288:372|367:367,1,125.999996154785,12|0,0:0|3:0,0:0:0:0:
440,348,64999,2,0,P|433:311|396:280,1,62.9999980773926,0|0,3:0|3:2,0:0:0:0:
461,210,65338,1,8,3:2:0:0:
461,210,65507,1,8,3:2:0:0:
391,145,65677,2,0,P|362:169|354:222,1,62.9999980773926,8|8,3:2|3:2,0:0:0:0:
277,244,66016,5,8,3:2:0:0:
277,244,66101,1,8,0:3:0:0:
277,244,66185,1,0,3:3:0:0:
200,300,66355,1,8,3:2:0:0:
131,222,66524,6,0,L|143:125,1,94.4999971160889,4|0,3:1|0:0,0:0:0:0:
160,80,67372,6,0,P|140:61|94:57,1,66.4999982242585,4|2,3:2|0:0,0:0:0:0:
17,107,67711,1,8,0:0:0:0:
17,107,67880,1,2,0:0:0:0:
18,207,68050,2,0,L|29:278,1,66.4999982242585,0|2,3:0|0:0,0:0:0:0:
82,356,68389,1,8,0:0:0:0:
168,287,68558,6,0,B|248:283|214:323|317:312,1,132.999996448517,2|2,0:0|0:0,0:0:0:0:
392,361,69067,2,0,L|464:351,1,66.4999982242585,10|2,0:0|0:0,0:0:0:0:
409,256,69406,1,2,3:1:0:0:
409,256,69575,1,2,0:0:0:0:
458,161,69745,1,10,0:1:0:0:
458,161,69914,1,2,0:0:0:0:
368,78,70084,6,0,P|332:75|303:99,1,66.4999982242585,0|2,3:2|0:0,0:0:0:0:
205,83,70423,1,8,0:0:0:0:
205,83,70592,1,2,0:0:0:0:
144,162,70762,2,0,L|155:240,1,66.4999982242585,0|2,3:0|0:0,0:0:0:0:
93,316,71101,1,8,0:0:0:0:
23,227,71270,6,0,P|31:166|40:80,1,132.999996448517,2|2,0:0|0:0,0:0:0:0:
117,22,71779,2,0,P|153:22|190:54,1,66.4999982242585,12|2,0:0|0:0,0:0:0:0:
264,100,72118,1,10,0:1:0:0:
339,25,72287,1,8,0:0:0:0:
339,25,72372,1,8,0:0:0:0:
339,25,72457,2,0,L|398:35,3,33.2499991121292,10|8|8|8,0:1|0:0|0:0|0:0,0:0:0:0:
422,45,72796,6,0,P|453:66|459:114,1,66.4999982242585,4|2,3:2|0:0,0:0:0:0:
391,182,73135,2,0,L|401:260,1,66.4999982242585,12|2,0:2|0:0,0:0:0:0:
357,348,73474,1,0,3:0:0:0:
357,348,73643,1,2,0:0:0:0:
280,276,73813,2,0,P|250:272|204:265,1,62.9999980773926,12|2,0:1|0:0,0:0:0:0:
126,335,74152,6,0,P|87:300|90:232,1,94.499997116089,0|0,3:0|0:0,0:0:0:0:
83,216,74491,2,0,L|93:138,1,62.9999980773926,12|2,0:0|0:0,0:0:0:0:
172,93,74830,1,2,3:1:0:0:
172,93,74999,1,2,0:0:0:0:
235,170,75168,2,0,L|221:228,3,31.4999990386963,14|0|2|0,0:1|0:0|0:0|0:0,0:0:0:0:
217,250,75507,6,0,P|248:254|279:258,1,62.9999980773926,12|0,3:2|3:2,0:0:0:0:
365,312,75846,1,0,3:2:0:0:
444,249,76016,2,0,P|448:218|428:180,1,62.9999980773926,12|0,3:2|3:2,0:0:0:0:
360,122,76355,1,0,3:2:0:0:
431,51,76524,2,0,L|351:39,1,62.9999980773926,4|0,3:1|3:2,0:0:0:0:
251,9,76863,5,0,3:2:0:0:
205,102,77033,1,8,0:0:0:0:
252,190,77202,1,8,0:0:0:0:
252,190,77287,1,8,0:3:0:0:
252,190,77372,1,0,3:2:0:0:
205,278,77541,6,0,L|131:285,1,73.4999977569581,8|0,0:0|0:0,0:0:0:0:
104,289,78219,5,4,3:2:0:0:
54,61,89067,5,2,3:2:0:0:
115,109,89236,2,0,L|179:101,1,48.9999985046387,0|2,3:2|0:0,0:0:0:0:
234,136,89575,1,0,3:2:0:0:
295,88,89744,2,0,L|359:96,1,48.9999985046387,0|2,1:0|0:0,0:0:0:0:
413,56,90084,2,0,P|447:93|443:154,1,97.9999970092774,0|2,0:0|0:0,0:0:0:0:
393,193,90592,6,0,L|381:251,1,48.9999985046387
423,314,90931,1,0,3:2:0:0:
423,314,91101,1,0,1:0:0:0:
276,367,91440,2,0,P|234:349|164:340,1,97.9999970092774,2|0,0:0|3:2,0:0:0:0:
142,272,91948,5,2,3:2:0:0:
206,226,92118,2,0,L|198:166,1,48.9999985046387,2|0,0:0|3:2,0:0:0:0:
142,123,92457,2,0,L|150:63,1,48.9999985046387,2|2,1:2|0:0,0:0:0:0:
106,7,92796,1,0,0:0:0:0:
106,7,92965,6,0,B|51:9|51:9|16:58,1,97.9999970092774,2|0,0:0|0:0,0:0:0:0:
8,121,93474,2,0,L|21:179,1,48.9999985046387,0|0,0:0|3:2,0:0:0:0:
70,228,93813,2,0,L|59:275,1,48.9999985046387,2|0,1:2|3:2,0:0:0:0:
27,347,94152,1,0,3:2:0:0:
169,280,94491,6,0,P|219:279|254:326,1,97.9999970092774,2|2,3:2|0:0,0:0:0:0:
314,357,94999,1,0,3:2:0:0:
378,313,95168,2,0,L|390:253,1,48.9999985046387,0|2,1:0|0:0,0:0:0:0:
439,205,95507,1,0,0:0:0:0:
439,205,95677,6,0,L|426:96,1,97.9999970092774,2|0,0:0|0:0,0:0:0:0:
381,44,96185,2,0,P|351:44|321:61,1,48.9999985046387,0|0,0:0|3:2,0:0:0:0:
284,112,96524,1,0,1:0:0:0:
209,250,96863,1,0,0:0:0:0:
136,220,97033,2,0,L|127:117,1,97.9999970092774,0|2,0:0|3:2,0:0:0:0:
111,45,97541,2,0,P|135:28|168:37,1,48.9999985046387,2|0,0:0|3:2,0:0:0:0:
228,55,97880,2,0,P|254:68|263:100,1,48.9999985046387,2|2,1:2|0:0,0:0:0:0:
257,163,98219,1,0,0:0:0:0:
313,309,98558,6,0,P|361:325|411:288,1,97.9999970092774,2|2,3:2|0:0,0:0:0:0:
443,237,99067,2,0,L|485:243,2,24.4999992523194,8|8|8,0:0|0:0|0:3,0:0:0:0:
392,176,99406,1,8,0:3:0:0:
392,176,99575,1,8,3:2:0:0:
454,127,99745,1,8,3:2:0:0:
398,56,99914,6,0,P|344:56|298:112,1,112,4|0,3:2|0:0,0:0:0:0:
126,62,100592,2,0,P|153:108|224:120,1,112,0|4,3:0|3:3,0:0:0:0:
265,294,101270,2,0,P|292:247|266:179,1,112,2|4,3:1|0:1,0:0:0:0:
151,319,101948,2,0,L|81:308,1,56,0|8,3:2|0:3,0:0:0:0:
26,253,102287,1,0,0:0:0:0:
26,253,102457,1,0,3:2:0:0:
98,200,102626,6,0,P|92:149|83:84,1,112,4|2,3:2|0:1,0:0:0:0:
247,14,103304,2,0,P|238:69|232:125,1,112,0|2,3:2|0:1,0:0:0:0:
422,223,103982,2,0,L|410:150,2,74.6666666666667,8|8|8,3:3|3:3|3:3,0:0:0:0:
414,256,104547,1,8,0:0:0:0:
414,256,104660,2,0,P|351:259|318:315,1,112,8|10,3:2|0:2,0:0:0:0:
132,363,105338,6,0,B|113:298|113:298|144:231,1,125.999996154785,4|2,3:2|0:1,0:0:0:0:
220,188,105846,1,0,0:0:0:0:
220,188,106016,2,0,L|301:198,1,62.9999980773926,8|2,0:0|0:1,0:0:0:0:
375,239,106355,1,2,0:1:0:0:
375,239,106524,2,0,P|410:232|456:222,1,62.9999980773926,0|0,0:0|3:2,0:0:0:0:
499,151,106863,5,0,0:0:0:0:
441,75,107033,2,0,P|390:37|316:51,1,125.999996154785,2|8,0:1|0:0,0:0:0:0:
243,53,107541,1,0,3:2:0:0:
243,53,107626,1,0,3:2:0:0:
243,53,107711,2,0,L|247:10,2,31.4999990386963,8|8|8,0:3|0:3|3:3,0:0:0:0:
171,115,108050,6,0,L|194:230,1,94.499997116089,4|0,3:2|0:0,0:0:0:0:
192,252,108389,1,0,3:0:0:0:
124,312,108558,1,0,3:0:0:0:
47,268,108728,1,0,3:2:0:0:
66,179,108897,1,8,3:2:0:0:
154,170,109067,1,8,0:0:0:0:
192,252,109236,1,8,0:0:0:0:
266,327,109406,6,0,L|312:320,3,28,8|8|8|8,0:0|0:0|0:3|0:3,0:0:0:0:
327,297,109745,2,0,L|373:304,3,28,0|0|8|8,3:2|3:2|3:3|3:3,0:0:0:0:
382,333,110084,1,8,0:0:0:0:
470,275,110253,1,8,0:0:0:0:
470,275,110338,1,8,0:0:0:0:
470,275,110423,2,0,L|481:224,3,35,8|8|8|8,0:0|0:0|3:3|3:3,0:0:0:0:
471,201,110762,6,0,P|439:178|393:181,1,70,6|2,3:2|0:0,0:0:0:0:
360,82,111101,2,0,P|324:98|303:139,1,70,8|2,0:0|0:0,0:0:0:0:
242,204,111439,2,0,B|325:195|285:260|380:251,1,140,2|8,3:2|0:0,0:0:0:0:
433,336,111948,1,2,0:0:0:0:
317,355,112117,6,0,P|282:359|248:367,1,70,2|2,3:2|0:0,0:0:0:0:
157,304,112456,2,0,P|145:254|175:191,1,105,8|0,0:0|0:0,0:0:0:0:
188,174,112796,2,0,L|170:95,1,70,2|2,3:2|0:0,0:0:0:0:
110,28,113134,1,8,0:0:0:0:
110,28,113304,1,2,0:0:0:0:
9,102,113473,6,0,B|35:250,1,140,2|8,3:2|0:0,0:0:0:0:
81,334,113982,2,0,P|115:345|158:333,1,70,2|2,0:0|3:2,0:0:0:0:
248,308,114321,1,2,0:0:0:0:
176,231,114490,2,0,L|189:149,1,70,10|2,0:0|0:0,0:0:0:0:
257,64,114829,6,0,B|321:68|291:97|369:102,1,105,2|0,3:2|0:0,0:0:0:0:
398,102,115168,2,0,P|409:136|416:184,1,70,8|2,0:0|0:0,0:0:0:0:
490,243,115507,1,2,3:2:0:0:
490,243,115677,1,2,3:2:0:0:
437,333,115846,1,8,0:0:0:0:
335,270,116016,6,0,B|269:285|269:285|257:297|257:297|195:315,1,140,6|0,3:2|3:2,0:0:0:0:
234,212,116524,2,0,L|326:189,1,70,12|2,0:1|0:0,0:0:0:0:
406,207,116863,2,0,P|429:176|424:126,1,70,2|2,3:2|0:0,0:0:0:0:
371,65,117202,1,8,0:0:0:0:
371,65,117372,1,2,0:0:0:0:
263,23,117541,6,0,P|207:26|171:73,1,105,2|0,3:2|0:0,0:0:0:0:
164,104,117880,2,0,P|171:141|177:189,1,70,8|2,0:0|0:0,0:0:0:0:
267,224,118219,2,0,P|259:266|254:303,1,70,2|2,3:2|0:0,0:0:0:0:
184,371,118558,2,0,P|143:341|74:341,1,105,8|0,0:0|0:0,0:0:0:0:
60,344,118897,6,0,P|56:313|48:262,1,70,12|0,0:0|3:2,0:0:0:0:
12,176,119236,1,0,3:2:0:0:
113,128,119406,2,0,L|202:139,1,70,12|0,0:0|3:2,0:0:0:0:
244,221,119745,1,8,3:2:0:0:
351,175,119914,2,0,P|377:103|331:44,1,140,4|0,3:1|0:0,0:0:0:0:
250,80,120423,5,0,3:0:0:0:
250,80,120507,1,0,3:0:0:0:
250,80,120592,1,12,0:0:0:0:
159,25,120762,1,0,0:0:0:0:
64,70,120931,2,0,L|68:107,3,35,0|0|8|8,3:0|3:0|3:3|3:3,0:0:0:0:
55,156,121270,1,12,0:1:0:0:
105,359,121609,6,0,P|108:329|116:266,1,70,4|2,3:2|0:0,0:0:0:0:
213,321,121947,2,0,P|265:314|327:308,1,105,8|0,0:0|0:0,0:0:0:0:
359,339,122286,2,0,L|451:322,1,70,2|2,3:2|0:0,0:0:0:0:
499,249,122625,1,8,0:0:0:0:
433,166,122795,1,2,0:0:0:0:
328,221,122964,6,0,P|293:217|258:213,1,70,2|2,3:2|0:0,0:0:0:0:
164,166,123303,2,0,P|153:119|199:66,1,105,8|0,0:0|0:0,0:0:0:0:
222,52,123642,2,0,L|295:60,1,70,2|2,3:2|0:0,0:0:0:0:
384,10,123981,1,8,0:0:0:0:
384,10,124151,1,2,0:0:0:0:
472,66,124320,6,0,P|458:116|450:174,1,105,2|0,3:2|0:0,0:0:0:0:
403,193,124660,2,0,P|412:226|417:267,1,70,8|2,0:0|0:0,0:0:0:0:
478,353,124999,1,2,3:2:0:0:
478,353,125168,1,2,0:0:0:0:
373,352,125337,2,0,P|341:361|299:365,1,70,10|2,0:0|0:0,0:0:0:0:
200,350,125676,6,0,B|181:303|181:303|206:251,1,105,2|0,3:2|0:0,0:0:0:0:
253,235,126015,2,0,P|246:200|236:167,1,70,8|2,0:0|0:0,0:0:0:0:
266,66,126354,1,2,3:2:0:0:
170,33,126524,1,2,3:2:0:0:
170,33,126693,1,8,0:0:0:0:
92,104,126863,6,0,B|63:128|63:128|86:255,1,140,6|0,3:2|3:2,0:0:0:0:
164,293,127371,2,0,L|157:386,1,70,12|2,0:1|0:0,0:0:0:0:
262,339,127711,2,0,L|268:250,1,70,2|2,3:2|0:0,0:0:0:0:
192,203,128049,1,8,0:0:0:0:
192,203,128219,1,2,0:0:0:0:
248,114,128388,6,0,B|293:123|293:123|302:136|302:136|375:150,1,105,2|0,3:2|0:0,0:0:0:0:
396,150,128727,2,0,P|407:186|380:235,1,70,8|2,0:0|0:0,0:0:0:0:
333,299,129066,2,0,P|290:291|254:286,1,70,2|2,3:2|0:0,0:0:0:0:
173,232,129406,2,0,P|146:189|163:115,1,105,8|0,0:0|0:0,0:0:0:0:
197,113,129745,6,0,L|186:26,1,70,6|2,3:2|0:0,0:0:0:0:
90,20,130084,1,2,3:2:0:0:
90,20,130253,1,8,3:2:0:0:
34,109,130423,2,0,L|42:155,3,35,2|0|0|0,3:2|0:0|3:2|3:2,0:0:0:0:
67,188,130762,2,0,L|57:232,3,35,10|0|0|0,3:2|0:0|3:2|3:2,0:0:0:0:
41,271,131100,6,0,P|77:281|107:311,1,70,4|0,3:1|0:0,0:0:0:0:
186,365,131440,2,0,L|278:353,1,70,8|8,0:3|3:3,0:0:0:0:
295,357,131694,1,0,0:0:0:0:
295,357,131779,1,2,0:0:0:0:
374,288,131948,1,8,0:3:0:0:
289,225,132117,1,8,3:3:0:0:
361,148,132287,1,8,3:3:0:0:
287,58,132457,6,0,B|226:38|226:38|157:76,1,125.999996154785,4|2,3:2|3:1,0:0:0:0:
217,163,132965,1,2,3:2:0:0:
217,163,133135,2,0,P|225:202|235:291,1,125.999996154785,8|2,0:0|3:1,0:0:0:0:
179,372,133643,6,0,P|144:370|118:333,1,62.9999980773926,2|2,3:2|0:2,0:0:0:0:
40,308,133982,2,0,P|24:276|43:235,1,62.9999980773926,2|2,3:2|0:1,0:0:0:0:
105,193,134321,1,2,3:2:0:0:
24,143,134491,2,0,L|12:67,1,62.9999980773926,8|2,0:0|3:2,0:0:0:0:
87,21,134830,2,0,L|96:83,1,62.9999980773926,2|10,3:1|0:0,0:0:0:0:
132,114,135084,1,2,0:0:0:0:
132,114,135168,6,0,B|200:120|179:83|263:88,1,125.999996154785,4|2,3:2|0:1,0:0:0:0:
335,27,135677,1,0,3:2:0:0:
428,64,135846,2,0,P|406:110|396:188,1,125.999996154785,8|2,0:0|0:1,0:0:0:0:
442,279,136355,1,2,0:0:0:0:
442,279,136524,6,0,P|410:297|366:292,1,62.9999980773926,2|8,3:2|0:0,0:0:0:0:
283,287,136863,2,0,L|238:278,3,31.4999990386963,8|8|8|8,0:3|0:3|0:3|0:3,0:0:0:0:
210,287,137202,2,0,P|222:332|227:381,2,83.9999974365235,4|4|4,3:2|3:2|3:2,0:0:0:0:
121,223,137880,6,0,P|116:158|174:105,1,125.999996154785,4|2,3:2|3:1,0:0:0:0:
65,62,138389,1,0,3:2:0:0:
5,142,138558,2,0,L|21:257,1,94.499997116089,8|0,0:0|0:0,0:0:0:0:
27,285,138897,1,6,0:1:0:0:
123,343,139067,6,0,B|169:347|169:347|199:359|199:359|263:362,1,125.999996154785,6|8,0:0|0:0,0:0:0:0:
288,333,139491,1,0,0:0:0:0:
288,333,139575,1,8,0:3:0:0:
376,284,139745,2,0,L|430:293,2,31.4999990386963,0|0|8,3:2|3:2|3:3,0:0:0:0:
306,210,140084,1,8,0:2:0:0:
306,210,140253,1,8,3:3:0:0:
399,170,140423,6,0,P|414:104|373:35,1,125.999996154785,12|0,0:0|3:0,0:0:0:0:
294,25,140931,2,0,P|261:37|241:77,1,62.9999980773926,0|0,3:0|3:2,0:0:0:0:
168,115,141270,1,8,3:2:0:0:
168,115,141440,1,8,3:2:0:0:
219,201,141609,1,8,3:2:0:0:
219,201,141779,1,8,3:2:0:0:
162,284,141948,6,0,L|114:275,3,31.4999990386963,8|8|0|0,3:2|3:3|3:3|3:3,0:0:0:0:
93,244,142287,2,0,L|45:253,3,31.4999990386963,0|8|0|0,3:2|3:3|3:3|3:3,0:0:0:0:
16,227,142626,1,12,3:1:0:0:
70,147,142796,1,8,3:1:0:0:
6,75,142965,2,0,L|16:30,3,31.4999990386963,8|8|8|8,0:3|0:3|3:3|3:3,0:0:0:0:
53,14,143304,5,4,3:2:0:0:
126,55,143643,1,0,3:0:0:0:
254,146,143982,5,0,3:0:0:0:
327,105,144321,1,0,3:0:0:0:
234,17,144660,5,0,3:0:0:0:
234,17,144999,1,0,3:0:0:0:
254,146,145338,6,0,L|242:281,1,125.999996154785,0|0,3:0|3:0,0:0:0:0:
384,367,146016,5,0,3:0:0:0:
419,289,146355,1,0,3:0:0:0:
463,102,146694,5,0,3:0:0:0:
498,180,147033,1,0,3:0:0:0:
330,119,147372,5,0,3:0:0:0:
365,41,147711,1,0,3:0:0:0:
376,194,148050,6,0,P|310:210|256:166,1,125.999996154785,0|0,3:0|3:0,0:0:0:0:
209,124,148558,1,0,0:0:0:0:
209,124,148643,1,0,0:0:0:0:
209,124,148728,5,4,3:2:0:0:
136,174,149067,1,0,3:0:0:0:
29,298,149406,5,0,3:0:0:0:
102,348,149745,1,0,3:0:0:0:
229,237,150084,5,0,3:0:0:0:
229,237,150423,1,0,3:0:0:0:
39,208,150763,6,0,P|32:148|27:82,1,125.999996154785,0|0,3:0|3:0,0:0:0:0:
237,56,151440,5,0,3:0:0:0:
166,101,151779,1,0,3:0:0:0:
338,147,152118,5,0,3:0:0:0:
409,192,152457,1,0,3:0:0:0:
270,275,152796,5,0,3:0:0:0:
199,320,153135,1,0,3:0:0:0:
138,269,153304,1,0,0:0:0:0:
138,269,153389,1,0,0:0:0:0:
138,269,153474,2,0,P|126:237|152:202,1,62.9999980773926,8|8,0:0|0:3,0:0:0:0:
140,130,153813,1,0,3:3:0:0:
140,130,153982,1,8,0:0:0:0:
244,98,154152,6,0,B|308:80|299:138|374:119,1,125.999996154785,4|0,3:2|3:3,0:0:0:0:
444,170,154660,1,2,0:0:0:0:
387,245,154830,2,0,P|317:246|294:309,1,125.999996154785,2|2,3:2|3:2,0:0:0:0:
223,358,155338,1,2,0:0:0:0:
130,379,155508,6,0,L|67:368,1,62.9999980773926,0|2,3:3|0:0,0:0:0:0:
40,278,155846,2,0,P|38:245|68:202,1,62.9999980773926,8|2,0:0|0:0,0:0:0:0:
129,165,156185,1,0,3:3:0:0:
129,165,156355,1,10,0:0:0:0:
92,78,156524,1,2,3:2:0:0:
175,30,156694,1,0,3:2:0:0:
175,30,156779,1,8,0:0:0:0:
175,30,156863,6,0,P|232:34|271:100,1,125.999996154785,0|8,3:2|0:0,0:0:0:0:
315,170,157372,1,2,0:0:0:0:
253,242,157542,2,0,L|264:308,1,62.9999980773926,2|8,3:2|0:0,0:0:0:0:
363,291,157880,2,0,L|374:229,1,62.9999980773926,2|2,3:2|0:0,0:0:0:0:
431,145,158219,1,0,3:2:0:0:
431,145,158389,1,2,0:0:0:0:
370,56,158558,6,0,B|298:56|321:96|255:101,1,125.999996154785,8|0,0:0|3:2,0:0:0:0:
184,45,159067,1,8,0:0:0:0:
184,45,159152,1,8,0:0:0:0:
184,45,159236,2,0,L|135:60,3,31.4999990386963,0|0|8|8,3:2|3:2|3:3|3:3,0:0:0:0:
106,36,159575,5,4,3:2:0:0:
36,102,159745,2,0,L|48:176,1,62.9999980773926,2|2,0:0|0:0,0:0:0:0:
113,238,160084,1,2,0:0:0:0:
113,238,160253,2,0,L|101:312,1,62.9999980773926,0|0,3:0|3:0,0:0:0:0:
39,370,160592,1,8,0:2:0:0:
39,370,160762,1,8,0:2:0:0:
0,283,160931,1,8,0:2:0:0:
102,300,161101,6,0,B|154:307|154:307|164:316|164:316|227:327,1,125.999996154785,8|8,0:2|0:2,0:0:0:0:
312,357,161609,1,8,0:2:0:0:
312,357,161779,1,8,0:2:0:0:
330,270,161948,1,8,0:2:0:0:
255,218,162118,1,8,0:2:0:0:
255,218,162202,1,8,0:2:0:0:
255,218,162287,6,0,L|270:125,1,70,12|0,3:2|3:2,0:0:0:0:
318,67,162626,1,0,3:2:0:0:
419,141,162796,6,0,L|434:234,1,70,12|0,3:2|3:2,0:0:0:0:
487,280,163135,1,0,3:2:0:0:
382,360,163304,6,0,L|289:345,1,70,12|0,3:2|3:2,0:0:0:0:
235,295,163643,1,12,3:2:0:0:
235,295,163728,1,0,3:2:0:0:
235,295,163813,1,0,3:2:0:0:
167,354,163982,2,0,L|121:344,3,35,0|0|0|0,3:2|3:2|3:2|3:2,0:0:0:0:
85,358,164321,1,8,3:2:0:0:
85,358,164491,1,0,3:2:0:0:
22,294,164660,1,8,3:2:0:0:
79,224,164830,1,2,0:0:0:0:
11,152,164999,5,4,3:2:0:0:
424,74,175846,6,0,P|422:96|416:141,1,56,4|0,3:1|0:0,0:0:0:0:
352,182,176185,2,0,P|353:204|360:249,1,56,2|0,3:2|0:0,0:0:0:0:
431,278,176524,1,0,3:2:0:0:
280,352,176863,2,0,L|273:281,1,56,0|0,3:2|0:0,0:0:0:0:
194,235,177202,6,0,P|195:212|202:168,1,56,0|0,3:2|0:0,0:0:0:0:
266,127,177541,2,0,P|264:104|258:60,1,56,2|0,3:2|0:0,0:0:0:0:
190,24,177880,2,0,P|130:19|104:50,1,84,0|0,3:2|0:0,0:0:0:0:
84,61,178219,2,0,L|75:128,1,56,0|4,3:2|0:3,0:0:0:0:
21,199,178558,2,0,P|34:319|34:320,2,112,0|2|2,3:2|3:2|3:2,0:0:0:0:
175,131,179575,1,2,3:2:0:0:
153,297,179914,6,0,P|199:276|271:288,1,112,0|2,3:2|3:2,0:0:0:0:
398,375,180592,2,0,P|343:381|292:360,1,112,2|2,3:2|3:2,0:0:0:0:
258,282,181101,1,0,0:0:0:0:
324,231,181270,6,0,L|314:121,1,84,12|0,0:0|0:0,0:0:0:0:
287,116,181609,2,0,P|289:92|316:57,1,56,0|0,3:0|3:0,0:0:0:0:
367,8,181948,2,0,P|390:1|432:15,1,56,0|0,3:2|3:2,0:0:0:0:
480,67,182287,2,0,L|470:144,1,56,8|8,3:2|0:0,0:0:0:0:
414,182,182626,5,8,3:2:0:0:
414,182,182796,1,8,0:0:0:0:
359,246,182965,1,8,0:0:0:0:
359,246,183135,1,8,0:0:0:0:
417,313,183304,1,8,0:0:0:0:
417,313,183474,1,8,0:0:0:0:
353,368,183643,2,0,L|307:359,3,28,8|8|8|8,3:2|3:2|3:3|3:3,0:0:0:0:
283,331,183982,6,0,L|209:346,1,70,4|0,3:2|3:0,0:0:0:0:
123,291,184321,1,0,3:0:0:0:
180,203,184491,2,0,P|206:219|218:263,1,70,4|0,3:2|3:0,0:0:0:0:
123,291,184830,1,0,3:0:0:0:
50,215,184999,2,0,L|59:132,1,70,12|0,0:0|3:0,0:0:0:0:
18,53,185338,5,0,3:0:0:0:
18,53,185507,1,4,3:1:0:0:
118,21,185677,1,8,0:0:0:0:
118,21,185846,1,0,3:2:0:0:
199,88,186016,1,12,0:1:0:0:
289,34,186185,1,8,0:0:0:0:
378,89,186355,2,0,L|370:149,3,35,8|8|8|8,0:0|0:0|0:0|0:0,0:0:0:0:
366,168,186694,5,0,0:0:0:0:
490,316,187033,6,0,P|429:305|368:359,1,125.999996154785,12|0,0:2|0:0,0:0:0:0:
347,365,187372,2,0,L|261:353,1,70,2|2,3:2|0:0,0:0:0:0:
173,340,187711,1,8,0:0:0:0:
234,254,187881,1,2,0:0:0:0:
167,157,188050,6,0,L|179:80,1,70,2|2,3:2|0:0,0:0:0:0:
95,22,188389,2,0,P|38:36|13:101,1,105,8|0,0:0|0:0,0:0:0:0:
33,115,188728,2,0,L|44:196,1,70,2|2,3:2|0:0,0:0:0:0:
17,289,189067,1,8,0:0:0:0:
17,289,189237,1,2,0:0:0:0:
118,314,189406,6,0,B|150:325|176:324|176:324|192:345|192:345|225:345|260:359,1,140,2|8,3:2|0:0,0:0:0:0:
350,338,189915,2,0,L|449:321,1,70,2|2,0:0|3:2,0:0:0:0:
476,238,190253,1,2,0:0:0:0:
476,238,190423,2,0,L|377:221,1,70,10|2,0:0|0:0,0:0:0:0:
337,147,190762,6,0,B|282:139|282:139|225:185,1,105,2|0,3:2|0:0,0:0:0:0:
197,195,191101,2,0,P|190:160|180:127,1,70,8|2,0:0|0:0,0:0:0:0:
227,33,191440,1,2,3:2:0:0:
329,6,191610,1,2,3:2:0:0:
413,67,191779,1,8,0:0:0:0:
512,12,191949,6,0,L|491:161,1,140,6|0,3:2|3:2,0:0:0:0:
429,247,192457,2,0,P|420:205|405:160,1,77.0000023498536,12|2,0:1|0:0,0:0:0:0:
314,128,192796,2,0,P|302:164|295:202,1,70,2|2,3:2|0:0,0:0:0:0:
323,298,193135,1,8,0:0:0:0:
323,298,193305,1,2,0:0:0:0:
228,373,193474,6,0,P|176:351|114:340,1,105,2|0,3:2|0:0,0:0:0:0:
77,329,193813,2,0,P|68:295|79:262,1,70,8|2,0:0|0:0,0:0:0:0:
20,175,194152,2,0,P|44:150|78:143,1,70,2|2,3:2|0:0,0:0:0:0:
178,177,194491,1,8,0:0:0:0:
333,36,194830,6,0,L|353:112,1,70,12|0,0:0|3:2,0:0:0:0:
434,167,195169,1,0,3:2:0:0:
345,223,195338,2,0,L|325:299,1,70,12|0,0:0|3:2,0:0:0:0:
244,354,195677,1,8,3:2:0:0:
225,234,195847,2,0,P|218:178|198:86,1,140,4|0,3:1|0:0,0:0:0:0:
124,39,196356,5,0,3:0:0:0:
124,39,196440,1,0,3:0:0:0:
124,39,196525,1,12,0:0:0:0:
26,79,196695,1,8,3:3:0:0:
83,166,196864,2,0,L|74:202,3,35,0|0|8|8,3:0|3:0|3:3|3:3,0:0:0:0:
49,245,197202,2,0,L|58:281,3,35,12|0|8|8,0:1|0:0|0:0|0:0,0:0:0:0:
97,313,197542,6,0,P|133:310|183:344,1,70,4|2,3:2|0:0,0:0:0:0:
261,361,197880,2,0,P|320:377|366:328,1,105,8|0,0:0|0:0,0:0:0:0:
371,305,198219,2,0,L|374:215,1,70,2|2,3:2|0:0,0:0:0:0:
445,158,198558,1,8,0:0:0:0:
445,158,198728,1,2,0:0:0:0:
364,91,198897,6,0,P|326:88|288:120,1,70,2|2,3:2|0:0,0:0:0:0:
217,169,199236,2,0,L|223:285,1,105,8|0,0:0|0:0,0:0:0:0:
187,312,199575,2,0,P|153:296|112:295,1,70,2|2,3:2|0:0,0:0:0:0:
16,277,199914,1,8,0:0:0:0:
16,277,200084,1,2,0:0:0:0:
42,175,200253,6,0,P|95:162|163:158,1,105,2|0,3:2|0:0,0:0:0:0:
196,142,200593,2,0,L|208:73,1,70,8|2,0:0|0:0,0:0:0:0:
300,19,200932,1,2,3:2:0:0:
300,19,201101,1,2,0:0:0:0:
345,113,201270,2,0,L|357:182,1,70,10|2,0:0|0:0,0:0:0:0:
354,287,201609,6,0,P|407:306|449:277,1,105,2|0,3:2|0:0,0:0:0:0:
472,237,201948,2,0,L|484:157,1,70,8|2,0:0|0:0,0:0:0:0:
444,69,202287,1,2,3:2:0:0:
352,117,202457,1,2,3:2:0:0:
352,117,202626,1,8,0:0:0:0:
260,25,202796,6,0,P|251:72|244:174,1,140,6|0,3:2|3:2,0:0:0:0:
247,269,203304,2,0,P|205:257|162:254,1,70,8|2,0:2|0:0,0:0:0:0:
97,187,203643,2,0,P|55:198|12:202,1,70,2|2,3:2|0:0,0:0:0:0:
51,102,203982,1,8,0:0:0:0:
51,102,204152,1,2,0:0:0:0:
135,39,204321,6,0,B|197:37|172:74|265:71,1,105,2|0,3:2|0:0,0:0:0:0:
278,97,204660,2,0,P|316:89|380:83,1,70,8|2,0:0|0:0,0:0:0:0:
427,17,204999,2,0,P|470:25|506:30,1,70,2|2,3:2|0:0,0:0:0:0:
455,126,205339,2,0,P|450:163|442:253,1,105,8|0,0:0|0:0,0:0:0:0:
415,274,205678,6,0,P|378:262|339:266,1,70,6|2,3:2|0:0,0:0:0:0:
258,318,206016,2,0,P|223:300|198:269,1,70,8|2,3:2|0:0,0:0:0:0:
115,219,206355,2,0,P|103:182|107:143,1,70,0|0,3:2|3:2,0:0:0:0:
170,68,206694,1,8,0:2:0:0:
272,88,206863,6,0,P|267:124|264:164,1,70,4|4,0:0|0:1,0:0:0:0:
328,241,207202,2,0,L|321:287,2,35,2|0|8,3:2|0:0|0:2,0:0:0:0:
423,195,207541,1,8,3:3:0:0:
423,195,207626,1,8,3:3:0:0:
423,195,207711,1,2,3:2:0:0:
489,113,207881,1,8,0:3:0:0:
428,27,208050,1,8,3:3:0:0:
353,101,208220,1,8,3:3:0:0:
254,30,208389,6,0,B|180:24|180:24|108:80,1,140,4|2,3:2|3:1,0:0:0:0:
27,78,208897,1,2,3:2:0:0:
27,78,209067,2,0,P|27:39|44:12,1,70,8|2,0:0|0:0,0:0:0:0:
132,80,209406,1,2,3:1:0:0:
132,80,209575,6,0,L|122:149,1,70,2|2,3:2|0:2,0:0:0:0:
44,221,209914,2,0,L|59:299,1,70,2|2,3:2|0:1,0:0:0:0:
136,358,210253,1,2,3:2:0:0:
136,358,210422,2,0,P|172:345|216:340,1,70,8|2,0:0|0:0,0:0:0:0:
272,260,210762,2,0,P|308:273|352:278,1,70,2|10,3:1|0:0,0:0:0:0:
393,296,211016,1,0,0:0:0:0:
393,296,211100,6,0,P|417:256|381:157,1,140,4|2,3:2|0:1,0:0:0:0:
342,84,211609,1,0,3:2:0:0:
342,84,211778,2,0,B|281:92|281:92|261:108|261:108|209:114,1,140,8|2,0:0|3:1,0:0:0:0:
249,18,212287,6,0,L|330:6,1,70,2|2,3:2|0:2,0:0:0:0:
423,9,212626,2,0,P|450:26|445:116,1,105,8|0,0:0|0:0,0:0:0:0:
437,140,212965,1,0,3:0:0:0:
401,238,213135,2,0,L|418:349,2,93.3333333333333,4|4|4,3:2|3:2|3:2,0:0:0:0:
294,298,213813,6,0,B|213:301|247:243|138:239,1,140,4|2,3:2|3:1,0:0:0:0:
83,301,214321,1,0,3:2:0:0:
36,216,214490,2,0,P|25:161|62:109,1,105,8|0,0:0|0:0,0:0:0:0:
88,85,214830,1,6,0:1:0:0:
186,21,214999,6,0,B|245:30|245:30|261:42|261:42|328:52,1,140,6|8,3:2|0:0,0:0:0:0:
419,14,215507,2,0,L|438:91,1,70,8|0,3:2|3:2,0:0:0:0:
426,121,215762,1,0,3:2:0:0:
426,121,215846,1,8,3:3:0:0:
361,204,216016,1,8,0:2:0:0:
426,285,216185,1,8,3:3:0:0:
339,369,216355,6,0,P|283:355|190:349,1,140,12|0,0:0|3:0,0:0:0:0:
193,243,216863,2,0,L|211:162,1,70,0|0,3:0|3:2,0:0:0:0:
294,114,217202,2,0,L|276:33,1,70,8|8,3:2|3:2,0:0:0:0:
179,81,217541,1,8,3:2:0:0:
85,33,217711,1,8,3:2:0:0:
17,121,217880,6,0,L|26:179,3,35,8|8|0|0,3:2|3:3|3:3|3:3,0:0:0:0:
34,196,218219,1,8,3:2:0:0:
56,302,218389,2,0,P|139:282|205:283,1,140,0|0,3:2|0:0,0:0:0:0:
284,333,218897,1,0,0:0:0:0:
412,186,219236,6,0,B|442:177|461:139|458:98|426:66|346:53|302:118|334:154|233:182,1,322
203,167,221270,2,0,L|212:118,3,41.9999987182618,8|8|0|0,0:0|0:3|3:3|3:3,0:0:0:0:
238,93,221609,2,0,L|229:44,3,41.9999987182618,8|8|8|8,0:3|0:3|0:0|0:0,0:0:0:0:
188,19,221948,6,0,P|143:26|117:46,1,70,4|2,3:2|0:0,0:0:0:0:
28,79,222287,1,8,0:0:0:0:
28,79,222456,1,2,0:0:0:0:
57,180,222626,2,0,P|91:183|132:194,1,70,0|2,3:0|0:0,0:0:0:0:
230,200,222965,1,8,0:0:0:0:
305,272,223134,6,0,P|349:227|333:141,1,140,2|2,0:0|0:0,0:0:0:0:
283,67,223643,2,0,L|355:57,1,70,10|0,0:0|0:0,0:0:0:0:
460,86,223982,1,2,3:1:0:0:
460,86,224151,1,2,0:0:0:0:
483,193,224321,1,10,0:1:0:0:
483,193,224490,1,2,0:0:0:0:
426,281,224660,6,0,P|383:271|340:266,1,70,0|2,3:2|0:0,0:0:0:0:
273,329,224999,1,8,0:0:0:0:
273,329,225168,1,2,0:0:0:0:
177,283,225338,2,0,L|166:214,1,70,0|2,3:0|0:0,0:0:0:0:
193,109,225677,1,8,0:0:0:0:
230,11,225846,6,0,P|169:19|83:28,1,140,2|2,0:0|0:0,0:0:0:0:
12,98,226355,2,0,P|25:142|31:181,1,70,12|2,0:0|0:0,0:0:0:0:
25,270,226694,1,2,3:1:0:0:
133,305,226863,1,8,0:0:0:0:
133,305,226948,1,0,0:0:0:0:
133,305,227033,2,0,L|192:315,3,35,12|0|8|8,0:1|0:0|0:0|0:0,0:0:0:0:
220,309,227372,6,0,P|232:276|215:230,1,70,6|2,3:2|0:0,0:0:0:0:
178,147,227711,2,0,L|186:76,1,70,12|2,0:2|0:0,0:0:0:0:
269,12,228050,1,0,3:0:0:0:
269,12,228219,2,0,P|307:15|342:40,1,70,2|8,0:0|0:1,0:0:0:0:
442,20,228558,6,0,L|460:175,1,140,2|2,0:0|0:0,0:0:0:0:
440,263,229067,2,0,P|411:252|367:250,1,70,8|2,0:0|0:0,0:0:0:0:
289,294,229406,1,2,3:1:0:0:
289,294,229575,1,2,0:0:0:0:
206,357,229745,1,10,0:1:0:0:
206,357,229914,1,2,0:0:0:0:
105,296,230083,6,0,L|110:213,1,70,2|2,3:1|0:0,0:0:0:0:
42,144,230422,1,12,0:1:0:0:
121,75,230592,2,0,P|157:72|215:63,1,70,2|0,0:1|3:2,0:0:0:0:
271,135,230931,1,2,3:2:0:0:
343,58,231101,1,14,0:1:0:0:
343,58,231270,1,2,0:0:0:0:
432,127,231440,6,0,L|423:181,3,35,8|8|0|0,0:0|0:3|3:0|3:0,0:0:0:0:
380,188,231779,2,0,L|389:242,3,35,8|8|0|0,0:0|0:3|3:0|3:0,0:0:0:0:
417,264,232118,2,0,L|405:343,1,70,8|0,0:0|3:0,0:0:0:0:
362,361,232372,1,8,0:0:0:0:
362,361,232457,1,8,0:0:0:0:
265,321,232626,1,8,0:0:0:0:
160,376,232796,6,0,P|131:330|159:233,1,140,4|12,3:2|0:1,0:0:0:0:
234,193,233304,1,2,0:0:0:0:
149,130,233474,2,0,L|161:57,1,70,0|2,3:0|0:0,0:0:0:0:
54,31,233813,2,0,L|66:104,1,70,12|2,0:2|0:0,0:0:0:0:
22,207,234152,5,0,3:2:0:0:
22,207,234321,1,2,0:0:0:0:
91,285,234491,2,0,B|156:277|137:312|217:296,1,105,14|0,0:1|0:0,0:0:0:0:
240,322,234830,2,0,P|276:320|306:291,1,70,2|2,3:1|0:0,0:0:0:0:
406,299,235168,2,0,P|422:266|412:226,1,70,14|2,0:1|0:0,0:0:0:0:
359,145,235507,5,0,3:2:0:0:
359,145,235677,1,2,0:0:0:0:
427,65,235846,2,0,L|345:47,1,70,12|2,0:2|0:0,0:0:0:0:
254,35,236185,1,0,3:0:0:0:
254,35,236355,1,2,0:0:0:0:
204,127,236524,2,0,L|221:211,1,70,12|2,0:1|0:0,0:0:0:0:
204,300,236863,6,0,P|171:291|121:286,1,70,0|10,3:2|0:0,0:0:0:0:
30,278,237202,1,0,3:2:0:0:
30,278,237372,1,10,0:0:0:0:
89,191,237541,1,0,3:2:0:0:
6,125,237711,1,10,0:0:0:0:
6,125,237796,1,10,0:0:0:0:
6,125,237880,2,0,L|17:76,3,35,8|8|8|8,0:3|0:3|3:3|3:3,0:0:0:0:
43,47,238219,6,0,P|87:39|148:83,1,105,6|0,3:2|0:0,0:0:0:0:
174,104,238558,2,0,L|252:97,1,70,12|2,0:2|0:0,0:0:0:0:
332,41,238897,1,0,3:0:0:0:
332,41,239067,1,2,0:0:0:0:
407,113,239236,2,0,L|397:194,1,70,12|2,0:1|0:0,0:0:0:0:
489,257,239575,6,0,P|442:268|411:323,1,105,0|0,3:0|0:0,0:0:0:0:
386,359,239914,2,0,L|305:352,1,70,12|2,0:0|0:0,0:0:0:0:
216,318,240253,1,2,3:1:0:0:
216,318,240423,1,2,0:0:0:0:
284,238,240592,1,14,0:1:0:0:
284,238,240762,1,2,0:0:0:0:
191,174,240931,6,0,L|204:94,1,70,4|8,3:2|0:0,0:0:0:0:
235,63,241185,1,8,0:0:0:0:
235,63,241270,1,0,3:2:0:0:
140,15,241440,2,0,P|98:19|63:54,1,70,10|8,0:0|0:0,0:0:0:0:
45,77,241694,1,8,0:0:0:0:
45,77,241779,1,0,3:2:0:0:
13,176,241948,2,0,L|24:253,1,70,12|2,0:1|3:2,0:0:0:0:
117,313,242287,6,0,L|128:236,1,70,2|2,3:2|3:2,0:0:0:0:
194,167,242626,1,2,0:0:0:0:
194,167,242796,1,10,0:0:0:0:
263,253,242965,1,8,0:0:0:0:
353,186,243135,1,10,0:0:0:0:
290,93,243304,2,0,P|240:81|170:67,1,105,8|0,3:2|0:0,0:0:0:0:
158,64,243643,5,6,3:2:0:0:
256,192,243728,12,0,247711,0:0:0:0:
