osu file format v14

[General]
AudioFilename: audio.mp3
AudioLeadIn: 0
PreviewTime: 164575
Countdown: 0
SampleSet: Soft
StackLeniency: 0.7
Mode: 0
LetterboxInBreaks: 0
WidescreenStoryboard: 1

[Editor]
DistanceSpacing: 1.4
BeatDivisor: 4
GridSize: 32
TimelineZoom: 1.4

[Metadata]
Title:LEVEL
TitleUnicode:LEVEL <やなぎなぎ ver.>
Artist:yanaginagi x THE SIXTH LIE
ArtistUnicode:やなぎなぎ×THE SIXTH LIE
Creator:Erisu
Version:Gaia's Extra
Source:天才王子の赤字国家再生術
Tags:The Genius Gaia Guide to Raising a Nation Out of Debt Hey, How About Treason? Tensai Ouji no Akaji Kokka Saisei Jutsu anime opening japanese pop full ver version lanzhu mayuzumi fuyuko ninym thicc thighs Prince's
BeatmapID:3571342
BeatmapSetID:1745954

[Difficulty]
HPDrainRate:6
CircleSize:4
OverallDifficulty:8.5
ApproachRate:9.4
SliderMultiplier:1.7
SliderTickRate:1

[Events]
//Background and Video events
0,0,"ninym.jpg",0,0
//Break Periods
2,146216,147510
2,151640,152764
2,165199,175306
//Storyboard Layer 0 (Background)
//Storyboard Layer 1 (Fail)
//Storyboard Layer 2 (Pass)
//Storyboard Layer 3 (Foreground)
//Storyboard Layer 4 (Overlay)
//Storyboard Sound Samples

[TimingPoints]
1727,344.827586206897,4,2,1,50,1,0
1727,-142.857142857143,4,2,1,50,0,0
12244,-111.111111111111,4,2,1,50,0,0
12416,-166.666666666667,4,2,1,50,0,0
12761,-125,4,2,1,60,0,0
22071,-90.9090909090909,4,2,1,60,0,0
23795,-142.857142857143,4,2,1,50,0,0
25864,-142.857142857143,4,2,1,30,0,0
25951,-142.857142857143,4,2,1,50,0,0
29140,-83.3333333333333,4,2,1,50,0,0
29313,-111.111111111111,4,2,1,50,0,0
32416,-111.111111111111,4,2,1,40,0,0
32761,-111.111111111111,4,2,1,50,0,0
33106,-111.111111111111,4,2,1,60,0,0
34485,-249.999999999999,4,2,1,60,0,0
34830,338.983050847458,4,2,1,70,1,0
34830,-100,4,2,1,70,0,0
42965,-83.3333333333333,4,2,1,70,0,0
45677,-100,4,2,1,70,0,0
56524,-100,4,2,1,60,0,0
61270,-125,4,2,1,60,0,0
61948,-100,4,2,1,60,0,0
64830,-100,4,2,1,40,0,0
65168,-100,4,2,1,50,0,0
65507,-100,4,2,1,60,0,0
66016,-100,4,2,1,70,0,0
66524,-333.333333333333,4,2,1,70,0,0
67372,-111.111111111111,4,2,1,70,0,0
72796,-166.666666666666,4,2,1,70,0,0
73135,-90.9090909090909,4,2,1,70,0,0
73813,-111.111111111111,4,2,1,70,0,0
77541,-333.333333333332,4,2,1,70,0,0
78219,-1000,4,2,1,40,0,0
78982,-1000,4,2,1,10,0,0
79914,-1000,4,2,1,40,0,0
81694,-1000,4,2,1,10,0,0
82287,-1000,4,2,1,40,0,0
84406,-1000,4,2,1,10,0,0
85338,-1000,4,2,1,40,0,0
87118,-1000,4,2,1,10,0,0
88050,-1000,4,2,1,40,0,0
89067,-142.857142857143,4,2,1,40,0,0
99914,-125,4,2,1,50,0,0
101609,-125,4,2,1,30,0,0
101694,-125,4,2,1,50,0,0
103982,-100,4,2,1,50,0,0
105338,-125,4,2,1,50,0,0
108389,-125,4,2,1,40,0,0
108728,-125,4,2,1,50,0,0
109067,-125,4,2,1,60,0,0
109745,-76.9230769230769,4,2,1,60,0,0
110762,-100,4,2,1,70,0,0
116016,-200,4,2,1,70,0,0
116524,-90.9090909090909,4,2,1,70,0,0
116863,-100,4,2,1,70,0,0
118897,-83.3333333333333,4,2,1,70,0,0
119914,-100,4,2,1,70,0,0
121270,-166.666666666667,4,2,1,70,0,0
121609,-100,4,2,1,70,0,0
126863,-200,4,2,1,70,0,0
127372,-76.9230769230769,4,2,1,70,0,0
127711,-100,4,2,1,70,0,0
132457,-111.111111111111,4,2,1,60,0,0
137201,-142.857142857143,4,2,1,60,0,0
137654,-90.9090909090909,4,2,1,60,0,0
137880,-111.111111111111,4,2,1,60,0,0
140762,-111.111111111111,4,2,1,40,0,0
141100,-111.111111111111,4,2,1,50,0,0
141439,-111.111111111111,4,2,1,60,0,0
141948,-111.111111111111,4,2,1,70,0,0
143304,-111.111111111111,4,2,1,60,0,0
154491,-111.111111111111,4,2,1,60,0,0
158558,-90.9090909090908,4,2,1,60,0,0
159575,-125,4,2,1,60,0,0
159745,-125,4,2,1,40,0,0
160931,-125,4,2,1,50,0,0
161609,-125,4,2,1,60,0,0
162287,-83.3333333333333,4,2,1,70,0,0
163982,-62.5,4,2,1,70,0,0
164830,-62.5,4,2,1,50,0,0
175846,-125,4,2,1,50,0,0
181609,-125,4,2,1,30,0,0
181948,-125,4,2,1,40,0,0
182287,-125,4,2,1,50,0,0
182626,-125,4,2,1,60,0,0
183304,-125,4,2,1,70,0,0
183982,-76.9230769230769,4,2,1,70,0,0
186694,-200,4,2,1,30,0,0
187033,-71.4285714285714,4,2,1,70,0,0
187372,-100,4,2,1,70,0,0
191948,-166.666666666667,4,2,1,70,0,0
192457,-71.4285714285714,4,2,1,70,0,0
192796,-100,4,2,1,70,0,0
194830,-76.9230769230769,4,2,1,70,0,0
195846,-100,4,2,1,70,0,0
196694,-76.9230769230769,4,2,1,70,0,0
197541,-100,4,2,1,70,0,0
208389,-100,4,2,1,60,0,0
213135,-125,4,2,1,60,0,0
213587,-90.9090909090909,4,2,1,60,0,0
213813,-100,4,2,1,60,0,0
216694,-100,4,2,1,40,0,0
217032,-100,4,2,1,50,0,0
217371,-100,4,2,1,60,0,0
217880,-100,4,2,1,70,0,0
218219,-83.3333333333333,4,2,1,70,0,0
220507,-83.3333333333333,4,2,1,5,0,0
220592,-500,4,2,1,70,0,0
221948,-100,4,2,1,70,0,0
226694,-83.3333333333333,4,2,1,70,0,0
227372,-166.666666666667,4,2,1,70,0,0
227711,-100,4,2,1,70,0,0
232457,-66.6666666666667,4,2,1,70,0,0
232796,-100,4,2,1,70,0,0
238219,-166.666666666667,4,2,1,70,0,0
238558,-100,4,2,1,70,0,0
240931,-76.9230769230769,4,2,1,70,0,0
243728,-76.9230769230769,4,2,1,40,0,0
244999,-76.9230769230769,4,2,1,30,0,0
246355,-76.9230769230769,4,2,1,20,0,0
247711,-76.9230769230769,4,2,1,10,0,0

[Colours]
Combo1 : 216,166,133
Combo2 : 138,244,205
Combo3 : 116,173,237
Combo4 : 245,221,137

[HitObjects]
280,181,1727,5,6,3:2:0:0:
198,328,1899,2,0,P|192:295|187:246,1,59.4999981842042,2|4,0:0|0:3,0:0:0:0:
421,161,2761,1,4,0:3:0:0:
320,14,2933,2,0,P|327:71|334:156,1,118.999996368408,2|2,0:0|0:0,0:0:0:0:
421,161,3451,1,4,0:3:0:0:
421,161,4140,5,4,0:3:0:0:
421,161,4485,5,2,0:0:0:0:
335,265,4658,2,0,P|368:259|405:257,1,59.4999981842042,2|4,0:0|0:3,0:0:0:0:
398,247,5520,1,4,0:3:0:0:
214,357,5692,2,0,P|160:361|101:329,1,118.999996368408,2|2,0:0|0:0,0:0:0:0:
31,241,6209,1,4,0:3:0:0:
31,241,6727,6,0,P|29:274|22:328,1,59.4999981842042,4|2,0:3|0:1,0:0:0:0:
25,300,7244,5,2,0:2:0:0:
106,152,7416,2,0,L|118:229,1,59.4999981842042,2|4,0:0|0:3,0:0:0:0:
380,292,8278,1,4,0:3:0:0:
470,331,8451,2,0,P|501:288|488:201,1,118.999996368408,2|2,0:0|0:0,0:0:0:0:
380,292,8968,1,4,0:3:0:0:
380,292,9658,5,4,0:3:0:0:
390,302,10002,5,2,0:0:0:0:
258,234,10175,2,0,L|355:219,1,59.4999981842042,2|4,0:0|0:3,0:0:0:0:
446,25,11037,1,4,0:3:0:0:
490,121,11209,2,0,P|443:114|360:106,1,118.999996368408,2|2,0:0|0:0,0:0:0:0:
90,82,11727,1,4,0:3:0:0:
98,97,12244,6,0,L|157:104,1,38.2499988327027,4|4,0:3|0:3,0:0:0:0:
208,149,12416,2,0,P|220:114|211:63,1,76.4999976654053,2|0,0:1|0:0,0:0:0:0:
161,10,12761,5,4,3:2:0:0:
217,158,12933,1,0,3:2:0:0:
312,117,13106,2,0,L|401:107,1,68,10|2,0:0|0:0,0:0:0:0:
190,240,13451,2,0,P|141:245|70:256,1,102,2|0,0:0|0:0,0:0:0:0:
73,233,13795,1,8,0:0:0:0:
261,360,13968,6,0,P|300:306|302:239,1,136,2|2,3:2|3:2,0:0:0:0:
222,18,14485,1,8,0:0:0:0:
211,113,14658,1,2,0:0:0:0:
312,52,14830,2,0,P|343:43|401:36,1,68,2|2,0:0|3:2,0:0:0:0:
385,32,15089,1,2,0:0:0:0:
391,26,15175,2,0,L|375:112,1,68,8|2,0:0|0:0,0:0:0:0:
393,336,15520,5,2,3:2:0:0:
480,259,15692,1,0,3:2:0:0:
383,349,15864,2,0,P|343:352|291:358,1,68,8|2,0:0|0:0,0:0:0:0:
79,330,16209,2,0,B|115:332|147:340|147:340|171:322|209:309,1,136,2|8,0:0|0:0,0:0:0:0:
153,72,16727,6,0,P|112:136|136:211,1,136,2|2,3:2|3:2,0:0:0:0:
320,247,17244,1,8,0:0:0:0:
444,162,17416,1,2,0:0:0:0:
512,224,17589,1,0,0:0:0:0:
353,144,17761,1,2,3:2:0:0:
459,4,17933,2,0,P|487:48|480:121,1,102,10|0,0:0|0:0,0:0:0:0:
444,162,18278,5,2,3:2:0:0:
279,107,18451,1,0,3:2:0:0:
207,167,18623,2,0,P|178:165|136:161,1,68,10|2,0:0|0:0,0:0:0:0:
9,324,18968,2,0,P|56:295|121:303,1,102,2|0,0:0|0:0,0:0:0:0:
115,314,19313,1,8,0:0:0:0:
238,369,19485,6,0,P|275:324|270:234,1,136,2|2,3:2|3:2,0:0:0:0:
213,39,20002,2,0,L|204:119,1,68,8|2,0:0|0:0,0:0:0:0:
194,289,20347,5,2,0:0:0:0:
267,222,20520,1,2,3:2:0:0:
208,153,20692,1,8,0:0:0:0:
133,218,20864,1,2,0:0:0:0:
276,248,21037,6,0,P|316:239|363:233,1,68,2|0,3:2|3:2,0:0:0:0:
436,183,21382,2,0,P|442:218|447:268,1,68,8|2,0:0|0:0,0:0:0:0:
323,62,21727,2,0,P|326:95|332:129,1,68,2|2,0:0|3:2,0:0:0:0:
488,362,22071,6,0,P|416:368|350:305,1,140.25000428009,12|0,0:0|0:0,0:0:0:0:
364,314,22416,1,4,3:1:0:0:
226,199,22589,1,0,3:2:0:0:
59,307,22761,1,8,0:0:0:0:
173,360,22933,5,0,3:2:0:0:
173,360,23020,1,0,3:2:0:0:
173,360,23106,1,8,0:0:0:0:
240,223,23278,1,8,0:3:0:0:
128,156,23451,1,8,3:3:0:0:
155,272,23623,5,8,3:3:0:0:
155,272,23709,1,0,0:0:0:0:
155,272,23795,2,0,P|218:264|301:259,2,118.999996368408,6|0|8,3:2|3:2|0:0,0:0:0:0:
444,65,24830,1,0,3:1:0:0:
266,114,25002,6,0,P|331:147|395:134,1,118.999996368408,2|8,3:2|0:0,0:0:0:0:
478,180,25520,1,2,0:1:0:0:
478,180,25692,1,0,3:0:0:0:
320,322,25864,2,0,P|321:290|330:241,1,59.4999981842042,14|0,0:1|0:0,0:0:0:0:
211,202,26209,1,0,3:0:0:0:
109,311,26382,5,2,0:0:0:0:
109,311,26468,1,2,0:0:0:0:
109,311,26554,2,0,P|172:298|250:295,1,118.999996368408,0|0,3:0|3:0,0:0:0:0:
449,316,27071,1,0,3:0:0:0:
370,363,27244,2,0,P|341:360|307:341,1,59.4999981842042,8|0,0:0|3:0,0:0:0:0:
449,316,27589,1,0,3:0:0:0:
228,367,27761,6,0,P|215:342|214:294,1,59.4999981842042,2|8,3:2|0:0,0:0:0:0:
267,71,28106,1,2,3:2:0:0:
301,176,28278,1,2,3:1:0:0:
179,216,28451,1,8,0:0:0:0:
374,93,28623,5,4,0:1:0:0:
283,259,28795,1,8,0:0:0:0:
160,113,28968,1,8,0:0:0:0:
160,113,29054,1,8,0:3:0:0:
160,113,29140,2,0,L|98:103,1,50.9999984436036,0|0,3:2|3:2,0:0:0:0:
18,179,29313,6,0,P|68:143|176:145,1,152.999995330811,4|0,3:2|0:0,0:0:0:0:
336,321,29830,1,0,3:2:0:0:
444,254,30002,2,0,B|357:261|380:296|292:296,1,152.999995330811,8|2,0:0|0:0,0:0:0:0:
210,222,30520,1,2,3:2:0:0:
356,61,30692,5,0,3:2:0:0:
276,8,30864,2,0,P|268:45|267:91,1,76.4999976654053,8|2,0:0|0:0,0:0:0:0:
102,299,31209,1,0,3:2:0:0:
189,356,31382,1,8,0:0:0:0:
308,239,31554,1,8,0:0:0:0:
406,187,31727,1,8,0:3:0:0:
471,313,31899,1,8,0:3:0:0:
376,272,32071,6,0,P|360:201|363:107,1,152.999995330811,12|0,3:2|3:0,0:0:0:0:
278,53,32589,1,0,3:0:0:0:
152,156,32761,2,0,P|190:145|235:142,1,76.4999976654053,0|8,3:2|3:2,0:0:0:0:
90,355,33106,2,0,P|51:365|7:369,1,76.4999976654053,8|8,0:0|0:0,0:0:0:0:
52,256,33451,5,8,0:0:0:0:
85,251,33537,1,8,0:0:0:0:
118,253,33623,1,8,0:3:0:0:
149,264,33709,1,8,0:3:0:0:
178,282,33795,1,0,3:2:0:0:
207,299,33882,1,0,3:2:0:0:
239,306,33968,1,8,3:3:0:0:
272,303,34054,1,8,3:3:0:0:
305,294,34140,1,8,0:0:0:0:
305,294,34485,6,0,P|310:267|311:232,1,51,2|0,0:0|0:0,0:0:0:0:
281,170,34830,6,0,L|294:280,1,85,6|2,3:2|0:0,0:0:0:0:
393,315,35168,2,0,P|432:305|476:301,1,85,8|2,0:0|0:0,0:0:0:0:
260,364,35507,2,0,B|192:364|204:393|101:382,1,127.5,2|0,3:2|0:0,0:0:0:0:
117,378,35846,2,0,P|100:341|107:288,1,85,8|2,0:0|0:0,0:0:0:0:
158,85,36185,6,0,P|115:80|56:69,1,85,2|2,3:2|0:0,0:0:0:0:
128,197,36524,2,0,P|122:238|115:291,1,85,8|2,0:0|0:0,0:0:0:0:
245,156,36863,2,0,P|286:125|418:138,1,170,2|8,3:2|0:0,0:0:0:0:
450,48,37372,1,2,0:0:0:0:
506,221,37541,6,0,P|435:209|325:205,1,170,2|8,3:2|0:0,0:0:0:0:
415,300,38050,2,0,P|410:339|407:390,1,85,2|2,0:0|3:2,0:0:0:0:
182,191,38389,1,2,0:0:0:0:
278,259,38558,2,0,P|287:197|296:107,1,127.5,10|0,0:0|0:0,0:0:0:0:
282,117,38897,6,0,P|311:98|390:110,1,85,2|2,3:2|0:0,0:0:0:0:
174,282,39236,2,0,P|145:301|66:289,1,85,8|2,0:0|0:0,0:0:0:0:
7,162,39575,1,2,3:2:0:0:
112,218,39745,1,2,3:2:0:0:
282,117,39914,1,8,0:0:0:0:
366,202,40084,6,0,P|298:165|188:183,1,170,6|0,3:2|3:2,0:0:0:0:
419,124,40592,2,0,P|460:119|529:109,1,85,12|2,0:1|0:0,0:0:0:0:
270,273,40931,2,0,P|201:279|119:290,1,127.5,2|0,3:2|0:0,0:0:0:0:
122,278,41270,2,0,P|129:328|129:377,1,85,8|2,0:0|0:0,0:0:0:0:
14,180,41609,6,0,P|-2:137|13:77,1,85,2|2,3:2|0:0,0:0:0:0:
173,115,41948,2,0,P|129:120|84:128,1,85,8|2,0:0|0:0,0:0:0:0:
235,200,42287,1,2,3:2:0:0:
291,47,42457,1,2,0:0:0:0:
362,121,42626,2,0,P|403:113|459:109,1,85,8|2,0:0|0:0,0:0:0:0:
405,249,42965,6,0,L|389:325,1,50.9999984436036,12|0,0:0|0:0,0:0:0:0:
309,350,43135,1,0,3:2:0:0:
499,265,43304,1,0,3:2:0:0:
298,184,43474,6,0,L|307:255,1,50.9999984436036,12|0,0:0|0:0,0:0:0:0:
300,361,43643,1,0,3:2:0:0:
409,226,43813,1,8,3:2:0:0:
234,91,43982,6,0,B|162:79|162:79|125:143|151:225,1,203.999993774414,4|0,3:2|0:0,0:0:0:0:
119,355,44491,1,0,3:0:0:0:
141,349,44575,1,0,3:0:0:0:
167,342,44660,1,12,0:0:0:0:
267,230,44830,1,0,3:0:0:0:
340,308,44999,5,12,0:1:0:0:
357,310,45083,1,8,0:0:0:0:
374,314,45168,1,8,0:0:0:0:
391,317,45253,1,8,0:0:0:0:
413,336,45339,5,8,3:3:0:0:
459,316,45423,1,8,3:3:0:0:
485,273,45508,1,8,0:0:0:0:
482,223,45593,1,8,0:0:0:0:
451,184,45677,6,0,P|442:223|433:288,1,85,6|2,3:2|0:0,0:0:0:0:
311,120,46016,2,0,P|319:81|329:16,1,85,8|2,0:0|0:0,0:0:0:0:
76,170,46355,2,0,P|160:186|221:107,1,170,2|8,3:2|0:0,0:0:0:0:
126,69,46863,1,2,0:0:0:0:
209,209,47033,6,0,P|255:219|310:234,1,85,2|2,3:2|0:0,0:0:0:0:
111,274,47372,2,0,P|104:314|85:374,1,85,8|2,0:0|0:0,0:0:0:0:
11,117,47711,2,0,P|39:75|135:60,1,127.5,2|2,3:2|0:0,0:0:0:0:
126,69,48050,1,8,0:0:0:0:
364,80,48219,5,2,0:0:0:0:
364,80,48304,1,0,0:0:0:0:
364,80,48389,2,0,P|322:95|255:107,1,85,2|2,3:2|0:0,0:0:0:0:
229,290,48728,2,0,P|217:257|208:168,1,85,8|2,0:0|0:0,0:0:0:0:
446,5,49067,2,0,P|471:71|407:179,1,170,2|10,3:2|0:0,0:0:0:0:
254,313,49575,1,2,0:0:0:0:
49,250,49745,6,0,P|90:240|132:234,1,85,2|2,3:2|0:0,0:0:0:0:
226,156,50084,2,0,P|218:115|202:58,1,85,8|2,0:0|0:0,0:0:0:0:
96,12,50423,1,2,3:2:0:0:
127,132,50592,1,2,3:2:0:0:
364,190,50762,1,8,0:0:0:0:
463,124,50931,6,0,P|400:75|286:98,1,170,6|0,3:2|3:2,0:0:0:0:
39,301,51440,2,0,B|90:305|90:305|112:320|112:320|166:324,1,127.5,12|0,0:1|0:0,0:0:0:0:
176,342,51779,2,0,P|208:294|204:263,1,85,2|2,3:2|0:0,0:0:0:0:
96,12,52118,2,0,P|98:53|126:84,1,85,8|2,0:0|0:0,0:0:0:0:
248,123,52457,6,0,P|310:113|387:107,1,127.5,2|0,3:2|0:0,0:0:0:0:
396,124,52796,2,0,P|409:89|408:30,1,85,8|2,0:0|0:0,0:0:0:0:
322,230,53135,2,0,P|322:272|336:312,1,85,2|2,3:2|0:0,0:0:0:0:
430,371,53474,1,8,0:0:0:0:
441,250,53643,1,2,0:0:0:0:
231,295,53813,6,0,P|186:301|114:319,1,85,2|2,3:2|0:0,0:0:0:0:
2,95,54152,1,12,0:1:0:0:
125,208,54321,1,2,3:2:0:0:
169,98,54491,5,8,0:0:0:0:
193,77,54575,1,8,0:0:0:0:
222,64,54660,1,0,3:2:0:0:
254,59,54745,1,0,3:2:0:0:
285,63,54829,1,8,0:3:0:0:
315,74,54914,1,8,0:3:0:0:
340,93,54999,1,8,3:3:0:0:
360,118,55084,1,8,3:3:0:0:
373,147,55168,6,0,P|381:103|384:43,1,85,12|8,0:0|0:0,0:0:0:0:
397,58,55423,1,8,0:0:0:0:
410,52,55507,1,0,3:2:0:0:
263,179,55677,1,8,0:0:0:0:
258,199,55762,1,8,0:0:0:0:
254,221,55846,1,0,3:2:0:0:
197,105,56016,1,8,0:3:0:0:
347,160,56185,1,8,3:3:0:0:
278,310,56355,1,8,3:3:0:0:
172,239,56524,6,0,P|96:226|-1:224,1,170,4|4,3:2|0:3,0:0:0:0:
96,186,57033,1,2,3:2:0:0:
195,354,57202,2,0,P|232:354|290:302,1,85,8|2,0:0|0:0,0:0:0:0:
410,107,57541,1,4,0:3:0:0:
331,43,57711,1,2,3:2:0:0:
252,90,57880,6,0,P|209:83|138:75,1,85,2|2,3:2|0:0,0:0:0:0:
331,43,58219,1,4,0:3:0:0:
208,173,58389,1,2,3:2:0:0:
141,75,58558,1,8,0:0:0:0:
298,236,58728,2,0,P|317:201|314:138,1,85,2|4,3:2|0:3,0:0:0:0:
87,227,59067,5,2,0:0:0:0:
87,227,59152,1,2,0:0:0:0:
87,227,59236,2,0,P|72:294|138:377,1,170,4|4,3:2|0:3,0:0:0:0:
372,298,59745,1,0,3:2:0:0:
444,365,59914,2,0,B|399:352|364:332|364:332|324:342|248:341,1,170,8|4,0:0|0:3,0:0:0:0:
180,283,60423,1,2,0:0:0:0:
240,80,60592,5,0,3:2:0:0:
313,166,60762,1,8,0:0:0:0:
127,372,60931,1,8,0:3:0:0:
102,352,61015,1,8,0:3:0:0:
84,326,61100,1,8,0:3:0:0:
74,295,61185,1,8,0:3:0:0:
74,264,61270,6,0,P|64:296|63:348,1,68,4|0,3:2|0:0,0:0:0:0:
180,283,61496,2,0,P|190:251|191:199,1,68,4|0,3:2|0:0,0:0:0:0:
84,48,61722,2,0,L|93:95,1,45.3333333333333,4|0,3:2|0:0,0:0:0:0:
24,157,61948,6,0,B|67:146|98:115|98:115|137:133|198:128,1,170,4|4,3:2|0:3,0:0:0:0:
433,202,62457,1,0,3:2:0:0:
505,297,62626,2,0,P|465:256|341:250,1,170,8|4,0:0|0:3,0:0:0:0:
181,330,63135,1,2,0:0:0:0:
70,375,63304,5,0,3:2:0:0:
118,208,63474,1,8,0:0:0:0:
287,324,63643,1,8,0:0:0:0:
175,306,63813,1,0,3:0:0:0:
175,306,63897,1,0,3:0:0:0:
175,306,63982,1,8,0:3:0:0:
333,216,64152,1,8,0:3:0:0:
401,342,64321,1,8,3:3:0:0:
470,284,64491,6,0,B|380:277|398:336|284:319,1,170,12|0,0:0|3:0,0:0:0:0:
118,208,64999,2,0,P|163:183|220:195,1,85,0|0,3:0|3:2,0:0:0:0:
304,45,65338,2,0,P|329:82|321:153,1,85,8|8,3:2|3:2,0:0:0:0:
329,350,65677,1,8,3:2:0:0:
181,264,65846,1,8,3:2:0:0:
282,195,66016,5,8,3:2:0:0:
282,195,66101,1,8,0:3:0:0:
282,195,66185,1,0,3:3:0:0:
232,337,66355,1,8,3:2:0:0:
61,287,66524,6,0,P|105:254|167:256,1,114.749996498108,4|0,3:1|0:0,0:0:0:0:
180,264,67372,6,0,P|142:269|95:283,1,76.4999976654053,4|2,3:2|0:0,0:0:0:0:
259,188,67711,1,8,0:0:0:0:
337,340,67880,2,0,P|346:301|321:243,1,76.4999976654053,2|0,0:0|3:0,0:0:0:0:
175,44,68219,2,0,P|165:82|191:141,1,76.4999976654053,2|8,0:0|0:0,0:0:0:0:
368,63,68558,1,2,0:0:0:0:
480,160,68728,6,0,P|449:154|395:145,1,76.4999976654053,0|2,3:2|0:0,0:0:0:0:
214,302,69067,2,0,P|271:289|344:283,1,114.749996498108,10|0,0:0|0:0,0:0:0:0:
338,266,69406,1,2,3:1:0:0:
158,186,69575,1,2,0:0:0:0:
337,93,69745,1,10,0:1:0:0:
276,196,69914,1,2,0:0:0:0:
256,20,70084,5,0,3:2:0:0:
433,73,70253,2,0,P|424:113|420:148,1,76.4999976654053,2|8,0:0|0:0,0:0:0:0:
287,307,70592,2,0,P|278:266|274:231,1,76.4999976654053,2|0,0:0|3:0,0:0:0:0:
131,174,70931,1,2,0:0:0:0:
32,290,71101,2,0,P|70:279|135:269,1,76.4999976654053,8|2,0:0|0:0,0:0:0:0:
282,69,71440,6,0,P|248:83|182:76,1,76.4999976654053,0|2,3:0|0:0,0:0:0:0:
117,20,71779,1,12,0:0:0:0:
117,20,71948,1,2,0:0:0:0:
394,228,72118,1,10,0:1:0:0:
484,176,72287,1,8,0:0:0:0:
466,157,72371,1,8,0:0:0:0:
444,143,72456,1,10,0:1:0:0:
421,134,72541,1,8,0:0:0:0:
396,130,72625,1,8,0:0:0:0:
370,132,72710,1,8,0:0:0:0:
346,139,72796,6,0,P|379:115|432:128,1,76.4999976654053,4|0,3:2|0:0,0:0:0:0:
394,228,73135,6,0,P|346:221|202:216,1,187.000005706787,12|0,0:2|3:0,0:0:0:0:
73,240,73643,1,2,0:0:0:0:
140,384,73813,2,0,P|137:350|148:282,1,76.4999976654053,12|2,0:1|0:0,0:0:0:0:
74,15,74152,5,0,3:0:0:0:
141,97,74321,1,2,0:0:0:0:
224,51,74491,2,0,P|278:40|368:32,1,114.749996498108,12|0,0:0|0:0,0:0:0:0:
353,49,74830,1,2,3:1:0:0:
291,168,74999,1,2,0:0:0:0:
466,268,75168,1,14,0:1:0:0:
412,159,75338,1,2,0:0:0:0:
290,270,75507,6,0,L|280:327,1,38.2499988327027,12|0,3:2|0:0,0:0:0:0:
207,361,75677,1,0,3:2:0:0:
382,317,75846,1,0,3:2:0:0:
296,232,76016,6,0,L|286:289,1,38.2499988327027,12|0,3:2|0:0,0:0:0:0:
358,359,76185,1,0,3:2:0:0:
192,221,76355,1,0,3:2:0:0:
302,194,76524,6,0,L|292:251,1,38.2499988327027,4|0,3:1|0:0,0:0:0:0:
274,356,76694,1,0,3:2:0:0:
400,232,76863,1,0,3:2:0:0:
231,88,77033,1,8,0:0:0:0:
35,162,77202,1,8,0:0:0:0:
60,202,77286,1,8,0:3:0:0:
100,227,77371,1,0,3:2:0:0:
147,234,77456,1,0,3:2:0:0:
192,221,77541,6,0,P|232:212|287:207,1,89.2499972763062,8|0,0:0|0:0,0:0:0:0:
354,262,78219,5,4,3:2:0:0:
354,262,78389,1,0,3:2:0:0:
97,42,78728,1,0,3:2:0:0:
176,91,78897,2,0,P|180:118|182:143,1,51,0|0,1:0|0:0,0:0:0:0:
192,148,80084,1,0,3:2:0:0:
430,99,80253,1,0,1:0:0:0:
430,99,80931,5,0,3:2:0:0:
335,72,81101,1,0,3:2:0:0:
71,291,81440,1,0,3:2:0:0:
144,337,81609,2,0,P|169:329|193:328,1,51,0|0,1:0|0:0,0:0:0:0:
460,259,82796,1,0,3:2:0:0:
479,361,82965,1,2,1:2:0:0:
349,330,83135,1,0,3:2:0:0:
349,330,83304,1,0,3:2:0:0:
349,330,83643,5,2,3:2:0:0:
442,340,83813,1,0,3:2:0:0:
128,76,84152,1,0,3:2:0:0:
18,161,84321,2,0,L|71:151,1,51,0|0,1:0|0:0,0:0:0:0:
120,64,85507,1,0,3:2:0:0:
356,145,85677,1,0,1:0:0:0:
356,145,86355,5,0,3:2:0:0:
356,145,86524,1,0,3:2:0:0:
114,273,86863,1,0,3:2:0:0:
190,372,87033,2,0,P|200:349|199:323,1,51,0|0,1:0|0:0,0:0:0:0:
270,53,88219,1,0,3:2:0:0:
410,178,88389,1,0,1:0:0:0:
475,80,88558,1,0,3:2:0:0:
475,80,88728,1,0,3:2:0:0:
321,145,88897,5,2,0:0:0:0:
321,145,88982,1,2,0:0:0:0:
321,145,89067,1,2,3:2:0:0:
416,205,89236,2,0,P|412:234|408:264,2,59.4999981842042,0|2|0,3:2|0:0|3:2,0:0:0:0:
321,145,89745,1,0,1:0:0:0:
221,245,89914,2,0,L|294:235,1,59.4999981842042,2|0,0:0|0:0,0:0:0:0:
102,165,90253,2,0,L|175:155,1,59.4999981842042,2|2,0:0|0:0,0:0:0:0:
397,278,90931,5,0,3:2:0:0:
446,110,91101,1,0,1:0:0:0:
446,110,91779,5,0,3:2:0:0:
361,44,91948,1,2,3:2:0:0:
292,182,92118,1,2,0:0:0:0:
372,128,92287,5,0,3:2:0:0:
233,94,92457,1,2,1:2:0:0:
295,252,92626,2,0,L|305:176,2,59.4999981842042,2|0|2,0:0|0:0|0:0,0:0:0:0:
374,343,93135,6,0,P|333:305|196:310,1,178.499994552612,2|0,0:0|3:2,0:0:0:0:
0,122,93813,1,2,1:2:0:0:
146,178,93982,1,0,3:2:0:0:
203,101,94152,1,0,3:2:0:0:
203,101,94491,5,2,3:2:0:0:
125,47,94660,1,0,3:2:0:0:
210,106,94830,2,0,L|284:95,1,59.4999981842042,2|0,0:0|3:2,0:0:0:0:
219,243,95168,1,0,1:0:0:0:
79,206,95338,2,0,L|153:195,1,59.4999981842042,2|0,0:0|0:0,0:0:0:0:
322,293,95677,1,2,0:0:0:0:
402,245,95846,1,2,0:0:0:0:
402,245,96355,5,0,3:2:0:0:
172,215,96524,1,0,1:0:0:0:
172,215,97202,5,0,3:2:0:0:
267,149,97372,1,2,3:2:0:0:
212,294,97541,1,2,0:0:0:0:
93,241,97711,1,0,3:2:0:0:
224,368,97880,2,0,P|234:343|234:295,1,59.4999981842042,2|2,1:2|0:0,0:0:0:0:
185,158,98219,2,0,P|174:182|175:231,1,59.4999981842042,0|2,0:0|0:0,0:0:0:0:
212,294,98558,1,2,3:2:0:0:
411,163,99067,5,8,0:0:0:0:
411,163,99152,1,8,0:0:0:0:
411,163,99236,1,8,0:3:0:0:
467,90,99406,1,8,0:3:0:0:
394,34,99575,1,8,3:2:0:0:
338,107,99745,1,8,3:2:0:0:
411,163,99914,6,0,P|438:121|422:12,1,136,4|0,3:2|0:0,0:0:0:0:
92,244,100592,2,0,P|92:284|120:316,1,68,0|0,3:0|0:0,0:0:0:0:
183,363,100931,1,4,3:3:0:0:
262,299,101101,5,2,0:0:0:0:
262,299,101185,1,2,0:0:0:0:
262,299,101270,2,0,P|325:288|420:284,1,136,2|4,3:1|0:1,0:0:0:0:
483,52,101948,1,0,3:2:0:0:
416,125,102118,2,0,P|409:164|405:215,1,68,8|0,0:3|0:0,0:0:0:0:
483,52,102457,1,0,3:2:0:0:
319,157,102626,6,0,P|277:118|285:20,1,136,4|2,3:2|0:1,0:0:0:0:
84,143,103135,1,0,0:0:0:0:
84,143,103219,1,4,0:3:0:0:
84,143,103304,2,0,P|118:132|177:129,1,68,0|2,3:2|0:0,0:0:0:0:
108,225,103558,1,4,0:3:0:0:
116,235,103643,2,0,P|71:246|34:249,1,68,2|0,0:1|0:0,0:0:0:0:
191,334,103982,6,0,P|243:338|288:352,1,85,8|0,3:3|0:0,0:0:0:0:
325,287,104208,2,0,P|367:284|408:274,1,85,8|0,3:3|0:0,0:0:0:0:
424,289,104434,1,8,3:3:0:0:
498,242,104547,1,8,0:0:0:0:
431,121,104660,1,8,3:2:0:0:
425,128,104999,5,10,0:2:0:0:
419,138,105338,6,0,L|408:279,1,136,4|2,3:2|0:1,0:0:0:0:
78,377,106016,2,0,P|63:350|69:288,1,68,8|2,0:0|0:1,0:0:0:0:
136,238,106355,1,2,0:1:0:0:
225,271,106524,1,0,0:0:0:0:
314,213,106694,6,0,B|389:214|369:254|467:245,2,136,0|2|8,3:2|0:1|0:0,0:0:0:0:
113,61,107541,2,0,L|104:124,1,34,0|0,3:2|3:2,0:0:0:0:
49,180,107711,1,8,0:3:0:0:
88,195,107795,1,8,0:3:0:0:
130,193,107880,1,8,3:3:0:0:
168,174,107965,1,8,3:3:0:0:
195,142,108049,5,4,3:2:0:0:
195,142,108389,1,0,3:0:0:0:
307,114,108558,1,0,3:0:0:0:
342,260,108728,1,0,3:2:0:0:
269,185,108897,1,8,3:2:0:0:
440,230,109067,1,8,0:0:0:0:
335,361,109236,1,8,0:0:0:0:
155,115,109406,5,8,0:0:0:0:
187,76,109490,1,8,0:0:0:0:
233,54,109575,1,8,0:3:0:0:
283,52,109660,1,8,0:3:0:0:
331,70,109745,2,0,P|340:103|340:133,1,55.2499974708558,0|0,3:2|3:2,0:0:0:0:
427,210,109914,2,0,P|417:244|395:272,1,55.2499974708558,8|8,3:3|3:3,0:0:0:0:
335,361,110084,5,8,0:0:0:0:
260,207,110253,1,8,0:0:0:0:
180,294,110423,1,8,0:0:0:0:
180,294,110507,1,8,0:0:0:0:
180,294,110592,1,8,3:3:0:0:
180,294,110677,1,8,3:3:0:0:
180,294,110762,6,0,P|135:288|80:285,1,85,6|2,3:2|0:0,0:0:0:0:
156,96,111101,2,0,P|153:143|144:197,1,85,8|2,0:0|0:0,0:0:0:0:
272,101,111440,2,0,P|315:66|402:80,1,127.5,2|0,3:2|0:0,0:0:0:0:
395,80,111779,2,0,P|337:102|292:94,1,85,8|2,0:0|0:0,0:0:0:0:
232,243,112118,6,0,P|207:204|222:147,1,85,2|2,3:2|0:0,0:0:0:0:
374,229,112457,2,0,P|383:268|392:320,1,85,8|2,0:0|0:0,0:0:0:0:
259,367,112796,2,0,P|216:373|153:387,1,85,2|2,3:2|0:0,0:0:0:0:
15,236,113135,2,0,P|42:273|140:269,1,127.5,8|0,0:0|0:0,0:0:0:0:
211,273,113474,6,0,B|122:272|140:338|50:327,1,170,2|8,3:2|0:0,0:0:0:0:
355,333,113982,2,0,P|400:321|462:317,1,85,2|2,0:0|3:2,0:0:0:0:
227,286,114321,1,2,0:0:0:0:
425,215,114491,2,0,P|465:169|452:80,1,127.5,10|0,0:0|0:0,0:0:0:0:
446,89,114830,6,0,P|435:127|426:186,1,85,2|2,3:2|0:0,0:0:0:0:
268,28,115168,2,0,P|309:36|364:42,1,85,8|2,0:0|0:0,0:0:0:0:
425,342,115507,1,2,3:2:0:0:
305,134,115677,1,2,3:2:0:0:
242,248,115846,1,8,0:0:0:0:
319,307,116016,6,0,P|340:258|331:217,1,85,6|0,3:2|3:2,0:0:0:0:
226,29,116524,6,0,P|233:83|239:195,1,140.25000428009,12|0,0:1|0:0,0:0:0:0:
242,248,116863,2,0,P|195:256|131:266,1,85,2|2,3:2|0:0,0:0:0:0:
310,67,117202,2,0,P|378:41|445:73,1,127.5,8|0,0:0|0:0,0:0:0:0:
445,47,117541,6,0,P|453:86|459:144,1,85,2|2,3:2|0:0,0:0:0:0:
251,357,117880,2,0,P|242:317|237:260,1,85,8|2,0:0|0:0,0:0:0:0:
146,82,118219,1,2,3:2:0:0:
260,176,118389,1,2,0:0:0:0:
134,264,118558,2,0,P|95:270|39:276,1,85,8|2,0:0|0:0,0:0:0:0:
269,88,118897,6,0,P|296:82|339:76,1,50.9999984436036,12|0,0:0|0:0,0:0:0:0:
512,77,119067,1,0,3:2:0:0:
375,12,119236,1,0,3:2:0:0:
299,245,119406,6,0,L|316:189,1,50.9999984436036,12|0,0:0|0:0,0:0:0:0:
413,115,119575,1,0,3:2:0:0:
217,170,119745,1,8,3:2:0:0:
371,353,119914,6,0,B|396:338|431:329|431:329|446:272|400:204,1,170,4|0,3:1|0:0,0:0:0:0:
174,32,120423,1,0,3:0:0:0:
181,59,120507,1,0,3:0:0:0:
187,85,120592,2,0,P|184:121|179:180,1,85,12|0,0:0|0:0,0:0:0:0:
45,367,120931,5,0,3:0:0:0:
28,327,121015,1,0,3:0:0:0:
26,285,121100,1,8,3:3:0:0:
40,245,121185,1,8,3:3:0:0:
66,212,121270,6,0,P|69:249|57:285,1,76.4999976654053,12|0,0:1|0:0,0:0:0:0:
58,296,121609,6,0,P|98:290|158:288,1,85,4|2,3:2|0:0,0:0:0:0:
371,353,121948,2,0,P|328:350|286:344,1,85,8|2,0:0|0:0,0:0:0:0:
174,32,122287,2,0,P|221:70|217:201,1,170,2|8,3:2|0:0,0:0:0:0:
118,142,122796,1,2,0:0:0:0:
266,255,122965,6,0,P|263:205|247:147,1,85,2|2,3:2|0:0,0:0:0:0:
11,23,123304,2,0,P|14:73|30:131,1,85,8|2,0:0|0:0,0:0:0:0:
234,338,123643,2,0,P|305:336|351:279,1,127.5,2|2,3:2|0:0,0:0:0:0:
342,286,123982,2,0,P|390:273|451:269,1,85,8|2,0:0|0:0,0:0:0:0:
445,71,124321,6,0,P|458:102|464:176,1,85,2|2,3:2|0:0,0:0:0:0:
342,286,124660,2,0,P|390:273|451:269,1,85,8|2,0:0|0:0,0:0:0:0:
247,213,124999,2,0,P|198:225|138:230,1,85,2|2,3:2|0:0,0:0:0:0:
8,76,125338,2,0,P|56:40|144:52,1,127.5,10|0,0:0|0:0,0:0:0:0:
143,27,125677,6,0,P|155:69|161:141,1,85,2|2,3:2|0:0,0:0:0:0:
77,367,126016,2,0,P|64:324|59:253,1,85,8|2,0:0|0:0,0:0:0:0:
92,134,126355,1,2,3:2:0:0:
182,255,126524,1,2,3:2:0:0:
392,167,126694,1,8,0:0:0:0:
507,257,126863,6,0,P|469:250|417:245,1,85,6|0,3:2|3:2,0:0:0:0:
160,109,127372,6,0,P|206:61|330:84,1,165.749992412568,12|0,0:1|0:0,0:0:0:0:
383,82,127711,2,0,L|393:187,1,85,2|2,3:2|0:0,0:0:0:0:
341,323,128050,2,0,P|298:328|251:338,1,85,8|2,0:0|0:0,0:0:0:0:
27,251,128389,6,0,B|96:247|82:281|185:268,1,127.5,2|0,3:2|0:0,0:0:0:0:
168,284,128728,2,0,P|197:253|191:198,1,85,8|2,0:0|0:0,0:0:0:0:
138,37,129067,2,0,B|186:51|212:77|212:77|244:58|293:51,1,170,2|8,3:2|0:0,0:0:0:0:
454,260,129575,1,2,0:0:0:0:
384,185,129745,6,0,P|354:175|274:162,1,85,6|2,3:2|0:0,0:0:0:0:
89,286,130084,1,2,3:2:0:0:
257,356,130253,1,8,3:2:0:0:
222,134,130423,1,2,3:2:0:0:
188,263,130592,1,0,3:2:0:0:
208,259,130677,1,0,3:2:0:0:
228,254,130762,1,10,3:2:0:0:
436,90,130931,5,0,3:2:0:0:
411,81,131016,1,0,3:2:0:0:
385,71,131101,2,0,B|353:107|353:107|371:205,1,127.5,4|0,3:1|0:0,0:0:0:0:
373,204,131440,1,8,0:3:0:0:
257,356,131609,2,0,P|240:318|249:263,1,85,8|2,3:3|0:0,0:0:0:0:
76,170,131948,1,8,0:3:0:0:
184,30,132118,2,0,P|187:71|170:110,1,85,8|8,3:3|3:3,0:0:0:0:
295,84,132457,6,0,P|382:70|473:65,1,152.999995330811,4|2,3:2|3:1,0:0:0:0:
312,281,132965,1,2,3:2:0:0:
501,232,133135,2,0,P|460:192|369:190,1,152.999995330811,8|2,0:0|3:1,0:0:0:0:
416,293,133643,6,0,P|422:329|426:376,1,76.4999976654053,2|2,3:2|0:2,0:0:0:0:
265,183,133982,2,0,P|258:146|255:100,1,76.4999976654053,2|2,3:2|0:1,0:0:0:0:
312,281,134321,1,2,3:2:0:0:
228,353,134491,2,0,P|148:385|61:367,1,152.999995330811,8|2,0:0|3:1,0:0:0:0:
3,140,134999,1,10,0:0:0:0:
84,192,135168,6,0,P|91:226|99:285,1,76.4999976654053,4|0,3:2|0:0,0:0:0:0:
233,361,135507,1,2,0:1:0:0:
322,300,135677,1,0,3:2:0:0:
410,336,135846,2,0,P|457:295|444:188,1,152.999995330811,8|2,0:0|0:1,0:0:0:0:
378,65,136355,6,0,P|413:73|473:77,1,76.4999976654053,2|2,0:0|3:2,0:0:0:0:
315,148,136694,1,8,0:0:0:0:
238,83,136863,1,8,0:3:0:0:
219,78,136947,1,8,0:3:0:0:
200,74,137032,1,8,0:3:0:0:
182,69,137117,1,8,0:3:0:0:
163,65,137202,6,0,P|152:96|156:135,1,59.4999981842042,4|0,3:2|0:0,0:0:0:0:
63,223,137428,2,0,P|90:241|119:246,1,59.4999981842042,4|0,3:2|0:0,0:0:0:0:
185,349,137654,2,0,P|199:326|202:286,1,62.3333352355958,4|0,3:2|0:0,0:0:0:0:
187,196,137880,6,0,P|158:243|171:347,1,152.999995330811,4|2,3:2|3:1,0:0:0:0:
462,305,138389,1,0,3:2:0:0:
386,357,138558,2,0,P|351:363|301:373,1,76.4999976654053,8|2,0:0|0:0,0:0:0:0:
382,103,138897,1,6,0:1:0:0:
428,221,139067,6,0,P|419:292|414:394,1,152.999995330811,6|8,0:0|0:0,0:0:0:0:
226,144,139575,1,8,0:3:0:0:
312,268,139745,1,0,3:2:0:0:
315,243,139830,1,0,3:2:0:0:
321,215,139914,1,8,3:3:0:0:
396,85,140084,1,8,0:2:0:0:
498,152,140253,1,8,3:3:0:0:
171,270,140423,6,0,B|125:249|125:249|106:196|108:128,1,152.999995330811,12|0,0:0|3:0,0:0:0:0:
205,8,140931,1,0,3:0:0:0:
246,96,141101,1,0,3:2:0:0:
391,39,141270,1,8,3:2:0:0:
345,192,141440,1,8,3:2:0:0:
276,65,141609,1,8,3:2:0:0:
480,163,141779,1,8,3:2:0:0:
416,304,141948,5,8,3:2:0:0:
381,336,142032,1,8,3:3:0:0:
337,354,142117,1,0,3:3:0:0:
289,356,142202,1,0,3:3:0:0:
244,342,142286,1,0,3:2:0:0:
209,309,142372,1,8,3:3:0:0:
165,291,142457,1,0,3:3:0:0:
117,289,142542,1,0,3:3:0:0:
72,303,142626,1,12,3:1:0:0:
138,381,142796,1,8,3:1:0:0:
317,264,142965,5,8,0:3:0:0:
364,256,143049,1,8,0:3:0:0:
411,251,143134,1,8,3:3:0:0:
459,250,143219,1,8,3:3:0:0:
507,251,143303,1,4,3:2:0:0:
256,192,143389,12,0,146016,3:0:0:0:
133,162,148050,5,2,3:2:0:0:
286,213,148219,1,2,0:0:0:0:
344,139,148558,5,2,0:0:0:0:
117,175,148728,1,4,0:0:0:0:
256,192,148813,12,0,151440,3:0:0:0:
110,79,153304,5,8,0:0:0:0:
110,79,153389,1,8,0:0:0:0:
110,79,153474,1,8,0:0:0:0:
201,188,153643,1,8,0:3:0:0:
287,77,153813,1,0,3:3:0:0:
200,110,153982,5,8,0:0:0:0:
200,110,154067,1,8,0:0:0:0:
200,110,154152,1,4,3:2:0:0:
169,288,154321,1,2,0:0:0:0:
310,195,154491,1,0,3:3:0:0:
118,161,154660,1,2,0:0:0:0:
255,354,154830,2,0,P|273:319|267:258,1,76.4999976654053,2|8,3:2|0:0,0:0:0:0:
198,66,155168,1,2,3:2:0:0:
163,219,155338,1,2,0:0:0:0:
260,143,155507,5,0,3:3:0:0:
349,332,155677,1,2,0:0:0:0:
459,227,155846,1,8,0:0:0:0:
301,237,156016,1,2,0:0:0:0:
415,275,156185,1,0,3:3:0:0:
393,109,156355,1,10,0:0:0:0:
206,199,156524,1,2,3:2:0:0:
349,211,156694,5,0,3:2:0:0:
349,211,156779,1,8,0:0:0:0:
349,211,156863,1,0,3:2:0:0:
180,119,157033,1,2,0:0:0:0:
123,265,157202,1,8,0:0:0:0:
251,190,157372,1,2,0:0:0:0:
46,377,157541,2,0,P|34:344|40:279,1,76.4999976654053,2|8,3:2|0:0,0:0:0:0:
164,178,157880,1,2,3:2:0:0:
100,65,158050,1,2,0:0:0:0:
50,158,158219,5,0,3:2:0:0:
243,236,158389,1,2,0:0:0:0:
436,85,158558,2,0,B|407:52|369:31|369:31|339:34|302:52,1,140.25000428009,8|0,0:0|0:0,0:0:0:0:
311,64,158897,1,0,3:2:0:0:
380,216,159067,2,0,L|389:281,1,46.7500014266968,8|8,0:0|0:0,0:0:0:0:
413,361,159236,1,0,3:2:0:0:
413,361,159321,1,0,3:2:0:0:
413,361,159406,1,8,3:3:0:0:
413,361,159491,1,8,3:3:0:0:
413,361,159575,6,0,P|378:356|320:346,1,68,4|2,3:2|0:0,0:0:0:0:
147,290,159914,1,2,0:0:0:0:
53,338,160084,1,2,0:0:0:0:
233,341,160253,2,0,P|241:308|242:263,1,68,0|0,3:0|3:0,0:0:0:0:
135,48,160592,2,0,P|136:81|144:114,1,68,8|8,0:2|0:2,0:0:0:0:
375,156,160931,5,8,0:2:0:0:
257,66,161101,1,8,0:2:0:0:
229,183,161270,1,8,0:2:0:0:
401,260,161440,1,8,0:2:0:0:
331,146,161609,1,8,0:2:0:0:
208,302,161779,1,8,0:2:0:0:
364,372,161948,1,8,0:2:0:0:
404,382,162032,1,8,0:2:0:0:
446,375,162117,1,8,0:2:0:0:
482,352,162202,1,8,0:2:0:0:
506,318,162287,6,0,L|493:255,1,50.9999984436036,12|0,3:2|0:0,0:0:0:0:
298,218,162457,1,0,3:2:0:0:
276,214,162626,1,0,3:2:0:0:
418,93,162796,6,0,L|404:160,1,50.9999984436036,12|0,3:2|0:0,0:0:0:0:
280,219,162965,1,0,3:2:0:0:
258,215,163134,1,0,3:2:0:0:
364,372,163304,6,0,L|353:317,1,50.9999984436036,12|0,3:2|0:0,0:0:0:0:
236,211,163474,1,0,3:2:0:0:
0,283,163643,5,12,3:2:0:0:
18,328,163727,1,0,3:2:0:0:
55,362,163812,1,0,3:2:0:0:
102,378,163897,1,0,3:2:0:0:
153,371,163982,2,0,P|171:342|169:299,1,68,0|0,3:2|3:2,0:0:0:0:
291,270,164152,2,0,P|280:235|251:212,1,68,0|0,3:2|3:2,0:0:0:0:
139,115,164321,5,8,3:2:0:0:
139,115,164491,1,0,3:2:0:0:
364,178,164660,5,8,3:2:0:0:
330,69,164830,1,2,0:0:0:0:
213,283,164999,5,4,3:2:0:0:
163,335,175846,6,0,P|126:339|73:348,1,68,6|0,3:1|0:0,0:0:0:0:
124,145,176185,2,0,P|129:177|134:225,1,68,2|0,3:2|0:0,0:0:0:0:
239,278,176524,2,0,P|304:309|373:300,1,136,2|0,3:2|3:2,0:0:0:0:
460,151,177033,1,0,0:0:0:0:
388,214,177202,6,0,P|351:218|306:229,1,68,2|0,3:2|0:0,0:0:0:0:
379,98,177541,2,0,P|368:60|363:16,1,68,2|0,3:2|0:0,0:0:0:0:
240,133,177880,2,0,P|185:145|131:157,1,102,2|0,3:2|0:0,0:0:0:0:
124,145,178219,2,0,P|149:128|197:132,1,68,0|4,3:2|0:3,0:0:0:0:
180,227,178558,5,0,3:2:0:0:
180,227,178728,1,0,0:0:0:0:
108,305,178897,2,0,P|100:343|92:385,1,68,2|0,3:2|0:0,0:0:0:0:
280,328,179236,2,0,P|253:322|206:316,1,68,2|2,3:2|0:0,0:0:0:0:
373,377,179575,6,0,P|409:332|402:245,1,136,2|0,3:2|3:2,0:0:0:0:
314,56,180084,1,0,0:0:0:0:
343,139,180253,2,0,P|340:172|332:207,1,68,2|0,3:2|0:0,0:0:0:0:
110,183,180592,2,0,P|180:172|260:165,1,136,2|2,3:2|3:2,0:0:0:0:
488,299,181101,1,0,0:0:0:0:
406,370,181270,5,12,0:0:0:0:
406,370,181609,1,0,3:0:0:0:
450,254,181779,1,0,3:0:0:0:
509,321,181948,1,0,3:2:0:0:
327,338,182118,1,0,3:2:0:0:
355,110,182287,1,8,3:2:0:0:
414,281,182457,1,8,0:0:0:0:
187,329,182626,5,8,3:2:0:0:
344,205,182796,1,8,0:0:0:0:
135,148,182965,1,8,0:0:0:0:
89,356,183135,1,8,0:0:0:0:
221,216,183304,1,8,0:0:0:0:
293,358,183474,1,8,0:0:0:0:
41,217,183643,1,8,3:2:0:0:
14,164,183727,1,8,3:2:0:0:
20,105,183812,1,8,3:3:0:0:
55,58,183897,1,8,3:3:0:0:
110,38,183982,6,0,L|138:108,1,55.2499974708558,4|0,3:2|0:0,0:0:0:0:
221,216,184152,1,0,3:0:0:0:
254,74,184321,1,0,3:0:0:0:
46,167,184491,6,0,L|111:203,1,55.2499974708558,4|0,3:2|0:0,0:0:0:0:
229,221,184660,1,0,3:0:0:0:
129,113,184830,1,0,3:0:0:0:
79,308,184999,6,0,L|152:293,1,55.2499974708558,4|0,3:2|0:0,0:0:0:0:
239,216,185168,1,0,3:0:0:0:
31,208,185338,1,0,3:0:0:0:
234,342,185507,6,0,L|199:385,1,55.2499974708558,4|0,3:1|0:0,0:0:0:0:
133,297,185677,6,0,L|79:308,1,55.2499974708558,8|0,0:0|0:0,0:0:0:0:
94,194,185846,6,0,L|46:167,1,55.2499974708558,0|0,3:2|0:0,0:0:0:0:
130,89,186016,6,0,L|110:38,1,55.2499974708558,12|0,0:1|0:0,0:0:0:0:
51,285,186185,2,0,L|37:353,1,55.2499974708558,8|8,0:0|0:0,0:0:0:0:
221,216,186355,5,8,0:0:0:0:
221,216,186440,1,8,0:0:0:0:
221,216,186524,1,8,0:0:0:0:
221,216,186609,1,8,0:0:0:0:
221,216,186694,6,0,P|256:210|276:172,1,63.75,0|0,0:0|0:0,0:0:0:0:
367,279,187033,6,0,P|321:223|197:229,1,178.499994552612,12|0,0:2|0:0,0:0:0:0:
163,296,187372,2,0,L|150:402,1,85,2|2,3:2|0:0,0:0:0:0:
31,208,187711,2,0,L|42:115,1,85,8|2,0:0|0:0,0:0:0:0:
194,13,188050,6,0,P|162:57|180:151,1,127.5,2|0,3:2|0:0,0:0:0:0:
179,139,188389,2,0,L|280:122,1,85,8|2,0:0|0:0,0:0:0:0:
512,334,188728,1,2,3:2:0:0:
411,222,188897,1,2,0:0:0:0:
346,295,189067,2,0,L|262:309,1,85,8|2,0:0|0:0,0:0:0:0:
5,230,189406,6,0,B|98:228|73:283|205:259,1,170,2|8,3:2|0:0,0:0:0:0:
192,58,189914,2,0,P|175:97|190:164,1,85,2|2,0:0|3:2,0:0:0:0:
336,316,190253,1,2,0:0:0:0:
275,373,190423,2,0,P|294:308|287:221,1,127.5,10|0,0:0|0:0,0:0:0:0:
287,228,190762,6,0,L|380:238,1,85,2|2,3:2|0:0,0:0:0:0:
502,27,191101,1,8,0:0:0:0:
384,129,191270,1,2,0:0:0:0:
318,49,191440,1,2,3:2:0:0:
477,178,191609,1,2,3:2:0:0:
371,317,191779,1,8,0:0:0:0:
188,203,191948,6,0,P|234:168|281:177,1,101.999996887207,6|0,3:2|3:2,0:0:0:0:
469,254,192457,6,0,B|410:247|410:247|358:258|358:258|272:245,1,178.499994552612,12|0,0:1|0:0,0:0:0:0:
292,248,192796,2,0,L|302:334,1,85,2|2,3:2|0:0,0:0:0:0:
76,214,193135,2,0,P|44:161|62:72,1,127.5,8|0,0:0|0:0,0:0:0:0:
74,21,193474,6,0,L|83:106,1,85,2|2,3:2|0:0,0:0:0:0:
253,241,193813,1,8,0:0:0:0:
328,157,193982,1,2,0:0:0:0:
292,325,194152,2,0,P|257:338|190:343,1,85,2|2,3:2|0:0,0:0:0:0:
418,250,194491,2,0,P|460:254|499:269,1,85,8|2,0:0|0:0,0:0:0:0:
328,157,194830,6,0,L|311:83,1,55.2499974708558,12|0,0:0|0:0,0:0:0:0:
232,30,194999,1,0,3:2:0:0:
425,158,195168,1,0,3:2:0:0:
246,295,195338,6,0,L|255:220,1,55.2499974708558,12|0,0:0|0:0,0:0:0:0:
335,81,195507,1,0,3:2:0:0:
161,184,195677,1,8,3:2:0:0:
340,381,195846,6,0,B|367:365|403:363|403:363|413:306|378:227,1,170,4|0,3:1|0:0,0:0:0:0:
64,69,196355,1,0,3:0:0:0:
70,97,196440,1,0,3:0:0:0:
77,125,196524,1,12,0:0:0:0:
191,305,196694,2,0,P|222:297|270:292,1,55.2499974708558,8|0,3:3|0:0,0:0:0:0:
404,373,196863,5,0,3:0:0:0:
456,359,196948,1,8,0:0:0:0:
495,320,197032,1,8,3:3:0:0:
508,267,197117,1,8,3:3:0:0:
492,215,197202,2,0,P|471:210|425:204,1,55.2499974708558,12|0,0:1|0:0,0:0:0:0:
258,32,197372,5,8,0:0:0:0:
270,59,197457,1,8,0:0:0:0:
283,88,197541,2,0,L|297:195,1,85,4|2,3:2|0:0,0:0:0:0:
174,379,197880,2,0,L|162:294,1,85,8|2,0:0|0:0,0:0:0:0:
15,139,198219,2,0,P|58:92|125:87,1,127.5,2|0,3:2|0:0,0:0:0:0:
133,102,198558,2,0,P|93:108|40:77,1,85,8|2,0:0|0:0,0:0:0:0:
258,32,198897,6,0,P|292:17|351:19,1,85,2|2,3:2|0:0,0:0:0:0:
495,200,199236,2,0,P|453:192|410:189,1,85,8|2,0:0|0:0,0:0:0:0:
249,265,199575,2,0,P|211:203|240:121,1,127.5,2|2,3:2|0:0,0:0:0:0:
229,138,199914,2,0,P|238:177|247:252,1,85,8|2,0:0|0:0,0:0:0:0:
29,342,200253,6,0,B|94:335|77:367|164:357,1,127.5,2|0,3:2|0:0,0:0:0:0:
229,379,200592,2,0,P|273:368|341:369,1,85,8|2,0:0|0:0,0:0:0:0:
461,198,200931,2,0,P|478:242|472:299,1,85,2|2,3:2|0:0,0:0:0:0:
276,169,201270,2,0,P|250:117|264:29,1,127.5,10|0,0:0|0:0,0:0:0:0:
267,22,201609,6,0,L|152:41,1,85,2|2,3:2|0:0,0:0:0:0:
87,180,201948,2,0,P|79:138|70:96,1,85,8|2,0:0|0:0,0:0:0:0:
195,218,202287,1,2,3:2:0:0:
122,349,202457,1,2,3:2:0:0:
0,166,202626,1,8,0:0:0:0:
276,169,202796,6,0,P|361:154|481:149,1,170,6|0,3:2|3:2,0:0:0:0:
297,353,203304,2,0,P|251:360|209:361,1,85,8|2,0:2|0:0,0:0:0:0:
33,259,203643,1,2,3:2:0:0:
189,140,203813,1,2,0:0:0:0:
47,27,203982,2,0,P|56:67|63:131,1,85,8|2,0:0|0:0,0:0:0:0:
129,258,204321,6,0,P|182:286|268:270,1,127.5,2|0,3:2|0:0,0:0:0:0:
282,247,204660,2,0,B|235:249|245:272|174:270,1,85,8|2,0:0|0:0,0:0:0:0:
391,364,204999,2,0,B|450:338|450:338|458:277|427:211,1,170,2|8,3:2|0:0,0:0:0:0:
307,69,205507,1,2,0:0:0:0:
387,19,205677,6,0,P|428:17|488:12,1,85,6|2,3:2|0:0,0:0:0:0:
243,137,206016,2,0,P|200:133|158:131,1,85,8|2,3:2|0:0,0:0:0:0:
47,354,206355,1,0,3:2:0:0:
222,272,206524,1,0,3:2:0:0:
121,201,206694,1,8,0:2:0:0:
262,370,206863,1,4,0:0:0:0:
451,308,207033,6,0,P|409:305|354:299,1,85,4|2,0:1|3:2,0:0:0:0:
149,336,207372,1,8,0:2:0:0:
311,192,207541,1,8,3:3:0:0:
309,209,207626,1,8,3:3:0:0:
306,227,207711,1,2,3:2:0:0:
355,314,207880,1,8,0:3:0:0:
438,264,208050,1,8,3:3:0:0:
392,180,208219,1,8,3:3:0:0:
284,245,208389,6,0,B|196:252|213:297|116:296,1,170,4|2,3:2|3:1,0:0:0:0:
29,153,208897,1,0,0:0:0:0:
121,201,209067,2,0,P|141:167|126:99,1,85,8|2,0:0|0:0,0:0:0:0:
298,17,209406,1,2,3:1:0:0:
241,88,209575,6,0,L|138:101,1,85,2|2,3:2|0:2,0:0:0:0:
377,237,209914,2,0,L|461:226,1,85,2|2,3:2|0:1,0:0:0:0:
503,143,210253,1,2,3:2:0:0:
331,337,210423,2,0,P|291:304|297:170,1,170,8|2,0:0|3:1,0:0:0:0:
111,32,210931,1,8,0:0:0:0:
21,81,211101,6,0,B|65:81|105:69|105:69|136:101|210:123,1,170,4|2,3:2|3:1,0:0:0:0:
40,347,211609,1,0,3:2:0:0:
96,183,211779,2,0,P|102:231|107:294,1,85,8|2,0:0|0:0,0:0:0:0:
390,331,212118,1,2,3:1:0:0:
300,241,212287,6,0,P|254:247|199:259,1,85,0|2,3:0|0:2,0:0:0:0:
406,341,212626,2,0,P|451:334|507:323,1,85,8|2,0:0|3:1,0:0:0:0:
373,110,212965,1,0,3:0:0:0:
453,168,213135,6,0,B|484:162|484:162|507:146|518:123,1,68,4|0,3:2|0:0,0:0:0:0:
371,85,213361,2,0,B|342:71|342:71|314:70|306:75,1,68,4|0,3:2|0:0,0:0:0:0:
198,198,213587,2,0,L|275:181,1,62.3333352355958,4|0,3:2|0:0,0:0:0:0:
368,259,213813,6,0,P|330:223|213:226,1,170,4|2,3:2|3:1,0:0:0:0:
27,381,214321,1,0,3:2:0:0:
96,308,214491,2,0,B|162:313|152:339|252:341,1,127.5,8|0,0:0|0:0,0:0:0:0:
230,319,214830,1,6,0:1:0:0:
423,376,214999,6,0,B|481:363|481:363|514:309|488:234,1,170,6|8,3:2|0:0,0:0:0:0:
337,23,215507,1,8,3:2:0:0:
368,141,215677,1,0,3:2:0:0:
368,141,215762,1,0,3:2:0:0:
368,141,215846,1,8,3:3:0:0:
439,78,216016,1,8,0:2:0:0:
405,222,216185,1,8,0:3:0:0:
219,106,216355,6,0,P|136:97|53:168,1,170,6|0,3:2|3:0,0:0:0:0:
70,319,216863,1,0,3:0:0:0:
145,376,217033,1,0,3:2:0:0:
275,255,217202,1,8,3:2:0:0:
409,343,217372,1,8,3:2:0:0:
198,300,217541,1,8,3:2:0:0:
313,53,217711,1,8,3:2:0:0:
390,143,217880,5,8,3:2:0:0:
341,163,217964,1,8,3:3:0:0:
288,163,218049,1,0,3:3:0:0:
240,142,218134,1,0,3:3:0:0:
203,103,218219,2,0,L|185:28,1,50.9999984436036,8|0,3:2|0:0,0:0:0:0:
95,243,218389,5,0,3:2:0:0:
256,192,219236,12,0,220507,0:0:0:0:
200,208,220592,6,0,L|194:232,1,25.5,4|0,0:0|0:0,0:0:0:0:
213,226,220931,6,0,L|207:250,1,25.5,4|0,0:0|0:0,0:0:0:0:
251,332,221270,5,8,0:0:0:0:
263,329,221354,1,8,0:3:0:0:
276,327,221439,1,0,3:3:0:0:
288,325,221524,1,0,3:3:0:0:
360,356,221609,5,8,0:3:0:0:
372,353,221693,1,8,0:3:0:0:
385,351,221778,1,8,0:0:0:0:
397,349,221863,1,8,0:0:0:0:
468,379,221948,6,0,P|482:345|476:283,1,85,4|2,3:2|0:0,0:0:0:0:
437,49,222287,1,8,0:0:0:0:
354,106,222457,2,0,P|351:148|366:187,1,85,2|0,0:0|3:0,0:0:0:0:
240,164,222796,2,0,P|196:171|138:184,1,85,2|8,0:0|0:0,0:0:0:0:
32,360,223135,1,2,0:0:0:0:
86,262,223304,5,0,3:2:0:0:
293,345,223474,1,2,0:0:0:0:
386,372,223643,2,0,B|431:358|431:358|453:307|427:250,1,127.5,10|0,0:0|0:0,0:0:0:0:
422,262,223982,1,2,3:1:0:0:
283,45,224152,1,2,0:0:0:0:
237,236,224321,1,10,0:1:0:0:
442,161,224491,1,2,0:0:0:0:
324,132,224660,5,0,3:2:0:0:
422,262,224830,2,0,P|473:268|528:280,1,85,2|8,0:0|0:0,0:0:0:0:
369,59,225168,2,0,P|355:99|351:163,1,85,2|0,0:0|3:0,0:0:0:0:
139,296,225507,1,2,0:0:0:0:
228,357,225677,2,0,P|241:316|246:253,1,85,8|2,0:0|0:0,0:0:0:0:
102,30,226016,5,0,3:0:0:0:
65,229,226185,1,2,0:0:0:0:
350,141,226355,1,12,0:0:0:0:
214,103,226524,1,2,0:0:0:0:
204,130,226609,1,2,0:0:0:0:
205,159,226694,2,0,P|209:195|227:233,1,50.9999984436036,2|0,3:1|0:0,0:0:0:0:
325,378,226863,2,0,P|337:358|342:327,1,50.9999984436036,8|0,0:0|0:0,0:0:0:0:
155,281,227033,2,0,P|180:305|206:315,1,50.9999984436036,12|0,0:1|0:0,0:0:0:0:
426,282,227202,5,8,0:0:0:0:
425,258,227287,1,8,0:0:0:0:
416,239,227372,2,0,P|385:219|326:220,1,76.4999976654053,6|0,3:2|0:0,0:0:0:0:
485,281,227711,6,0,P|429:220|346:214,1,170,12|0,0:2|3:0,0:0:0:0:
144,269,228219,1,2,0:0:0:0:
220,350,228389,1,8,0:1:0:0:
43,333,228558,6,0,P|29:300|32:238,1,85,2|0,0:0|3:0,0:0:0:0:
193,78,228897,1,2,0:0:0:0:
124,30,229067,2,0,P|154:88|154:161,1,127.5,8|0,0:0|0:0,0:0:0:0:
147,161,229406,1,2,3:1:0:0:
326,244,229575,1,2,0:0:0:0:
388,62,229745,1,10,0:1:0:0:
285,133,229914,1,2,0:0:0:0:
447,236,230084,5,2,3:1:0:0:
284,265,230253,1,2,0:0:0:0:
369,67,230423,1,12,0:1:0:0:
355,204,230592,5,2,0:1:0:0:
268,78,230762,1,0,3:2:0:0:
461,22,230931,1,2,3:2:0:0:
393,112,231101,5,14,0:1:0:0:
102,217,231270,1,2,0:0:0:0:
16,127,231440,5,8,0:0:0:0:
55,92,231524,1,8,0:3:0:0:
106,80,231609,1,0,3:0:0:0:
156,95,231694,1,0,3:0:0:0:
193,132,231778,1,8,0:0:0:0:
213,179,231863,1,8,0:3:0:0:
253,212,231948,1,0,3:0:0:0:
306,221,232033,1,0,3:0:0:0:
355,204,232118,1,8,0:0:0:0:
386,163,232202,1,0,3:0:0:0:
393,112,232287,1,0,3:0:0:0:
369,67,232372,1,8,0:0:0:0:
326,41,232457,2,0,P|306:81|304:115,1,63.7500024318696,8|0,0:0|3:0,0:0:0:0:
353,322,232626,5,8,0:0:0:0:
349,306,232711,1,8,0:0:0:0:
345,291,232796,2,0,P|390:282|459:278,1,85,4|2,3:2|0:0,0:0:0:0:
507,367,233135,1,12,0:1:0:0:
242,327,233304,2,0,P|223:288|226:240,1,85,2|0,0:0|3:0,0:0:0:0:
45,154,233643,1,2,0:0:0:0:
170,41,233813,2,0,P|170:83|151:120,1,85,12|2,0:2|0:0,0:0:0:0:
346,82,234152,6,0,P|391:74|443:69,1,85,0|2,3:2|0:0,0:0:0:0:
325,231,234491,2,0,B|288:226|249:209|249:209|228:225|197:236,1,127.5,14|0,0:1|0:0,0:0:0:0:
199,249,234830,1,2,3:1:0:0:
310,350,234999,1,2,0:0:0:0:
398,106,235168,1,14,0:1:0:0:
487,251,235338,1,2,0:0:0:0:
342,216,235507,5,0,3:2:0:0:
489,140,235677,1,2,0:0:0:0:
393,334,235846,2,0,P|351:340|279:358,1,85,12|2,0:2|0:0,0:0:0:0:
37,113,236185,1,0,3:0:0:0:
158,205,236355,1,2,0:0:0:0:
92,360,236524,2,0,P|80:323|76:266,1,85,12|2,0:1|0:0,0:0:0:0:
162,54,236863,5,0,3:2:0:0:
174,218,237033,1,10,0:0:0:0:
319,102,237202,1,0,3:2:0:0:
357,288,237372,1,10,0:0:0:0:
259,185,237541,1,2,3:1:0:0:
404,373,237711,5,10,0:0:0:0:
451,362,237795,1,10,0:0:0:0:
490,331,237880,1,8,0:3:0:0:
512,287,237965,1,8,0:3:0:0:
512,238,238049,1,8,3:3:0:0:
491,193,238134,1,8,3:3:0:0:
454,162,238219,6,0,P|444:205|445:250,1,76.4999976654053,6|0,3:2|0:0,0:0:0:0:
428,70,238558,6,0,P|449:150|442:243,1,170,12|0,0:2|3:0,0:0:0:0:
260,362,239067,1,2,0:0:0:0:
90,317,239236,2,0,P|136:310|183:298,1,85,12|2,0:1|0:0,0:0:0:0:
499,374,239575,5,0,3:0:0:0:
430,268,239745,1,2,0:0:0:0:
278,335,239914,2,0,P|268:310|263:239,1,85,12|2,0:0|0:0,0:0:0:0:
293,35,240253,1,2,3:1:0:0:
415,121,240423,1,2,0:0:0:0:
347,281,240592,1,14,0:1:0:0:
154,216,240762,1,2,0:0:0:0:
294,140,240931,6,0,L|369:125,1,55.2499974708558,4|0,3:2|0:0,0:0:0:0:
238,60,241101,1,8,0:0:0:0:
204,103,241185,1,8,0:0:0:0:
201,157,241270,1,0,3:2:0:0:
229,204,241355,1,0,3:2:0:0:
278,227,241440,6,0,L|353:212,1,55.2499974708558,10|0,0:0|0:0,0:0:0:0:
294,140,241609,1,8,0:0:0:0:
260,183,241693,1,8,0:0:0:0:
257,237,241778,1,0,3:2:0:0:
285,284,241863,1,0,3:2:0:0:
334,307,241948,6,0,L|409:292,1,55.2499974708558,12|0,0:1|0:0,0:0:0:0:
490,232,242118,2,0,P|486:208|470:160,1,55.2499974708558,2|0,3:2|0:0,0:0:0:0:
407,36,242287,5,2,3:2:0:0:
375,205,242457,1,2,3:2:0:0:
492,135,242626,1,2,0:0:0:0:
417,337,242796,1,10,0:0:0:0:
227,250,242965,1,8,0:0:0:0:
346,124,243135,1,10,0:0:0:0:
207,338,243304,6,0,B|117:333|137:381|26:367,1,165.749992412568,8|0,3:2|0:0,0:0:0:0:
28,342,243643,1,6,3:2:0:0:
256,192,243728,12,0,247711,0:0:0:0:
