osu file format v14

[General]
AudioFilename: audio.mp3
AudioLeadIn: 0
PreviewTime: 164575
Countdown: 0
SampleSet: Soft
StackLeniency: 0.7
Mode: 0
LetterboxInBreaks: 0
WidescreenStoryboard: 1

[Editor]
DistanceSpacing: 1.4
BeatDivisor: 4
GridSize: 32
TimelineZoom: 1

[Metadata]
Title:LEVEL
TitleUnicode:LEVEL <やなぎなぎ ver.>
Artist:yanaginagi x THE SIXTH LIE
ArtistUnicode:やなぎなぎ×THE SIXTH LIE
Creator:Erisu
Version:Easy
Source:天才王子の赤字国家再生術
Tags:The Genius Gaia Guide to Raising a Nation Out of Debt Hey, How About Treason? Tensai Ouji no Akaji Kokka Saisei Jutsu anime opening japanese pop full ver version lanzhu mayuzumi fuyuko ninym thicc thighs Prince's
BeatmapID:3575441
BeatmapSetID:1745954

[Difficulty]
HPDrainRate:2.5
CircleSize:2
OverallDifficulty:3
ApproachRate:4
SliderMultiplier:0.899999999999999
SliderTickRate:1

[Events]
//Background and Video events
0,0,"ninym.jpg",0,0
//Break Periods
2,78420,87748
2,165200,174527
//Storyboard Layer 0 (Background)
//Storyboard Layer 1 (Fail)
//Storyboard Layer 2 (Pass)
//Storyboard Layer 3 (Foreground)
//Storyboard Layer 4 (Overlay)
//Storyboard Sound Samples

[TimingPoints]
1727,344.827586206897,4,2,1,50,1,0
1727,-100,4,2,1,50,0,0
12244,-100,4,2,1,50,0,0
12416,-100,4,2,1,50,0,0
12761,-100,4,2,1,60,0,0
22071,-100,4,2,1,60,0,0
23795,-100,4,2,1,50,0,0
25864,-100,4,2,1,30,0,0
25951,-100,4,2,1,50,0,0
29140,-100,4,2,1,50,0,0
29313,-100,4,2,1,50,0,0
32416,-100,4,2,1,40,0,0
32761,-100,4,2,1,50,0,0
33106,-100,4,2,1,60,0,0
34485,-100,4,2,1,60,0,0
34830,338.983050847458,4,2,1,70,1,0
34830,-100,4,2,1,70,0,0
42965,-100,4,2,1,70,0,0
45677,-100,4,2,1,70,0,0
56524,-100,4,2,1,60,0,0
61270,-100,4,2,1,60,0,0
61948,-100,4,2,1,60,0,0
64830,-100,4,2,1,40,0,0
65168,-100,4,2,1,50,0,0
65507,-100,4,2,1,60,0,0
66016,-100,4,2,1,70,0,0
66524,-100,4,2,1,70,0,0
67372,-100,4,2,1,70,0,0
73813,-100,4,2,1,70,0,0
75507,-100,4,2,1,70,0,0
77541,-100,4,2,1,70,0,0
78219,-100,4,2,1,40,0,0
78982,-100,4,2,1,10,0,0
79914,-100,4,2,1,40,0,0
81694,-100,4,2,1,10,0,0
82287,-100,4,2,1,40,0,0
84406,-100,4,2,1,10,0,0
85338,-100,4,2,1,40,0,0
87118,-100,4,2,1,10,0,0
88050,-100,4,2,1,40,0,0
89067,-100,4,2,1,40,0,0
99914,-100,4,2,1,50,0,0
101609,-100,4,2,1,30,0,0
101694,-100,4,2,1,50,0,0
103982,-100,4,2,1,50,0,0
105338,-100,4,2,1,50,0,0
108389,-100,4,2,1,40,0,0
108728,-100,4,2,1,50,0,0
109067,-100,4,2,1,60,0,0
109745,-100,4,2,1,60,0,0
110762,-100,4,2,1,70,0,0
116524,-100,4,2,1,70,0,0
116863,-100,4,2,1,70,0,0
118897,-100,4,2,1,70,0,0
119914,-100,4,2,1,70,0,0
121609,-100,4,2,1,70,0,0
127372,-100,4,2,1,70,0,0
127711,-100,4,2,1,70,0,0
132457,-100,4,2,1,60,0,0
137201,-100,4,2,1,60,0,0
137654,-100,4,2,1,60,0,0
137880,-100,4,2,1,60,0,0
140762,-100,4,2,1,40,0,0
141100,-100,4,2,1,50,0,0
141439,-100,4,2,1,60,0,0
141948,-100,4,2,1,70,0,0
143304,-100,4,2,1,60,0,0
154491,-100,4,2,1,60,0,0
159575,-100,4,2,1,60,0,0
159745,-100,4,2,1,40,0,0
160931,-100,4,2,1,50,0,0
161609,-100,4,2,1,60,0,0
162287,-100,4,2,1,70,0,0
164830,-100,4,2,1,50,0,0
175846,-100,4,2,1,50,0,0
181609,-100,4,2,1,30,0,0
181948,-100,4,2,1,40,0,0
182287,-100,4,2,1,50,0,0
182626,-100,4,2,1,60,0,0
183304,-100,4,2,1,70,0,0
183982,-100,4,2,1,70,0,0
186694,-100,4,2,1,30,0,0
187033,-100,4,2,1,70,0,0
187372,-100,4,2,1,70,0,0
192457,-100,4,2,1,70,0,0
192796,-100,4,2,1,70,0,0
194830,-100,4,2,1,70,0,0
195846,-100,4,2,1,70,0,0
196694,-100,4,2,1,70,0,0
197541,-100,4,2,1,70,0,0
208389,-100,4,2,1,60,0,0
213135,-100,4,2,1,60,0,0
213587,-100,4,2,1,60,0,0
213813,-100,4,2,1,60,0,0
216694,-100,4,2,1,40,0,0
217032,-100,4,2,1,50,0,0
217371,-100,4,2,1,60,0,0
217880,-100,4,2,1,70,0,0
218219,-100,4,2,1,70,0,0
220423,-100,4,2,1,5,0,0
220592,-100,4,2,1,70,0,0
221948,-100,4,2,1,70,0,0
227711,-100,4,2,1,70,0,0
232796,-100,4,2,1,70,0,0
238219,-100,4,2,1,70,0,0
238558,-100,4,2,1,70,0,0
243728,-100,4,2,1,40,0,0
244999,-100,4,2,1,30,0,0
246355,-100,4,2,1,20,0,0
247711,-100,4,2,1,10,0,0

[Colours]
Combo1 : 216,166,133
Combo2 : 138,244,205
Combo3 : 116,173,237
Combo4 : 245,221,137

[HitObjects]
450,344,1728,6,0,P|412:267|326:265,1,180,6|0,3:2|0:0,0:0:0:0:
221,349,2934,2,0,L|79:323,1,135,2|4,0:0|0:3,0:0:0:0:
13,274,3796,2,0,P|-13:229|-1:186,1,89.9999999999999,0|4,0:0|0:3,0:0:0:0:
19,107,4486,6,0,P|85:92|213:81,1,180,2|0,0:0|0:0,0:0:0:0:
311,44,5693,2,0,P|359:42|400:115,1,135,2|4,0:0|0:3,0:0:0:0:
331,166,6555,1,0,0:0:0:0:
379,241,6900,1,2,0:1:0:0:
293,267,7245,6,0,B|186:286|231:204|110:224,1,180,2|0,0:2|0:0,0:0:0:0:
68,343,8452,2,0,P|131:331|199:377,1,135,2|4,0:0|0:3,0:0:0:0:
280,367,9314,2,0,L|374:357,1,89.9999999999999,0|4,0:0|0:3,0:0:0:0:
442,304,10003,6,0,B|485:230|485:230|447:134,1,180,2|0,0:0|0:0,0:0:0:0:
359,42,11210,2,0,P|299:46|268:111,1,135,2|2,0:0|0:0,0:0:0:0:
151,244,12417,1,2,0:1:0:0:
67,210,12762,6,0,P|51:166|65:109,1,89.9999999999999,4|10,3:2|0:0,0:0:0:0:
107,50,13452,1,2,0:0:0:0:
241,34,13969,2,0,B|293:39|293:39|314:51|314:51|391:59,1,135,2|8,3:2|0:0,0:0:0:0:
458,30,14831,2,0,P|490:52|494:116,1,89.9999999999999,2|8,0:0|0:0,0:0:0:0:
447,173,15521,6,0,L|454:263,1,89.9999999999999,2|8,3:2|0:0,0:0:0:0:
404,347,16209,1,2,0:0:0:0:
284,285,16728,2,0,P|217:268|147:259,1,135,2|8,3:2|0:0,0:0:0:0:
102,183,17590,1,0,0:0:0:0:
176,133,17934,1,10,0:0:0:0:
114,67,18279,6,0,P|62:67|17:100,1,89.9999999999999,2|10,3:2|0:0,0:0:0:0:
8,173,18969,1,2,0:0:0:0:
7,307,19486,2,0,B|93:303|55:351|143:348,1,135,2|8,3:2|0:0,0:0:0:0:
219,364,20348,2,0,L|312:353,1,89.9999999999999,2|8,0:0|0:0,0:0:0:0:
373,290,21038,6,0,B|411:298|411:298|418:302|418:302|478:314,2,89.9999999999999,2|8|2,3:2|0:0|0:0,0:0:0:0:
299,238,22072,1,12,0:0:0:0:
357,169,22417,2,0,L|349:68,1,89.9999999999999,4|8,3:1|0:0,0:0:0:0:
274,29,23107,1,8,0:0:0:0:
213,95,23452,1,8,3:3:0:0:
141,41,23796,6,0,P|95:110|116:206,1,180,6|8,3:2|0:0,0:0:0:0:
239,245,25003,2,0,P|244:187|262:97,1,135,2|2,3:2|0:1,0:0:0:0:
310,38,25865,1,14,0:1:0:0:
400,21,26210,1,0,3:0:0:0:
470,77,26555,6,0,P|460:149|447:262,1,180,0|8,3:0|0:0,0:0:0:0:
368,364,27762,2,0,P|306:368|256:313,1,135,2|2,3:2|3:1,0:0:0:0:
211,241,28624,2,0,L|222:148,1,89.9999999999999,4|8,0:1|0:0,0:0:0:0:
278,81,29314,6,0,P|319:86|367:98,2,89.9999999999999,4|0|8,3:2|0:0|0:0,0:0:0:0:
151,33,30521,2,0,P|79:36|35:100,1,135,2|2,3:2|0:0,0:0:0:0:
12,166,31383,1,8,0:0:0:0:
57,243,31728,1,8,0:3:0:0:
0,312,32072,6,0,P|86:304|154:366,1,180,12|0,3:2|3:2,0:0:0:0:
242,365,33107,1,8,0:0:0:0:
257,276,33452,2,0,L|273:176,1,89.9999999999999,8|0,0:0|3:2,0:0:0:0:
287,98,34141,1,8,0:0:0:0:
443,3,34831,6,0,B|518:53|518:53|493:161,1,180,6|2,3:2|3:2,0:0:0:0:
498,230,35847,1,8,0:0:0:0:
427,285,36186,2,0,L|441:384,2,89.9999999999999,2|8|2,3:2|0:0|3:2,0:0:0:0:
351,236,37203,1,8,0:0:0:0:
287,299,37542,6,0,B|212:302|230:260|149:263,1,135,2|2,3:2|0:0,0:0:0:0:
47,187,38559,2,0,P|32:116|103:46,1,180,10|8,0:0|0:0,0:0:0:0:
188,18,39576,1,2,3:2:0:0:
267,127,40085,6,0,P|260:186|251:276,1,135,6|12,3:2|0:1,0:0:0:0:
305,333,40932,1,2,3:2:0:0:
394,336,41271,2,0,P|441:282|428:166,1,180,8|8,0:0|0:0,0:0:0:0:
441,88,42287,1,2,3:2:0:0:
363,41,42627,1,8,0:0:0:0:
274,26,42966,6,0,P|210:26|177:96,1,135,12|12,0:0|0:0,0:0:0:0:
40,76,43983,2,0,P|59:153|75:271,1,180,4|12,3:2|0:0,0:0:0:0:
58,341,45000,1,12,0:1:0:0:
143,370,45339,1,8,3:3:0:0:
214,315,45678,6,0,P|219:227|236:128,1,180,6|2,3:2|3:2,0:0:0:0:
293,68,46694,1,8,0:0:0:0:
380,89,47033,2,0,L|474:78,2,89.9999999999999,2|8|2,3:2|0:0|3:2,0:0:0:0:
351,174,48050,1,8,0:0:0:0:
282,232,48389,6,0,B|193:217,1,89.9999999999999,2|8,3:2|0:0,0:0:0:0:
154,135,49068,1,2,3:2:0:0:
70,101,49406,2,0,B|8:153|8:153|27:263,1,180,10|8,0:0|0:0,0:0:0:0:
69,328,50423,1,2,3:2:0:0:
170,239,50932,6,0,B|243:227|224:288|316:264,1,135,6|12,3:2|0:1,0:0:0:0:
379,305,51779,1,2,3:2:0:0:
453,255,52118,2,0,B|482:168|482:168|437:89,1,180,8|8,0:0|0:0,0:0:0:0:
348,91,53136,1,2,3:2:0:0:
280,31,53475,1,8,0:0:0:0:
213,91,53813,6,0,L|229:195,1,89.9999999999999,2|12,3:2|0:1,0:0:0:0:
259,264,54492,1,8,0:0:0:0:
194,326,54831,1,8,0:3:0:0:
110,292,55169,2,0,L|12:308,2,89.9999999999999,12|0|0,0:0|3:2|3:2,0:0:0:0:
124,202,56186,1,8,3:3:0:0:
148,115,56525,6,0,B|221:127|221:127|248:151|248:151|327:163,1,180,4|8,3:2|0:0,0:0:0:0:
439,103,57712,2,0,P|474:106|501:199,1,135,2|4,0:0|0:3,0:0:0:0:
480,274,58559,1,8,0:0:0:0:
418,340,58898,1,4,0:3:0:0:
342,290,59237,6,0,B|229:303|287:231|162:241,1,180,4|8,3:2|0:0,0:0:0:0:
76,331,60424,2,0,P|29:316|15:225,1,135,2|8,0:0|0:3,0:0:0:0:
37,156,61271,2,0,L|137:139,1,89.9999999999999,4|0,3:2|0:0,0:0:0:0:
201,190,61949,6,0,P|276:148|293:57,1,180,4|8,3:2|0:0,0:0:0:0:
160,38,63136,2,0,P|116:41|69:54,1,89.9999999999999,2|8,0:0|0:0,0:0:0:0:
6,115,63814,1,0,3:0:0:0:
59,187,64153,1,8,0:3:0:0:
11,263,64492,6,0,B|92:271|52:324|145:324,1,135,12|0,0:0|3:0,0:0:0:0:
210,290,65339,1,8,3:2:0:0:
273,354,65678,1,8,3:2:0:0:
353,312,66017,2,0,P|359:252|360:165,1,135,8|4,3:2|3:1,0:0:0:0:
284,65,67034,1,0,0:0:0:0:
199,97,67373,6,0,B|153:141|153:141|178:270,1,180,4|0,3:2|3:0,0:0:0:0:
125,330,68390,1,8,0:0:0:0:
59,269,68729,2,0,P|50:223|39:167,1,89.9999999999999,0|10,3:2|0:0,0:0:0:0:
22,92,69407,1,2,3:1:0:0:
103,52,69746,1,10,0:1:0:0:
176,103,70085,6,0,B|285:81|234:161|354:139,1,180,0|0,3:2|3:0,0:0:0:0:
405,73,71102,1,8,0:0:0:0:
490,101,71441,2,0,L|479:198,1,89.9999999999999,0|12,3:0|0:0,0:0:0:0:
406,243,72119,2,0,L|416:332,1,89.9999999999999,10|10,0:1|0:1,0:0:0:0:
334,371,72797,5,4,3:2:0:0:
263,314,73136,2,0,P|213:323|166:340,1,89.9999999999999,12|0,0:2|3:0,0:0:0:0:
146,250,73814,2,0,P|188:235|233:228,1,89.9999999999999,12|0,0:1|3:0,0:0:0:0:
320,207,74492,2,0,P|323:135|233:63,1,180,12|14,0:0|0:1,0:0:0:0:
161,89,75508,6,0,B|79:92|120:47|34:47,2,135,12|12|4,3:2|3:2|3:1,0:0:0:0:
248,65,76864,2,0,L|352:53,1,89.9999999999999,0|8,3:2|0:0,0:0:0:0:
426,39,77542,1,8,0:0:0:0:
480,110,77881,1,0,0:0:0:0:
447,194,78220,5,4,3:2:0:0:
50,324,89068,6,0,B|156:333|96:258|222:272,1,180,2|0,3:2|1:0,0:0:0:0:
276,335,90085,1,0,0:0:0:0:
401,286,90593,2,0,P|426:237|400:156,1,135,2|0,0:0|1:0,0:0:0:0:
446,82,91441,1,2,0:0:0:0:
363,46,91780,6,0,B|286:50|286:50|262:66|262:66|179:74,1,180,0|2,3:2|1:2,0:0:0:0:
268,182,92966,2,0,L|250:332,1,135,2|0,0:0|0:0,0:0:0:0:
175,364,93814,1,2,1:2:0:0:
85,360,94153,1,0,3:2:0:0:
37,283,94492,6,0,P|21:202|66:116,1,180,2|0,3:2|1:0,0:0:0:0:
176,44,95678,2,0,P|236:51|313:68,1,135,2|0,0:0|0:0,0:0:0:0:
389,26,96525,1,0,1:0:0:0:
498,105,97034,6,0,P|488:183|479:253,1,135,2|2,0:0|0:0,0:0:0:0:
416,301,97881,1,2,1:2:0:0:
338,347,98220,1,0,0:0:0:0:
275,282,98559,2,0,L|289:182,1,89.9999999999999,2|2,3:2|0:0,0:0:0:0:
298,103,99237,1,8,0:3:0:0:
221,55,99576,1,8,3:2:0:0:
136,84,99915,6,0,B|91:138|91:138|111:249,1,180,4|0,3:2|3:0,0:0:0:0:
207,347,101102,2,0,P|256:334|347:327,1,135,2|4,0:0|0:1,0:0:0:0:
427,360,101949,1,0,3:2:0:0:
499,304,102288,1,0,0:0:0:0:
437,235,102627,6,0,P|447:145|459:56,1,180,4|0,3:2|3:2,0:0:0:0:
334,2,103814,2,0,B|253:-10|287:44|202:42,1,135,2|0,0:0|0:0,0:0:0:0:
121,33,104661,2,0,L|110:122,1,89.9999999999999,8|10,3:2|0:2,0:0:0:0:
117,212,105339,6,0,P|69:221|19:240,2,89.9999999999999,4|2|8,3:2|0:1|0:0,0:0:0:0:
237,272,106525,2,0,P|309:269|353:205,1,135,2|2,0:0|0:1,0:0:0:0:
309,142,107373,1,8,0:0:0:0:
345,62,107712,1,8,0:3:0:0:
426,100,108051,6,0,B|480:177|480:177|448:279,1,180,4|0,3:2|3:2,0:0:0:0:
392,324,109068,1,8,0:0:0:0:
309,359,109407,2,0,L|216:349,1,89.9999999999999,8|0,0:0|3:2,0:0:0:0:
142,302,110085,1,8,0:0:0:0:
69,355,110424,1,8,0:0:0:0:
19,279,110763,6,0,P|24:199|36:83,1,180,6|2,3:2|3:2,0:0:0:0:
99,38,111779,1,8,0:0:0:0:
182,72,112118,2,0,L|277:57,2,89.9999999999999,2|8|2,3:2|0:0|3:2,0:0:0:0:
136,149,113135,1,8,0:0:0:0:
205,206,113474,6,0,B|263:214|263:214|276:227|276:227|348:238,1,135,2|2,3:2|0:0,0:0:0:0:
453,173,114491,2,0,P|450:63|397:32,1,180,10|8,0:0|0:0,0:0:0:0:
308,42,115508,1,2,3:2:0:0:
278,173,116017,6,0,P|271:232|262:322,1,135,6|12,3:2|0:1,0:0:0:0:
189,358,116864,1,2,3:2:0:0:
105,323,117203,2,0,B|66:275|66:275|91:148,1,180,8|8,0:0|0:0,0:0:0:0:
89,69,118219,1,2,3:2:0:0:
173,37,118559,1,8,0:0:0:0:
249,83,118898,6,0,P|313:83|375:39,1,135,12|12,0:0|0:0,0:0:0:0:
502,13,119915,2,0,P|478:90|459:204,1,180,4|12,3:1|0:0,0:0:0:0:
457,277,120932,1,0,3:0:0:0:
397,344,121271,1,12,0:1:0:0:
327,287,121610,6,0,B|224:260|258:342|141:313,1,180,4|2,3:2|3:2,0:0:0:0:
104,243,122626,1,8,0:0:0:0:
181,198,122965,2,0,L|167:102,2,89.9999999999999,2|8|2,3:2|0:0|3:2,0:0:0:0:
271,203,123982,1,8,0:0:0:0:
347,154,124321,6,0,B|362:60,1,89.9999999999999,2|8,3:2|0:0,0:0:0:0:
289,9,125000,1,2,3:2:0:0:
203,36,125338,2,0,P|120:43|21:71,1,180,10|8,0:0|0:0,0:0:0:0:
11,157,126355,1,2,3:2:0:0:
51,285,126864,6,0,B|113:291|113:291|125:303|125:303|197:310,1,135,6|12,3:2|0:1,0:0:0:0:
258,353,127711,1,2,3:2:0:0:
342,322,128050,2,0,P|377:248|326:156,1,180,8|8,0:0|0:0,0:0:0:0:
260,119,129068,1,2,3:2:0:0:
291,34,129406,1,8,0:0:0:0:
378,13,129745,6,0,L|477:24,1,89.9999999999999,6|2,3:2|3:2,0:0:0:0:
507,104,130424,1,2,3:2:0:0:
447,171,130763,1,10,3:2:0:0:
487,250,131101,2,0,L|474:339,1,89.9999999999999,4|8,3:1|0:3,0:0:0:0:
388,367,131779,1,2,0:0:0:0:
307,327,132118,1,8,3:3:0:0:
217,329,132457,6,0,L|244:140,1,180,4|8,3:2|0:0,0:0:0:0:
177,88,133474,2,0,P|181:44|191:-11,2,89.9999999999999,2|2|2,3:1|0:2|0:1,0:0:0:0:
100,135,134491,1,8,0:0:0:0:
126,221,134830,1,2,3:1:0:0:
59,281,135169,6,0,P|150:288|215:356,1,180,4|8,3:2|0:0,0:0:0:0:
300,357,136186,2,0,L|403:343,1,89.9999999999999,2|2,0:1|3:2,0:0:0:0:
457,285,136864,1,8,0:3:0:0:
392,221,137203,2,0,L|398:120,1,89.9999999999999,4|0,3:2|0:0,0:0:0:0:
403,41,137881,6,0,P|365:89|239:107,1,180,4|8,3:2|0:0,0:0:0:0:
163,122,138898,2,0,P|170:184|183:263,1,135,6|8,0:1|0:0,0:0:0:0:
164,344,139746,1,0,3:2:0:0:
77,368,140085,1,8,0:2:0:0:
19,298,140424,6,0,B|36:159,1,135,12|0,0:0|3:0,0:0:0:0:
15,76,141271,1,8,3:2:0:0:
93,31,141610,1,8,3:2:0:0:
164,85,141949,2,0,B|276:62|230:149|345:112,1,180,8|12,3:2|3:1,0:0:0:0:
398,54,142966,1,8,0:3:0:0:
474,101,143305,6,0,P|523:182|491:260,1,180,4|0,3:2|3:0,0:0:0:0:
347,360,144661,2,0,P|298:279|330:201,1,180,0|0,3:0|3:0,0:0:0:0:
341,116,145678,1,0,3:0:0:0:
265,66,146017,6,0,B|176:42|176:42|96:103,1,180,0|0,3:0|3:0,0:0:0:0:
15,250,147373,2,0,B|84:303|84:303|173:279,1,180,0|0,3:0|3:0,0:0:0:0:
244,335,148390,1,0,3:0:0:0:
320,287,148729,6,0,P|309:199|296:90,1,180,4|0,3:2|3:0,0:0:0:0:
475,142,150085,2,0,P|463:231|453:320,1,180,0|0,3:0|3:0,0:0:0:0:
374,366,151102,1,0,3:0:0:0:
327,288,151441,6,0,B|222:259|263:343|139:320,1,180,0|0,3:0|3:0,0:0:0:0:
170,143,152797,2,0,B|275:114|234:198|358:175,1,180,0|8,3:0|0:0,0:0:0:0:
418,135,153814,1,0,3:3:0:0:
394,48,154153,6,0,P|291:30|289:30,1,89.9999999999999,4|0,3:2|3:3,0:0:0:0:
215,25,154831,2,0,P|116:44|114:45,1,89.9999999999999,2|2,3:2|3:2,0:0:0:0:
37,45,155508,1,0,3:3:0:0:
7,130,155847,1,8,0:0:0:0:
43,212,156186,2,0,L|30:315,1,89.9999999999999,0|2,3:3|3:2,0:0:0:0:
98,361,156864,6,0,P|281:330|282:330,1,180,0|2,3:2|3:2,0:0:0:0:
362,350,157881,1,2,3:2:0:0:
450,331,158220,2,0,B|481:249|481:249|436:159,1,180,0|0,3:2|3:2,0:0:0:0:
393,88,159237,1,0,3:2:0:0:
305,108,159576,6,0,L|289:197,1,89.9999999999999,4|2,3:2|0:0,0:0:0:0:
319,281,160254,1,0,3:0:0:0:
239,323,160593,1,8,0:2:0:0:
191,246,160932,2,0,L|91:234,1,89.9999999999999,8|8,0:2|0:2,0:0:0:0:
15,208,161610,1,8,0:2:0:0:
28,118,161949,1,8,0:2:0:0:
98,62,162288,6,0,P|162:72|238:93,1,135,12|12,3:2|3:2,0:0:0:0:
356,43,163305,1,12,3:2:0:0:
407,117,163644,2,0,L|386:215,1,89.9999999999999,12|8,3:2|0:2,0:0:0:0:
298,213,164322,2,0,L|319:311,1,89.9999999999999,8|8,3:2|3:2,0:0:0:0:
383,362,165000,5,4,3:2:0:0:
37,106,175847,6,0,P|31:63|21:8,2,89.9999999999999,4|2|0,3:1|3:2|3:2,0:0:0:0:
113,154,176864,1,0,3:2:0:0:
193,112,177203,2,0,P|199:67|207:23,2,89.9999999999999,0|2|0,3:2|3:2|3:2,0:0:0:0:
246,184,178220,1,0,3:2:0:0:
309,119,178559,6,0,P|396:113|441:203,1,180,0|2,3:2|3:2,0:0:0:0:
495,256,179576,2,0,B|381:244|433:314|315:308,1,180,0|2,3:2|3:2,0:0:0:0:
244,279,180593,2,0,P|198:288|150:299,1,89.9999999999999,2|2,3:2|3:2,0:0:0:0:
86,354,181271,6,0,P|41:290|75:189,1,180,12|0,0:0|3:2,0:0:0:0:
152,171,182288,1,8,3:2:0:0:
233,209,182627,2,0,L|333:200,1,89.9999999999999,8|8,3:2|0:0,0:0:0:0:
411,183,183305,1,8,0:0:0:0:
454,104,183644,1,8,3:2:0:0:
390,39,183983,6,0,P|331:45|244:54,1,135,4|4,3:2|3:2,0:0:0:0:
122,43,185000,2,0,P|69:74|70:158,1,135,12|4,0:0|3:1,0:0:0:0:
27,273,186017,1,12,0:1:0:0:
92,334,186356,2,0,P|133:329|183:322,1,89.9999999999999,8|0,0:0|0:0,0:0:0:0:
253,267,187034,5,12,0:2:0:0:
332,308,187373,1,2,3:2:0:0:
405,256,187712,2,0,L|504:275,2,89.9999999999999,8|2|8,0:0|3:2|0:0,0:0:0:0:
345,188,188729,1,2,3:2:0:0:
394,112,189068,1,8,0:0:0:0:
329,49,189407,6,0,B|258:35|258:35|191:85,1,135,2|2,3:2|0:0,0:0:0:0:
78,32,190424,2,0,P|97:105|115:223,1,180,10|8,0:0|0:0,0:0:0:0:
69,287,191441,1,2,3:2:0:0:
191,343,191948,6,0,P|253:328|260:248,1,135,6|12,3:2|0:1,0:0:0:0:
221,189,192797,1,2,3:2:0:0:
252,104,193136,2,0,B|349:74|320:179|430:149,1,180,8|8,0:0|0:0,0:0:0:0:
484,207,194152,1,2,3:2:0:0:
460,294,194492,1,8,0:0:0:0:
395,356,194831,6,0,P|336:343|261:338,1,135,12|12,0:0|0:0,0:0:0:0:
126,349,195846,2,0,P|79:261|122:179,1,180,4|12,3:1|0:0,0:0:0:0:
193,167,196863,1,0,3:0:0:0:
268,216,197202,1,12,0:1:0:0:
352,183,197541,6,0,B|379:94|379:94|329:11,1,180,4|2,3:2|3:2,0:0:0:0:
244,18,198558,1,8,0:0:0:0:
163,57,198897,2,0,L|65:38,2,89.9999999999999,2|8|2,3:2|0:0|3:2,0:0:0:0:
206,135,199915,1,8,0:0:0:0:
148,203,200254,6,0,B|158:298,1,89.9999999999999,2|8,3:2|0:0,0:0:0:0:
94,357,200931,1,2,3:2:0:0:
24,300,201270,2,0,P|31:227|45:113,1,180,10|8,0:0|0:0,0:0:0:0:
72,35,202288,1,2,3:2:0:0:
189,101,202797,6,0,B|264:92|243:150|333:130,1,135,6|8,3:2|0:2,0:0:0:0:
375,66,203644,1,2,3:2:0:0:
446,120,203983,2,0,P|498:187|460:283,1,180,8|8,0:0|0:0,0:0:0:0:
414,340,204999,1,2,3:2:0:0:
336,293,205339,1,8,0:0:0:0:
261,343,205678,6,0,L|170:336,1,89.9999999999999,6|8,3:2|3:2,0:0:0:0:
84,363,206355,1,0,3:2:0:0:
50,232,206863,2,0,P|23:187|38:98,1,135,4|8,0:0|0:2,0:0:0:0:
99,47,207711,1,2,3:2:0:0:
179,86,208050,1,8,3:3:0:0:
167,175,208390,6,0,B|273:172|220:244|346:223,1,180,4|8,3:2|0:0,0:0:0:0:
415,191,209407,2,0,L|508:204,2,89.9999999999999,2|2|2,3:1|0:2|0:1,0:0:0:0:
369,113,210424,1,8,0:0:0:0:
423,41,210763,1,2,3:1:0:0:
339,6,211102,6,0,P|246:23|159:55,1,180,4|8,3:2|0:0,0:0:0:0:
75,56,212119,2,0,P|82:97|87:148,1,89.9999999999999,2|2,3:1|0:2,0:0:0:0:
25,211,212797,1,2,3:1:0:0:
56,295,213136,2,0,P|91:299|158:313,1,89.9999999999999,4|0,3:2|0:0,0:0:0:0:
224,352,213814,6,0,P|266:328|270:204,1,180,4|8,3:2|0:0,0:0:0:0:
307,77,215000,2,0,P|380:67|460:149,1,180,6|0,3:2|3:2,0:0:0:0:
478,220,216016,1,8,0:2:0:0:
429,295,216355,6,0,P|365:305|294:324,1,135,12|0,0:0|3:0,0:0:0:0:
223,373,217203,1,8,3:2:0:0:
145,327,217542,1,8,3:2:0:0:
60,357,217881,2,0,P|33:293|50:228,1,135,8|0,3:2|3:2,0:0:0:0:
125,120,218898,1,0,0:0:0:0:
71,47,219237,5,2,0:0:0:0:
406,177,220593,2,0,L|388:284,1,89.9999999999999,4|4,0:0|0:0,0:0:0:0:
353,347,221271,1,8,0:0:0:0:
265,365,221610,1,8,0:3:0:0:
212,291,221949,6,0,B|242:99,1,180,4|0,3:2|3:0,0:0:0:0:
198,32,222966,2,0,P|152:31|105:71,1,89.9999999999999,8|0,0:0|3:2,0:0:0:0:
51,117,223644,1,10,0:0:0:0:
98,193,223983,1,2,3:1:0:0:
49,268,224322,1,10,0:1:0:0:
106,337,224661,6,0,P|186:340|284:373,1,180,0|0,3:2|3:0,0:0:0:0:
367,349,225678,1,8,0:0:0:0:
452,321,226017,2,0,L|464:225,1,89.9999999999999,0|12,3:0|0:0,0:0:0:0:
394,173,226695,2,0,L|378:82,1,89.9999999999999,2|12,3:1|0:1,0:0:0:0:
303,34,227373,5,6,3:2:0:0:
216,58,227712,2,0,L|200:156,1,89.9999999999999,12|0,0:2|3:0,0:0:0:0:
150,220,228390,2,0,L|170:321,1,89.9999999999999,8|0,0:1|3:0,0:0:0:0:
84,343,229068,2,0,L|47:154,1,180,8|10,0:0|0:1,0:0:0:0:
57,76,230085,5,2,3:1:0:0:
131,25,230424,2,0,L|228:43,1,89.9999999999999,12|0,0:1|3:2,0:0:0:0:
295,90,231102,1,14,0:1:0:0:
371,43,231441,2,0,P|430:114|406:207,1,180,8|8,0:0|0:0,0:0:0:0:
440,281,232458,1,8,0:0:0:0:
374,342,232797,6,0,P|270:324|191:316,1,180,4|0,3:2|3:0,0:0:0:0:
137,247,233814,1,12,0:2:0:0:
212,197,234153,2,0,L|230:93,1,89.9999999999999,0|14,3:2|0:1,0:0:0:0:
163,44,234831,1,2,3:1:0:0:
74,26,235168,1,14,0:1:0:0:
19,97,235507,6,0,B|39:282,1,180,0|0,3:2|3:0,0:0:0:0:
85,352,236524,1,12,0:1:0:0:
163,307,236863,2,0,L|268:317,1,89.9999999999999,0|0,3:2|3:2,0:0:0:0:
337,346,237541,2,0,L|439:333,1,89.9999999999999,0|8,3:2|0:3,0:0:0:0:
489,271,238219,5,6,3:2:0:0:
417,215,238558,2,0,L|436:109,1,89.9999999999999,12|0,0:2|3:0,0:0:0:0:
348,95,239237,2,0,L|332:183,1,89.9999999999999,12|0,0:1|3:0,0:0:0:0:
336,274,239914,2,0,B|240:262|241:333|154:316,1,180,12|14,0:0|0:1,0:0:0:0:
103,253,240932,6,0,P|30:261|2:312,2,135,4|10|12,3:2|0:0|0:1,0:0:0:0:
176,200,242288,2,0,L|183:98,1,89.9999999999999,2|2,3:2|0:0,0:0:0:0:
245,45,242966,1,8,0:0:0:0:
329,75,243305,1,8,3:2:0:0:
320,164,243644,5,6,3:2:0:0:
256,192,243814,12,0,247712,0:0:0:0:
