osu file format v14

[General]
AudioFilename: audio.mp3
AudioLeadIn: 0
PreviewTime: 158391
Countdown: 0
SampleSet: Soft
StackLeniency: 0.8
Mode: 0
LetterboxInBreaks: 0
WidescreenStoryboard: 1

[Editor]
Bookmarks: 11212,20717,30222,39727,53985,65866,75371,84876,94381,108638,130024,139529,149034,158539,168044,187054
DistanceSpacing: 1.5
BeatDivisor: 4
GridSize: 16
TimelineZoom: 1.5

[Metadata]
Title:oversupply
TitleUnicode:oversupply
Artist:yanaginagi
ArtistUnicode:やなぎなぎ
Creator:nexusqi
Version:kowari's another
Source:
Tags:rock pop japanese branch kowari mnyui gelidium
BeatmapID:3960595
BeatmapSetID:1912139

[Difficulty]
HPDrainRate:6
CircleSize:4
OverallDifficulty:8
ApproachRate:9
SliderMultiplier:1.8
SliderTickRate:1

[Events]
//Background and Video events
0,0,"nexooooooooooos.jpg",0,0
//Break Periods
2,68442,74771
2,149234,162692
//Storyboard Layer 0 (Background)
//Storyboard Layer 1 (Fail)
//Storyboard Layer 2 (Pass)
//Storyboard Layer 3 (Foreground)
//Storyboard Layer 4 (Overlay)
//Storyboard Sound Samples

[TimingPoints]
1708,297.029702970297,4,2,1,70,1,0
20717,-125,4,2,1,50,0,0
28143,-125,4,2,1,60,0,0
30222,-111.111111111111,4,2,1,60,0,0
44628,-166.666666666666,4,2,1,60,0,0
48193,-125,4,2,1,60,0,0
49232,-125,4,2,1,65,0,0
51608,-100,4,2,1,65,0,0
52797,-200,4,2,1,65,0,0
53539,-100,4,2,1,65,0,0
53613,-100,4,2,1,5,0,0
53985,-100,4,2,1,70,0,1
63490,-100,4,2,1,60,0,0
64678,-133.333333333333,4,2,1,60,0,0
65792,-133.333333333333,4,2,1,5,0,0
65866,-133.333333333333,4,2,1,70,0,0
75371,-125,4,2,1,50,0,0
82797,-125,4,2,1,60,0,0
84876,-111.111111111111,4,2,1,60,0,0
99282,-200,4,2,1,60,0,0
103886,-200,4,2,1,65,0,0
104183,-111.111111111111,4,2,1,65,0,0
106262,-142.857142857143,4,2,1,65,0,0
108638,-100,4,2,1,70,0,1
118069,-100,4,2,1,70,0,0
118143,-100,4,2,1,70,0,1
127648,-100,4,2,1,60,0,0
128836,-133.333333333333,4,2,1,60,0,0
130024,-200,4,2,1,50,0,0
139529,-133.333333333333,4,2,1,50,0,0
163589,-125,4,2,1,50,0,0
165668,-125,4,2,1,60,0,0
166856,-80,4,2,1,60,0,0
167450,-200,4,2,1,60,0,0
168044,-90.9090909090909,4,2,1,70,0,1
177475,-90.9090909090909,4,2,1,70,0,0
177549,-90.9090909090909,4,2,1,70,0,1
187054,-100,4,2,1,70,0,0
190024,-200,4,2,1,70,0,0
190618,-100,4,2,1,70,0,0
200123,-90.9090909090909,4,2,2,70,0,1
209554,-90.9090909090909,4,2,2,5,0,1
209628,-100,4,2,1,70,0,0

[Colours]
Combo1 : 126,133,211
Combo2 : 207,235,252
Combo3 : 245,177,201

[HitObjects]
137,206,11212,6,0,P|153:145|60:68,1,180,6|8,1:0|0:0,0:0:0:0:
61,159,11658,1,0,0:0:0:0:
244,107,11807,2,0,P|294:94|338:70,2,90,2|0|8,1:0|0:0|0:0,0:0:0:0:
137,206,12252,6,0,B|102:273|144:344|144:344|170:297,1,180,2|0,0:1|3:0,0:0:0:0:
165,307,12623,1,0,3:0:0:0:
170,301,12698,2,0,P|230:283|278:273,1,90,8|2,0:0|0:1,0:0:0:0:
438,351,12995,2,0,L|369:329,1,45,0|0,1:0|0:0,0:0:0:0:
422,258,13143,2,0,L|388:193,1,45
478,183,13292,2,0,P|489:126|505:85,1,90,8|0,0:0|0:0,0:0:0:0:
304,194,13589,6,0,P|257:135|308:32,1,180,2|8,1:0|0:0,0:0:0:0:
403,20,14034,1,0,0:0:0:0:
395,172,14183,2,0,P|409:228|435:281,1,90,0|2,1:0|0:1,0:0:0:0:
222,133,14480,2,0,P|173:111|135:77,1,90,8|0,0:0|3:0,0:0:0:0:
141,82,14703,1,0,3:0:0:0:
138,74,14777,5,2,1:0:0:0:
224,26,14925,1,0,0:0:0:0:
37,112,15074,2,0,P|51:43|56:1,1,90,8|0,0:0|0:0,0:0:0:0:
233,213,15371,2,0,L|251:281,1,45,0|0,1:0|0:0,0:0:0:0:
160,255,15519,2,0,L|133:303,1,45
72,238,15668,1,8,0:0:0:0:
61,240,15742,1,8,0:0:0:0:
50,243,15816,1,8,0:0:0:0:
39,245,15890,1,8,0:0:0:0:
28,247,15965,6,0,B|8:316|56:376|56:376|115:348,1,180,2|8,1:0|0:0,0:0:0:0:
217,259,16410,1,0,0:0:0:0:
288,374,16559,2,0,P|231:356|171:349,2,90,2|0|8,1:0|0:0|0:0,0:0:0:0:
111,208,17005,6,0,P|187:226|255:133,1,180,2|0,0:1|3:0,0:0:0:0:
254,149,17376,1,0,3:0:0:0:
253,140,17450,2,0,P|241:70|229:29,1,90,8|2,0:0|0:1,0:0:0:0:
161,133,17747,1,0,1:0:0:0:
161,133,17896,1,0,0:0:0:0:
329,237,18044,1,8,0:0:0:0:
344,207,18118,1,8,0:0:0:0:
353,174,18192,1,8,0:0:0:0:
355,141,18266,1,8,0:0:0:0:
349,107,18341,6,0,B|394:69|457:86|457:86|477:65|522:48,1,180,2|8,1:0|0:0,0:0:0:0:
430,177,18787,1,0,0:0:0:0:
270,44,18935,2,0,L|276:-12,2,45,2|8|0,1:0|0:0|0:0,0:0:0:0:
197,128,19232,1,0,1:0:0:0:
430,177,19381,6,0,P|455:231|375:335,1,180,12|8,0:0|0:0,0:0:0:0:
267,264,19826,2,0,P|319:251|370:230,1,90,0|0,1:0|1:0,0:0:0:0:
271,369,20123,2,0,L|199:350,1,45,8|8,0:0|0:0,0:0:0:0:
142,384,20272,2,0,L|123:312,1,45,8|8,0:0|0:0,0:0:0:0:
70,242,20420,6,0,L|61:287,3,45,8|8|8|8,0:0|0:0|0:0|0:0,0:0:0:0:
44,204,20717,6,0,B|49:135|12:93|12:93|-2:123,1,144,6|0,1:2|1:0,0:0:0:0:
127,158,21163,1,0,0:0:0:0:
127,158,21311,2,0,P|173:143|212:124,1,72,2|0,1:2|0:0,0:0:0:0:
151,0,21608,2,0,P|138:53|130:80,1,72,2|0,1:2|0:0,0:0:0:0:
259,191,21906,6,0,P|281:129|241:60,1,144,2|0,1:2|1:0,0:0:0:0:
193,130,22351,1,0,0:0:0:0:
333,147,22500,2,0,P|379:164|416:188,1,72,2|0,1:2|0:0,0:0:0:0:
381,7,22797,2,0,P|386:60|402:104,1,72,2|0,1:2|0:0,0:0:0:0:
446,307,23094,6,0,B|455:256|455:256|479:227|479:227|491:158,1,144,2|0,1:2|1:0,0:0:0:0:
398,175,23539,1,0,0:0:0:0:
511,337,23688,2,0,P|467:315|414:295,1,72,0|0,1:2|0:0,0:0:0:0:
302,281,23985,2,0,P|335:266|367:250,1,72,2|0,1:2|0:0,0:0:0:0:
324,108,24282,6,0,P|306:149|295:184,1,72,0|0,1:2|0:0,0:0:0:0:
273,352,24579,2,0,P|261:317|246:285,1,72,2|0,1:2|0:0,0:0:0:0:
1,239,24876,6,0,P|41:266|85:288,1,72,0|2,1:0|0:0,0:0:0:0:
207,321,25173,2,0,P|159:330|125:341,1,72,0|0,1:0|0:0,0:0:0:0:
85,185,25470,6,0,P|174:194|221:130,2,144,0|2|2,1:0|1:2|1:2,0:0:0:0:
28,109,26212,1,0,0:0:0:0:
195,64,26361,2,0,P|236:42|266:21,1,72,0|2,1:0|0:2,0:0:0:0:
69,24,26658,6,0,P|106:84|119:114,1,72,0|0,1:0|0:0,0:0:0:0:
131,168,26955,1,0,1:0:0:0:
115,248,27104,1,0,0:0:0:0:
66,314,27252,2,0,P|17:293|-17:284,1,72,2|0,1:2|0:0,0:0:0:0:
201,229,27549,2,0,P|280:234|338:176,1,144,2|0,1:2|1:0,0:0:0:0:
328,195,28143,6,0,P|338:243|341:278,1,72,2|0,1:2|0:0,0:0:0:0:
424,384,28440,2,0,B|401:336|427:284|427:284|440:296,1,108,2|0,1:2|0:0,0:0:0:0:
438,286,28737,2,0,P|487:274|517:262,1,72,2|0,1:2|0:0,0:0:0:0:
512,89,29034,5,2,1:2:0:0:
512,89,29183,1,8,0:0:0:0:
423,191,29331,1,8,0:0:0:0:
399,4,29480,6,0,L|396:53,1,36,8|8,0:0|0:0,0:0:0:0:
414,110,29628,2,0,L|417:61,1,36,10|0,0:2|0:0,0:0:0:0:
285,19,29777,5,8,0:0:0:0:
298,39,29925,1,4,1:3:0:0:
304,63,30074,1,4,0:3:0:0:
212,52,30222,6,0,B|166:24|113:36|113:36|86:9|52:5,1,161.999995056153,4|8,1:0|0:0,0:0:0:0:
0,56,30668,1,0,0:0:0:0:
150,120,30816,2,0,P|166:185|172:212,1,80.9999975280763,2|0,1:2|0:0,0:0:0:0:
45,261,31113,2,0,P|60:211|67:173,1,80.9999975280763,10|0,0:2|0:0,0:0:0:0:
250,153,31410,6,0,P|264:243|202:290,1,161.999995056153,2|8,1:2|0:0,0:0:0:0:
131,280,31856,1,0,0:0:0:0:
299,343,32005,2,0,P|346:364|387:388,1,80.9999975280763,2|0,1:2|0:0,0:0:0:0:
321,213,32302,1,8,0:0:0:0:
375,281,32450,1,0,0:0:0:0:
224,372,32599,6,0,B|189:354|143:359|143:359|112:334|61:334,1,161.999995056153,2|8,1:2|0:0,0:0:0:0:
0,199,33044,1,0,0:0:0:0:
176,258,33193,2,0,P|191:199|166:128,1,121.499996292114,0|0,1:2|0:0,0:0:0:0:
161,129,33490,2,0,P|108:144|59:154,1,80.9999975280763,10|0,0:0|0:0,0:0:0:0:
265,150,33787,6,0,P|280:97|296:51,1,80.9999975280763,0|0,1:0|0:0,0:0:0:0:
30,20,34084,2,0,P|86:44|117:55,1,80.9999975280763,10|0,0:2|0:0,0:0:0:0:
344,4,34381,1,0,1:0:0:0:
196,81,34529,1,10,0:0:0:0:
344,4,34678,1,8,0:0:0:0:
407,143,34826,5,8,0:0:0:0:
407,143,34901,1,8,0:0:0:0:
407,143,34975,2,0,B|442:204|417:272|417:272|380:227,1,161.999995056153,4|10,1:2|0:2,0:0:0:0:
335,192,35420,1,0,0:0:0:0:
485,353,35569,2,0,P|442:323|361:351,1,121.499996292114,0|0,1:0|0:0,0:0:0:0:
368,342,35866,2,0,P|318:324|281:306,1,80.9999975280763,10|0,0:2|0:0,0:0:0:0:
136,377,36163,6,0,P|184:362|227:352,1,80.9999975280763,2|0,1:2|0:0,0:0:0:0:
348,240,36460,2,0,P|340:217|323:147,1,80.9999975280763,8|0,0:0|0:0,0:0:0:0:
82,235,36757,2,0,P|130:259|164:282,1,80.9999975280763,2|0,1:2|0:0,0:0:0:0:
238,109,37054,2,0,P|225:152|206:203,1,80.9999975280763,8|0,0:0|0:0,0:0:0:0:
25,313,37351,6,0,P|-7:260|31:152,1,161.999995056153,2|10,1:2|0:2,0:0:0:0:
103,135,37797,1,0,0:0:0:0:
1,0,37945,2,0,P|20:47|32:93,1,80.9999975280763,0|0,1:0|0:0,0:0:0:0:
82,236,38242,1,8,0:0:0:0:
196,90,38391,5,8,0:0:0:0:
196,90,38465,1,8,0:0:0:0:
196,90,38539,2,0,P|154:106|90:120,1,80.9999975280763,0|4,1:0|0:3,0:0:0:0:
263,166,38836,2,0,P|318:176|357:185,1,80.9999975280763,12|4,0:3|0:3,0:0:0:0:
213,0,39133,5,2,1:2:0:0:
259,267,39430,1,10,0:0:0:0:
469,50,39727,5,2,1:0:0:0:
385,100,39876,1,0,0:0:0:0:
389,5,40024,1,10,0:0:0:0:
473,143,40173,2,0,B|495:215|449:270|449:270|426:221,1,161.999995056153
372,133,40618,1,10,0:0:0:0:
292,230,40767,2,0,L|344:214,1,40.4999987640381,2|0,1:3|0:0,0:0:0:0:
336,215,41361,5,0,3:0:0:0:
338,209,41435,1,0,3:0:0:0:
340,203,41509,1,0,3:0:0:0:
275,152,41658,1,8,0:3:0:0:
192,159,41807,1,4,0:3:0:0:
139,221,41955,5,4,0:3:0:0:
139,221,42029,1,4,0:3:0:0:
139,221,42104,2,0,P|83:203|53:184,1,80.9999975280763,2|0,1:0|0:0,0:0:0:0:
194,298,42401,2,0,P|221:345|237:382,1,80.9999975280763,8|0,0:0|0:0,0:0:0:0:
213,181,42698,5,8,0:0:0:0:
109,313,42846,1,8,0:0:0:0:
218,175,42995,1,8,0:0:0:0:
103,319,43143,1,8,0:0:0:0:
103,319,43737,6,0,P|137:310|163:305,1,40.4999987640381,0|0,1:3|1:3,0:0:0:0:
0,369,43886,2,0,P|13:319|24:262,1,80.9999975280763,8|0,0:3|0:0,0:0:0:0:
170,166,44183,2,0,B|187:224|187:224|214:252|214:252|234:327,1,161.999995056153,4|10,0:3|0:0,0:0:0:0:
378,211,44628,6,0,P|297:191|259:175,1,107.999996704102,10|0,0:0|0:0,0:0:0:0:
375,303,45074,2,0,P|380:313|398:363,1,53.9999983520508,2|0,0:0|0:0,0:0:0:0:
288,383,45371,2,0,P|296:357|303:322,1,53.9999983520508,2|0,0:0|0:0,0:0:0:0:
335,114,45668,5,10,0:0:0:0:
450,254,45816,2,0,P|469:196|503:138,1,107.999996704102,10|0,0:0|0:0,0:0:0:0:
402,54,46262,2,0,P|412:85|434:122,1,53.9999983520508,2|0,0:0|0:0,0:0:0:0:
326,198,46559,2,0,P|358:186|392:164,1,53.9999983520508,2|0,0:0|0:0,0:0:0:0:
512,300,46856,5,10,0:0:0:0:
382,282,47005,2,0,P|403:333|420:393,1,107.999996704102,10|0,0:0|0:0,0:0:0:0:
281,254,47450,2,0,P|253:239|224:221,1,53.9999983520508,2|0,0:0|0:0,0:0:0:0:
136,311,47747,2,0,P|168:301|203:295,1,53.9999983520508,2|0,0:0|0:0,0:0:0:0:
309,181,48044,5,10,0:0:0:0:
259,352,48193,2,0,P|200:360|132:302,1,144,10|0,0:0|1:0,0:0:0:0:
138,306,48564,1,0,1:0:0:0:
139,301,48638,2,0,P|86:310|48:321,1,72,0|4,1:0|0:3,0:0:0:0:
125,115,48935,2,0,P|105:190|79:238,1,108,8|0,0:0|0:0,0:0:0:0:
81,225,49232,5,10,0:0:0:0:
23,138,49381,1,8,0:0:0:0:
207,192,49529,2,0,B|261:180|261:180|300:186|300:186|352:173,2,144,0|0|2,1:0|1:0|1:2,0:0:0:0:
134,133,50272,1,0,0:0:0:0:
235,271,50420,5,10,0:2:0:0:
291,101,50569,1,8,0:0:0:0:
336,259,50717,2,0,P|352:293|381:336,1,72,0|2,1:0|0:2,0:0:0:0:
126,293,51014,2,0,P|185:298|271:324,1,144,0|2,1:0|1:2,0:0:0:0:
324,384,51460,1,0,0:0:0:0:
443,222,51608,6,0,L|426:292,1,45,10|8,0:2|0:0,0:0:0:0:
482,369,51757,2,0,L|495:314,3,45,8|8|8|8,0:0|0:0|0:0|0:0,0:0:0:0:
356,298,52054,6,0,L|403:285,1,45,8|8,0:0|0:0,0:0:0:0:
505,173,52203,2,0,L|453:184,3,45,10|8|8|8,0:2|0:0|0:0|0:0,0:0:0:0:
370,196,52500,5,10,0:2:0:0:
372,184,52574,1,8,0:0:0:0:
374,173,52648,1,8,0:0:0:0:
377,162,52722,1,8,0:0:0:0:
381,149,52797,2,0,P|391:99|405:10,1,135,10|0,0:0|0:0,0:0:0:0:
302,105,53391,5,8,0:0:0:0:
486,52,53539,2,0,P|455:64|439:77,1,45,8|0,0:0|0:0,0:0:0:0:
139,206,53985,6,0,B|64:214|20:149|20:149|91:136,1,180,6|8,1:0|0:0,0:0:0:0:
184,55,54430,1,0,0:0:0:0:
239,207,54579,2,0,P|226:264|208:312,1,90,2|0,1:2|0:0,0:0:0:0:
210,309,54802,2,0,L|155:327,1,45,2|8,0:2|0:2,0:0:0:0:
38,300,55024,2,0,L|93:282,1,45,2|0,0:2|0:0,0:0:0:0:
318,153,55173,6,0,B|342:215|317:279|317:279|328:299|331:338,1,180,0|8,1:0|0:0,0:0:0:0:
239,207,55618,1,0,0:0:0:0:
410,276,55767,2,0,P|463:290|518:296,1,90,2|0,1:0|0:0,0:0:0:0:
249,329,56064,2,0,P|208:355|168:387,1,90,8|0,0:0|0:0,0:0:0:0:
478,194,56361,6,0,P|513:141|470:36,1,180,2|8,1:0|0:0,0:0:0:0:
350,1,56807,1,0,0:0:0:0:
289,178,56955,2,0,P|332:166|374:150,1,90,2|0,1:2|0:0,0:0:0:0:
388,144,57178,2,0,L|403:88,1,45,2|8,0:0|0:2,0:0:0:0:
233,12,57401,2,0,L|220:66,1,45,2|0,0:0|0:0,0:0:0:0:
150,112,57549,2,0,P|157:168|170:226,1,90,0|0,1:0|0:0,0:0:0:0:
287,360,57846,5,8,0:0:0:0:
284,354,57920,1,8,0:0:0:0:
281,349,57995,1,8,0:0:0:0:
278,343,58069,1,8,0:0:0:0:
276,337,58143,2,0,P|228:315|141:350,1,135,2|0,1:0|0:0,0:0:0:0:
83,384,58440,2,0,L|66:324,1,45,8|0,0:0|0:0,0:0:0:0:
0,295,58589,2,0,L|17:235,1,45,8|8,0:0|0:0,0:0:0:0:
63,172,58737,6,0,B|109:156|153:188|153:188|207:188|243:151,1,180,2|8,1:0|0:0,0:0:0:0:
95,248,59183,1,0,0:0:0:0:
170,100,59331,2,0,P|180:40|183:6,1,90,2|0,1:2|0:0,0:0:0:0:
177,8,59554,2,0,L|121:-7,1,45,2|8,0:2|0:2,0:0:0:0:
21,86,59777,2,0,P|49:77|77:71,1,45,2|0,0:2|0:0,0:0:0:0:
277,60,59925,6,0,B|316:122|290:201|290:201|258:164,1,180,2|8,1:1|0:0,0:0:0:0:
170,100,60371,1,0,0:0:0:0:
397,109,60519,2,0,P|451:82|497:46,1,90,0|8,1:0|0:0,0:0:0:0:
268,175,60816,1,0,1:0:0:0:
406,317,60965,5,8,0:0:0:0:
406,317,61039,1,8,0:0:0:0:
406,317,61113,2,0,P|386:257|365:214,1,90,2|0,1:0|0:0,0:0:0:0:
329,30,61410,2,0,P|311:71|297:114,1,90,8|0,0:0|0:0,0:0:0:0:
298,306,61708,6,0,P|249:279|190:259,1,90,2|8,1:0|0:0,0:0:0:0:
41,161,62005,2,0,L|71:213,1,45,0|0,1:0|0:0,0:0:0:0:
138,145,62153,2,0,L|196:159,1,45,8|8,0:0|0:0,0:0:0:0:
187,66,62302,5,2,1:0:0:0:
245,0,62450,1,8,0:0:0:0:
78,71,62599,1,0,1:0:0:0:
296,165,62747,5,10,0:2:0:0:
302,168,62821,1,8,0:0:0:0:
308,171,62896,1,10,0:0:0:0:
229,131,63044,1,8,0:3:0:0:
143,159,63193,1,4,0:3:0:0:
104,234,63341,1,4,0:3:0:0:
81,357,63490,5,4,1:0:0:0:
81,357,63787,2,0,P|130:371|178:390,1,90,8|0,0:0|1:0,0:0:0:0:
279,273,64084,2,0,P|236:288|193:300,1,90,8|0,0:0|1:0,0:0:0:0:
0,384,64381,2,0,P|31:341|55:297,1,90,8|0,0:0|1:0,0:0:0:0:
71,49,64678,6,0,B|40:162|125:245|125:245|135:180,1,270.000010299683,8|4,0:0|1:2,0:0:0:0:
303,90,65717,2,0,P|283:82|246:72,1,33.7500012874604,2|0,0:1|0:0,0:0:0:0:
178,93,65866,1,6,1:0:0:0:
256,192,65940,12,2,68242,1:0:0:0:
268,191,75371,6,0,B|340:165|344:206|415:172,1,144,6|0,1:2|1:0,0:0:0:0:
461,113,75816,1,0,0:0:0:0:
370,242,75965,2,0,P|358:277|349:337,1,72,2|0,1:2|0:0,0:0:0:0:
319,134,76262,2,0,P|285:108|257:74,1,72,2|0,1:2|0:0,0:0:0:0:
268,272,76559,6,0,P|201:276|158:199,1,144,2|0,1:2|1:0,0:0:0:0:
98,158,77005,1,0,0:0:0:0:
0,254,77153,2,0,P|39:242|74:239,1,72,2|0,1:2|0:0,0:0:0:0:
73,77,77450,2,0,P|59:122|38:156,1,72,2|0,1:2|0:0,0:0:0:0:
45,323,77747,6,0,B|96:314|96:314|135:324|135:324|186:313,1,144,2|0,1:2|1:0,0:0:0:0:
260,243,78193,1,0,0:0:0:0:
276,381,78341,2,0,P|294:338|317:311,1,72,0|0,1:2|0:0,0:0:0:0:
328,154,78638,2,0,P|345:197|355:251,1,72,2|0,1:2|0:0,0:0:0:0:
373,383,78935,6,0,P|413:363|456:355,1,72,0|0,1:2|0:0,0:0:0:0:
255,210,79232,2,0,P|208:194|170:173,1,72,2|0,1:2|0:0,0:0:0:0:
440,264,79529,2,0,B|467:209|453:150|453:150|428:175,1,144,0|0,1:0|1:0,0:0:0:0:
351,221,79975,1,0,0:0:0:0:
410,72,80123,6,0,P|453:61|499:57,1,72,0|0,1:0|0:0,0:0:0:0:
278,4,80420,2,0,P|303:52|319:122,1,108,2|0,1:2|0:0,0:0:0:0:
312,117,80717,1,2,1:2:0:0:
176,181,80866,2,0,P|187:138|194:98,1,72,2|0,0:0|1:0,0:0:0:0:
260,289,81163,6,0,B|214:269|214:269|170:274|170:274|102:249,1,144,2|0,0:2|0:0,0:0:0:0:
34,217,81608,1,0,1:0:0:0:
176,181,81757,1,0,0:0:0:0:
50,124,81906,2,0,P|39:84|19:45,1,72,2|0,1:2|0:0,0:0:0:0:
123,256,82203,2,0,P|111:295|112:348,1,72,2|0,1:2|0:0,0:0:0:0:
3,190,82500,6,0,P|96:186|130:140,1,144,0|2,1:0|1:2,0:0:0:0:
157,12,82945,1,0,0:0:0:0:
268,124,83094,2,0,P|217:101|185:64,1,72,2|0,1:2|0:0,0:0:0:0:
12,84,83391,2,0,P|67:63|105:59,1,72,2|0,1:2|0:0,0:0:0:0:
263,31,83688,5,2,1:2:0:0:
140,146,83836,1,8,0:0:0:0:
268,124,83985,1,8,0:0:0:0:
126,240,84133,5,8,0:0:0:0:
123,246,84208,1,8,0:0:0:0:
119,251,84282,1,10,0:2:0:0:
149,324,84430,1,8,0:0:0:0:
227,357,84579,2,0,L|278:343,1,36,4|0,1:3|0:0,0:0:0:0:
337,375,84727,2,0,L|363:329,1,36,4|4,0:3|0:3,0:0:0:0:
350,246,84876,6,0,B|400:243|439:271|439:271|478:264|520:280,1,161.999995056153,4|2,1:0|0:0,0:0:0:0:
465,353,85321,1,0,1:0:0:0:
338,154,85470,2,0,P|283:175|241:205,2,80.9999975280763,8|8|2,0:0|0:0|0:0,0:0:0:0:
490,177,85915,6,0,P|505:108|440:32,1,161.999995056153,0|8,1:0|0:0,0:0:0:0:
282,20,86361,2,0,P|323:42|366:52,1,80.9999975280763,2|0,0:0|1:0,0:0:0:0:
499,95,86658,1,8,0:0:0:0:
499,95,86807,2,0,P|449:107|406:132,1,80.9999975280763,8|2,0:0|0:0,0:0:0:0:
372,198,87104,1,8,0:0:0:0:
241,87,87252,6,0,B|227:154|268:215|268:215|288:187,1,161.999995056153,4|0,1:2|0:0,0:0:0:0:
327,122,87698,1,0,1:0:0:0:
160,144,87846,2,0,P|110:132|66:111,1,80.9999975280763,10|8,0:0|0:0,0:0:0:0:
51,43,88143,1,0,0:0:0:0:
184,231,88292,6,0,P|140:277|42:231,1,161.999995056153,4|8,1:2|0:0,0:0:0:0:
25,183,88737,1,0,1:0:0:0:
235,163,88886,5,8,0:0:0:0:
243,167,88960,1,8,0:0:0:0:
250,170,89034,1,10,0:0:0:0:
306,229,89183,1,8,0:3:0:0:
306,315,89331,1,4,0:3:0:0:
250,374,89480,1,4,0:3:0:0:
141,266,89628,6,0,P|202:284|241:308,1,80.9999975280763,4|0,1:2|1:0,0:0:0:0:
401,269,89925,2,0,P|364:285|324:294,1,80.9999975280763,2|0,0:0|1:0,0:0:0:0:
196,131,90222,6,0,P|230:167|253:210,1,80.9999975280763,10|8,0:0|0:0,0:0:0:0:
285,361,90519,2,0,P|293:307|309:263,1,80.9999975280763,2|0,0:0|1:0,0:0:0:0:
325,63,90816,6,0,P|322:129|304:171,1,80.9999975280763,2|8,0:0|0:0,0:0:0:0:
212,264,91113,2,0,P|258:239|300:232,1,80.9999975280763,2|0,0:0|1:0,0:0:0:0:
393,210,91410,5,10,0:0:0:0:
404,220,91559,1,8,0:0:0:0:
230,154,91708,5,0,0:0:0:0:
219,144,91857,1,0,1:0:0:0:
426,129,92005,6,0,B|469:177|459:251|459:251|430:225,1,161.999995056153,2|2,1:2|0:0,0:0:0:0:
336,183,92450,1,0,1:0:0:0:
512,314,92599,1,8,0:0:0:0:
512,314,92747,2,0,B|452:287|427:330|350:288,1,161.999995056153,8|8,0:0|0:0,0:0:0:0:
177,345,93193,5,0,1:0:0:0:
197,315,93292,2,0,P|206:276|206:214,1,53.9999983520508,8|8,0:0|0:0,0:0:0:0:
258,134,93490,5,0,1:0:0:0:
265,171,93589,2,0,P|278:204|300:243,1,53.9999983520508,8|4,0:3|0:3,0:0:0:0:
108,270,93787,5,0,1:0:0:0:
381,186,94084,1,8,0:0:0:0:
136,15,94381,5,2,1:0:0:0:
197,58,94529,1,0,1:0:0:0:
185,132,94678,1,8,0:0:0:0:
30,172,94826,5,4,0:3:0:0:
25,167,94901,1,4,0:3:0:0:
19,161,94975,1,8,0:3:0:0:
70,89,95123,1,4,0:3:0:0:
10,190,95272,1,8,0:0:0:0:
44,62,95420,2,0,L|56:3,1,40.4999987640381,2|0,1:3|0:0,0:0:0:0:
108,294,95717,5,0,1:0:0:0:
44,349,95866,1,8,0:0:0:0:
203,309,96014,1,8,0:3:0:0:
203,309,96089,1,8,0:3:0:0:
203,309,96163,2,0,P|150:285|120:276,1,80.9999975280763,4|4,0:3|0:3,0:0:0:0:
0,218,96460,2,0,P|47:208|98:185,1,80.9999975280763,8|0,0:0|3:0,0:0:0:0:
320,117,96757,5,2,1:0:0:0:
269,184,96906,1,0,1:0:0:0:
321,251,97054,1,8,0:0:0:0:
456,166,97203,5,0,3:0:0:0:
461,161,97277,1,0,3:0:0:0:
466,156,97351,1,4,0:3:0:0:
373,186,97500,1,4,0:3:0:0:
496,168,97648,1,8,0:0:0:0:
345,157,97797,2,0,L|284:153,1,40.4999987640381,0|0,1:3|0:0,0:0:0:0:
422,329,98094,5,0,1:0:0:0:
498,230,98242,1,8,0:0:0:0:
348,374,98391,6,0,P|344:346|346:319,1,40.4999987640381,8|8,0:0|0:0,0:0:0:0:
365,256,98539,1,10,0:0:0:0:
268,357,98688,5,8,0:3:0:0:
235,275,98836,2,0,P|251:218|268:183,1,80.9999975280763,4|0,0:3|0:0,0:0:0:0:
341,170,99133,5,10,0:0:0:0:
158,236,99282,2,0,P|103:250|53:266,1,90,10|0,0:0|0:0,0:0:0:0:
76,88,99727,2,0,P|90:114|101:145,1,45,2|0,0:0|0:0,0:0:0:0:
11,199,100024,2,0,P|19:173|22:139,1,45,2|0,0:0|0:0,0:0:0:0:
143,42,100321,5,10,0:0:0:0:
224,184,100470,2,0,P|257:234|287:266,1,90,10|0,0:0|0:0,0:0:0:0:
349,135,100915,2,0,P|320:126|287:120,1,45,2|0,0:0|0:0,0:0:0:0:
357,218,101212,2,0,P|378:212|400:205,1,45,2|0,0:0|0:0,0:0:0:0:
425,115,101509,1,10,0:0:0:0:
150,155,101658,6,0,P|167:108|177:55,1,90,10|0,0:0|0:0,0:0:0:0:
120,311,102104,2,0,P|133:340|151:365,1,45,2|0,0:0|0:0,0:0:0:0:
254,315,102401,2,0,P|222:301|197:295,1,45,2|0,0:0|0:0,0:0:0:0:
38,347,102698,5,10,0:0:0:0:
42,124,102846,2,0,P|59:156|68:183,1,45,10|0,0:0|0:0,0:0:0:0:
20,243,103143,5,0,1:0:0:0:
26,247,103217,1,0,1:0:0:0:
32,250,103292,1,8,0:3:0:0:
127,249,103440,1,4,0:3:0:0:
164,170,103589,1,8,0:0:0:0:
164,170,103886,5,10,0:0:0:0:
318,232,104034,1,8,0:0:0:0:
222,124,104183,2,0,B|196:69|209:7|209:7|260:42,2,161.999995056153,0|0|2,1:0|1:0|1:2,0:0:0:0:
269,298,104925,1,0,0:0:0:0:
371,180,105074,5,2,1:0:0:0:
288,171,105222,1,8,0:0:0:0:
231,222,105371,1,8,0:0:0:0:
434,243,105519,5,2,1:0:0:0:
391,170,105668,1,8,0:0:0:0:
420,97,105816,1,8,0:0:0:0:
376,301,105965,5,2,1:0:0:0:
486,174,106113,1,8,0:0:0:0:
458,358,106262,6,0,B|416:353|386:333|386:333|337:353|291:327|291:327|342:273|318:181|318:181|210:196|216:303,1,503.999984619141,4|0,1:0|0:0,0:0:0:0:
228,384,108044,1,8,0:0:0:0:
228,384,108192,1,8,0:0:0:0:
172,93,108638,6,0,B|133:81|133:81|102:82|102:82|52:53|-17:48,1,180,6|8,1:0|0:0,0:0:0:0:
119,0,109084,1,0,0:0:0:0:
29,145,109232,2,0,P|36:216|47:255,1,90,2|0,1:2|0:0,0:0:0:0:
46,246,109455,2,0,L|101:265,1,45,2|8,0:2|0:2,0:0:0:0:
236,224,109678,2,0,L|188:208,1,45,2|0,0:2|0:0,0:0:0:0:
42,350,109826,6,0,P|96:300|211:325,1,180,0|8,1:0|0:0,0:0:0:0:
271,380,110272,1,0,0:0:0:0:
399,248,110420,2,0,P|347:274|287:295,1,90,2|0,1:0|0:0,0:0:0:0:
328,85,110717,2,0,P|321:161|311:215,1,90,8|0,0:0|0:0,0:0:0:0:
439,332,111014,6,0,B|400:270|423:197|423:197|457:246,1,180,2|8,1:0|0:0,0:0:0:0:
511,284,111460,1,0,0:0:0:0:
377,138,111608,2,0,P|421:154|473:169,1,90,2|0,1:2|0:0,0:0:0:0:
470,160,111831,2,0,L|522:142,1,45,2|8,0:0|0:0,0:0:0:0:
407,13,112054,2,0,L|355:31,1,45,2|0,0:0|0:0,0:0:0:0:
293,74,112203,2,0,P|248:66|205:54,1,90,0|0,1:1|0:0,0:0:0:0:
35,4,112500,5,8,0:0:0:0:
43,6,112574,1,8,0:0:0:0:
51,8,112648,1,8,0:0:0:0:
59,10,112722,1,8,0:0:0:0:
66,12,112797,2,0,P|101:63|79:145,1,135,2|0,1:0|0:0,0:0:0:0:
23,189,113094,2,0,L|-1:254,1,45,8|0,0:0|0:0,0:0:0:0:
97,249,113242,2,0,L|114:310,1,45,8|8,0:0|0:0,0:0:0:0:
125,384,113391,6,0,B|173:370|192:352|192:352|234:357|303:333,1,180,2|8,1:0|0:0,0:0:0:0:
424,212,113836,1,0,0:0:0:0:
498,331,113985,2,0,P|439:314|382:307,1,90,2|0,1:2|0:0,0:0:0:0:
398,312,114208,2,0,L|377:374,1,45,2|8,0:2|0:2,0:0:0:0:
486,173,114430,2,0,L|507:111,1,45,2|0,0:2|0:0,0:0:0:0:
512,50,114579,6,0,P|457:28|352:115,1,180,2|8,1:0|0:0,0:0:0:0:
328,185,115024,1,0,0:0:0:0:
454,111,115173,5,0,1:0:0:0:
279,42,115321,1,8,0:0:0:0:
465,118,115470,1,0,1:0:0:0:
236,131,115618,5,8,0:0:0:0:
236,131,115693,1,8,0:0:0:0:
236,131,115767,2,0,P|181:106|144:81,1,90,2|0,1:0|0:0,0:0:0:0:
327,227,116064,2,0,P|356:285|367:336,1,90,8|0,0:0|0:0,0:0:0:0:
164,220,116361,6,0,P|176:165|195:113,1,90,2|8,1:0|0:0,0:0:0:0:
274,336,116658,2,0,L|236:384,1,45,0|0,1:0|0:0,0:0:0:0:
164,336,116807,2,0,L|94:356,1,45,8|8,0:0|0:0,0:0:0:0:
36,360,116955,5,2,1:0:0:0:
7,283,117104,1,8,0:0:0:0:
57,222,117252,1,0,1:0:0:0:
187,171,117401,5,8,0:0:0:0:
192,176,117475,1,8,0:0:0:0:
199,180,117549,2,0,L|246:206,1,45,8|8,0:0|0:0,0:0:0:0:
302,141,117698,2,0,L|369:128,1,45,8|8,0:3|0:3,0:0:0:0:
438,135,117846,1,4,0:3:0:0:
460,110,117920,1,4,0:3:0:0:
470,79,117994,1,0,1:0:0:0:
465,45,118068,1,0,1:0:0:0:
445,19,118143,6,0,B|380:-7|328:18|328:18|296:2|252:0,1,180,6|8,1:0|0:0,0:0:0:0:
124,62,118589,1,0,0:0:0:0:
288,195,118737,2,0,P|271:121|259:83,1,90,2|0,1:2|0:0,0:0:0:0:
261,98,118960,2,0,L|201:76,1,45,2|8,0:2|0:2,0:0:0:0:
0,86,119183,2,0,L|60:108,1,45,2|0,0:2|0:0,0:0:0:0:
129,144,119331,6,0,B|166:211|149:285|149:285|114:248,1,180,0|8,1:0|0:0,0:0:0:0:
45,201,119777,1,0,0:0:0:0:
251,241,119925,2,0,P|238:298|221:341,1,90,2|0,1:0|0:0,0:0:0:0:
23,322,120222,2,0,P|69:287|112:272,1,90,8|0,0:0|0:0,0:0:0:0:
335,362,120519,6,0,P|417:382|480:292,1,180,2|8,1:0|0:0,0:0:0:0:
497,210,120965,1,0,0:0:0:0:
301,131,121113,2,0,P|321:188|339:232,1,90,2|0,1:2|0:0,0:0:0:0:
339,231,121336,2,0,L|402:245,1,45,2|8,0:0|0:0,0:0:0:0:
512,76,121559,2,0,L|449:62,1,45,2|0,0:0|0:0,0:0:0:0:
397,23,121708,2,0,P|339:29|283:46,1,90,0|0,1:0|0:0,0:0:0:0:
201,141,122005,5,8,0:0:0:0:
193,150,122079,1,8,0:0:0:0:
183,157,122153,1,8,0:0:0:0:
175,165,122227,1,8,0:0:0:0:
165,173,122302,2,0,P|108:177|48:107,1,135,2|0,1:0|0:0,0:0:0:0:
35,47,122599,1,8,0:0:0:0:
232,12,122747,2,0,L|221:60,1,45,8|8,0:0|0:0,0:0:0:0:
263,140,122896,6,0,B|245:201|245:201|256:250|256:250|236:315,1,180,2|8,1:0|0:0,0:0:0:0:
168,382,123341,1,0,0:0:0:0:
35,204,123490,2,0,P|93:211|139:224,1,90,2|0,1:2|0:0,0:0:0:0:
134,226,123712,2,0,L|147:283,1,45,2|8,0:2|0:2,0:0:0:0:
70,365,123935,2,0,L|57:308,1,45,2|0,0:2|0:0,0:0:0:0:
35,204,124084,6,0,B|34:144|65:78|65:78|130:117,1,180,2|8,1:0|0:0,0:0:0:0:
227,180,124529,1,0,0:0:0:0:
170,29,124678,1,0,1:0:0:0:
236,192,124826,1,8,0:0:0:0:
119,182,124975,1,0,1:0:0:0:
310,105,125123,5,8,0:0:0:0:
310,105,125198,1,8,0:0:0:0:
310,105,125272,2,0,P|366:114|426:138,1,90,2|0,1:0|0:0,0:0:0:0:
374,289,125569,2,0,P|329:248|304:205,1,90,8|0,0:0|0:0,0:0:0:0:
484,47,125866,2,0,P|500:107|503:167,1,90,2|8,1:0|0:0,0:0:0:0:
374,289,126163,1,0,1:0:0:0:
398,148,126311,2,0,L|421:205,1,45,8|8,0:0|0:0,0:0:0:0:
487,242,126460,5,2,1:0:0:0:
483,323,126608,1,8,0:0:0:0:
422,373,126757,1,0,1:0:0:0:
244,285,126906,5,10,0:0:0:0:
249,280,126980,1,8,0:0:0:0:
254,276,127054,1,2,1:2:0:0:
317,222,127203,1,8,0:0:0:0:
400,228,127351,1,4,0:3:0:0:
458,286,127500,1,4,0:3:0:0:
363,143,127648,5,4,1:0:0:0:
363,143,127945,2,0,P|344:95|336:43,1,90,8|0,0:0|1:0,0:0:0:0:
292,208,128242,2,0,P|266:249|228:287,1,90,8|0,0:0|1:0,0:0:0:0:
385,73,128539,2,0,P|440:37|488:17,1,90,8|0,0:0|1:0,0:0:0:0:
261,127,128836,6,0,B|142:74|125:156|-6:83,1,270.000010299683,4|8,0:3|0:0,0:0:0:0:
0,86,130024,6,0,P|13:138|23:187,1,90,2|0,1:2|0:0,0:0:0:0:
185,201,130470,2,0,P|141:182|96:157,1,90,2|0,1:2|0:0,0:0:0:0:
30,271,130915,2,0,P|56:248|79:232,1,45,8|0,0:1|0:0,0:0:0:0:
245,129,131212,6,0,P|265:172|273:228,1,90,2|0,1:2|0:0,0:0:0:0:
255,327,131658,2,0,P|289:301|340:283,1,90,0|0,1:0|0:0,0:0:0:0:
400,215,132104,2,0,P|368:204|345:191,1,45,8|0,0:1|0:0,0:0:0:0:
181,221,132401,6,0,P|171:244|156:272,2,45,2|0|0,1:2|0:0|0:0,0:0:0:0:
131,355,132846,2,0,P|157:349|191:344,1,45,2|0,1:2|0:0,0:0:0:0:
278,329,133143,1,0,0:0:0:0:
278,329,133292,2,0,P|252:308|236:293,1,45,8|0,0:1|0:0,0:0:0:0:
172,106,133589,6,0,P|184:78|200:50,2,45,2|0|0,1:2|0:0|0:0,0:0:0:0:
149,182,134034,1,0,1:0:0:0:
87,119,134183,2,0,P|56:112|27:101,1,45,2|0,0:2|0:0,0:0:0:0:
149,182,134480,2,0,P|166:215|174:241,1,45,8|0,0:1|0:0,0:0:0:0:
314,104,134777,6,0,P|318:57|306:-1,1,90,2|0,1:2|0:0,0:0:0:0:
387,187,135222,2,0,P|402:145|411:89,1,90,2|0,1:2|0:0,0:0:0:0:
228,108,135668,2,0,P|234:134|246:167,1,45,8|0,0:1|0:0,0:0:0:0:
356,268,135965,6,0,P|419:253|457:237,1,90,2|0,1:2|0:0,0:0:0:0:
264,234,136410,2,0,P|225:219|167:212,1,90,0|0,1:0|0:0,0:0:0:0:
330,351,136856,2,0,P|341:321|344:303,1,45,8|0,0:1|0:0,0:0:0:0:
256,189,137153,6,0,P|260:220|268:244,2,45,2|0|0,1:2|0:0|0:0,0:0:0:0:
190,138,137599,2,0,P|157:119|97:98,1,90,2|0,1:2|0:0,0:0:0:0:
275,100,138044,2,0,P|296:70|309:48,1,45,8|0,0:1|0:0,0:0:0:0:
120,197,138341,5,2,1:2:0:0:
120,197,138490,2,0,P|121:243|141:301,1,90,2|0,0:0|1:0,0:0:0:0:
260,267,138935,2,0,L|207:256,1,45,2|0,0:2|0:0,0:0:0:0:
29,337,139232,2,0,L|82:348,1,45,8|0,0:1|0:0,0:0:0:0:
232,374,139529,6,0,B|271:358|323:368|323:368|349:355|385:350,1,135.000005149842,2|0,1:1|0:0,0:0:0:0:
455,355,139975,1,0,1:0:0:0:
332,271,140123,2,0,P|318:231|313:197,1,67.5000025749208,2|0,0:0|0:0,0:0:0:0:
429,131,140420,2,0,P|420:171|407:207,1,67.5000025749208,8|0,0:1|0:0,0:0:0:0:
254,136,140717,6,0,L|334:122,1,67.5000025749208,2|0,1:2|0:0,0:0:0:0:
480,31,141014,2,0,L|400:45,1,67.5000025749208,0|0,0:0|1:0,0:0:0:0:
232,10,141311,2,0,P|222:63|257:139,1,135.000005149842,2|8,0:0|0:1,0:0:0:0:
311,54,141757,1,0,0:0:0:0:
155,143,141906,6,0,P|142:182|135:220,1,67.5000025749208,2|0,1:2|0:0,0:0:0:0:
237,299,142203,2,0,P|232:249|224:221,1,67.5000025749208,0|0,0:0|1:0,0:0:0:0:
61,170,142500,2,0,B|44:234|53:277|53:277|86:251,1,135.000005149842,2|8,0:2|0:1,0:0:0:0:
136,207,142945,1,0,0:0:0:0:
203,337,143094,6,0,P|169:325|131:315,1,67.5000025749208,2|0,1:2|0:0,0:0:0:0:
13,384,143391,2,0,P|45:375|77:363,1,67.5000025749208,0|0,0:0|1:0,0:0:0:0:
198,250,143688,2,0,P|154:233|67:267,1,135.000005149842,2|8,0:2|0:1,0:0:0:0:
13,307,144133,1,8,0:1:0:0:
198,250,144282,6,0,B|244:242|244:242|287:252|287:252|360:240,1,135.000005149842,2|0,1:1|0:0,0:0:0:0:
419,127,144727,2,0,P|332:130|294:181,1,135.000005149842,0|0,1:0|0:0,0:0:0:0:
482,255,145173,2,0,P|489:215|489:185,1,67.5000025749208,8|0,0:1|0:0,0:0:0:0:
421,336,145470,6,0,L|490:346,1,67.5000025749208,2|0,1:2|0:0,0:0:0:0:
358,257,145767,2,0,L|289:247,1,67.5000025749208,0|0,0:0|1:0,0:0:0:0:
160,359,146064,2,0,B|201:374|201:374|244:370|306:339,1,135.000005149842,2|8,0:2|0:1,0:0:0:0:
291,247,146509,1,0,0:0:0:0:
84,247,146658,6,0,L|70:326,1,67.5000025749208,2|0,1:2|0:0,0:0:0:0:
170,198,146955,2,0,L|184:119,1,67.5000025749208,0|0,0:0|1:0,0:0:0:0:
12,117,147252,2,0,P|-9:163|10:254,1,135.000005149842,2|8,0:2|0:1,0:0:0:0:
72,313,147698,1,0,0:0:0:0:
147,252,147846,5,2,1:2:0:0:
2,363,147995,1,8,0:0:0:0:
154,246,148143,2,0,P|217:260|265:267,1,101.250003862381,8|8,0:0|0:3,0:0:0:0:
269,263,148440,1,8,0:3:0:0:
323,205,148589,1,8,0:3:0:0:
322,128,148737,1,4,0:3:0:0:
259,71,148886,1,4,0:3:0:0:
174,78,149034,1,0,1:0:0:0:
423,83,163292,5,0,1:0:0:0:
423,83,163589,2,0,P|378:98|335:108,1,72,2|0,0:3|0:0,0:0:0:0:
204,163,163886,5,8,0:0:0:0:
204,163,164182,2,0,P|248:180|275:199,1,72,2|0,0:3|0:0,0:0:0:0:
349,23,164480,5,0,1:0:0:0:
349,23,164777,2,0,P|308:13|271:-1,1,72,2|0,0:3|0:0,0:0:0:0:
210,264,165074,5,8,0:0:0:0:
210,264,165371,2,0,P|222:306|227:348,1,72,2|0,0:3|0:0,0:0:0:0:
418,318,165668,5,8,0:0:0:0:
342,368,165816,1,8,0:0:0:0:
441,239,165965,5,8,0:0:0:0:
329,257,166113,1,8,0:0:0:0:
470,169,166262,5,8,0:0:0:0:
335,133,166410,1,8,0:0:0:0:
511,94,166559,5,8,0:0:0:0:
360,12,166708,1,8,0:0:0:0:
424,193,166856,6,0,L|448:258,3,56.25,8|8|8|8,0:0|0:0|0:0|0:0,0:0:0:0:
324,192,167153,6,0,L|386:202,1,56.25,8|8,0:0|0:0,0:0:0:0:
512,289,167302,2,0,L|450:279,1,56.25,8|8,0:0|0:0,0:0:0:0:
335,373,167450,6,0,P|342:327|364:282,1,90,8|0,0:0|0:0,0:0:0:0:
360,287,168044,6,0,P|308:305|232:260,1,148.50000453186,6|0,1:0|0:0,0:0:0:0:
180,203,168341,2,0,P|127:224|80:257,1,99.0000030212403,8|0,0:0|0:0,0:0:0:0:
303,198,168638,1,2,1:2:0:0:
255,12,168787,1,0,0:0:0:0:
257,24,168861,2,0,P|245:83|224:137,1,99.0000030212403,2|0,0:2|0:0,0:0:0:0:
222,126,169084,1,2,0:2:0:0:
15,146,169232,6,0,B|-9:78|12:2|12:2|62:30,1,198.000006042481,0|8,1:0|0:0,0:0:0:0:
146,175,169678,1,0,0:0:0:0:
315,79,169826,2,0,P|365:57|404:25,1,99.0000030212403,2|0,1:0|0:0,0:0:0:0:
178,0,170123,2,0,P|157:53|151:113,1,99.0000030212403,8|0,0:0|0:0,0:0:0:0:
286,270,170420,6,0,B|334:284|334:284|411:279|486:218,1,198.000006042481,2|8,1:0|0:0,0:0:0:0:
508,129,170866,1,0,0:0:0:0:
374,78,171014,2,0,P|367:138|356:188,1,99.0000030212403,2|0,1:2|0:0,0:0:0:0:
350,186,171237,1,2,0:0:0:0:
425,290,171386,1,2,0:0:0:0:
420,282,171460,1,2,0:0:0:0:
233,167,171608,6,0,B|203:153|166:158|166:158|111:130|56:127,1,148.50000453186,0|0,1:1|0:0,0:0:0:0:
14,178,171906,1,8,0:0:0:0:
12,190,171980,1,8,0:0:0:0:
10,202,172054,1,8,0:0:0:0:
8,214,172128,1,8,0:0:0:0:
6,227,172203,6,0,P|9:287|42:373,1,148.50000453186,2|0,1:0|0:0,0:0:0:0:
103,308,172500,2,0,L|151:324,1,49.5000015106202,8|0,0:0|0:0,0:0:0:0:
226,263,172648,2,0,L|244:308,1,49.5000015106202,8|8,0:0|0:0,0:0:0:0:
288,384,172797,6,0,B|364:367|364:367|409:380|409:380|503:360,1,198.000006042481,2|8,1:0|0:0,0:0:0:0:
350,258,173242,1,0,0:0:0:0:
477,152,173391,2,0,P|470:212|459:282,1,99.0000030212403,2|0,1:2|0:0,0:0:0:0:
457,260,173613,1,2,0:2:0:0:
379,128,173762,1,2,0:0:0:0:
373,114,173836,1,2,0:2:0:0:
512,61,173985,6,0,B|439:77|375:8|375:8|459:11,1,198.000006042481,2|8,1:0|0:0,0:0:0:0:
477,157,174430,1,0,0:0:0:0:
344,204,174579,5,0,1:0:0:0:
414,60,174727,1,8,0:0:0:0:
334,223,174876,1,0,1:0:0:0:
226,128,175024,5,8,0:0:0:0:
226,128,175099,1,8,0:0:0:0:
226,128,175173,2,0,P|159:109|116:101,1,99.0000030212403,2|0,1:0|0:0,0:0:0:0:
250,275,175470,2,0,P|304:244|343:214,1,99.0000030212403,8|0,0:0|0:0,0:0:0:0:
238,6,175767,6,0,P|212:56|194:121,1,99.0000030212403,2|8,1:0|0:0,0:0:0:0:
165,319,176064,2,0,L|143:267,1,49.5000015106202,0|0,1:0|0:0,0:0:0:0:
182,194,176212,2,0,L|120:171,1,49.5000015106202,8|8,0:0|0:0,0:0:0:0:
65,132,176361,5,2,1:0:0:0:
16,202,176509,1,8,0:0:0:0:
52,51,176658,1,0,1:0:0:0:
179,116,176807,5,8,0:2:0:0:
187,123,176881,1,8,0:2:0:0:
196,128,176955,1,8,1:2:0:0:
276,142,177104,1,4,0:3:0:0:
356,107,177252,2,0,L|372:60,1,49.5000015106202,4|4,0:3|0:3,0:0:0:0:
455,47,177401,2,0,L|438:1,1,49.5000015106202,0|0,1:0|1:0,0:0:0:0:
238,0,177549,6,0,B|201:65|242:146|242:146|296:110,1,198.000006042481,6|8,1:0|0:0,0:0:0:0:
372,60,177995,1,0,0:0:0:0:
141,98,178143,2,0,P|83:77|43:46,1,99.0000030212403,2|0,1:2|0:0,0:0:0:0:
42,41,178366,2,0,L|34:-13,1,49.5000015106202,2|8,0:2|0:2,0:0:0:0:
114,186,178589,2,0,L|122:240,1,49.5000015106202,2|0,0:2|0:0,0:0:0:0:
185,288,178737,6,0,P|173:351|160:398,1,99.0000030212403,0|0,1:0|0:0,0:0:0:0:
27,244,179034,1,8,0:0:0:0:
70,343,179183,1,0,0:0:0:0:
209,212,179331,1,2,1:0:0:0:
220,202,179406,2,0,P|278:185|353:173,1,99.0000030212403,8|0,0:0|0:0,0:0:0:0:
331,176,179628,2,0,L|390:189,1,49.5000015106202,8|0,0:0|0:0,0:0:0:0:
478,378,179851,5,8,0:0:0:0:
471,370,179925,2,0,B|444:319|450:232|450:232|527:282,1,198.000006042481,2|8,1:0|0:0,0:0:0:0:
355,308,180371,1,0,0:0:0:0:
493,145,180519,2,0,P|506:77|511:29,1,99.0000030212403,2|0,1:2|0:0,0:0:0:0:
500,30,180742,2,0,L|436:10,1,49.5000015106202,2|8,0:2|0:2,0:0:0:0:
297,102,180965,2,0,L|249:87,1,49.5000015106202,2|0,0:2|0:0,0:0:0:0:
179,41,181113,6,0,P|110:48|64:61,1,99.0000030212403,0|0,1:0|0:0,0:0:0:0:
20,236,181410,1,8,0:0:0:0:
50,256,181484,1,8,0:0:0:0:
85,270,181558,1,8,0:0:0:0:
121,276,181632,1,8,0:0:0:0:
158,275,181708,6,0,P|179:209|141:127,1,148.50000453186,2|0,1:0|0:0,0:0:0:0:
130,123,182005,1,8,0:0:0:0:
59,342,182153,5,8,0:0:0:0:
59,342,182227,1,8,0:0:0:0:
59,342,182302,2,0,B|112:329|112:329|159:337|159:337|209:317|263:313,1,198.000006042481,2|8,1:0|0:0,0:0:0:0:
423,359,182747,1,0,0:0:0:0:
294,188,182896,2,0,P|266:119|257:76,1,99.0000030212403,2|0,1:2|0:0,0:0:0:0:
258,76,183119,2,0,L|307:55,1,49.5000015106202,2|8,0:2|0:2,0:0:0:0:
512,82,183341,2,0,L|453:103,1,49.5000015106202,2|0,0:2|0:0,0:0:0:0:
462,183,183490,6,0,P|401:170|356:153,1,99.0000030212403,2|0,1:0|0:0,0:0:0:0:
197,16,183787,2,0,P|144:31|96:68,1,99.0000030212403,8|0,0:0|0:0,0:0:0:0:
26,210,184084,5,0,1:0:0:0:
57,133,184232,1,8,0:0:0:0:
17,60,184381,1,0,1:0:0:0:
154,173,184529,5,8,0:0:0:0:
154,173,184604,1,8,0:0:0:0:
154,173,184678,2,0,P|209:196|281:201,1,99.0000030212403,2|0,1:0|0:0,0:0:0:0:
93,240,184975,2,0,P|44:248|0:268,1,99.0000030212403,8|0,0:0|0:0,0:0:0:0:
201,148,185272,2,0,P|234:98|251:45,1,99.0000030212403,2|8,1:0|0:0,0:0:0:0:
72,281,185569,2,0,P|85:353|105:394,1,99.0000030212403,0|8,1:0|0:0,0:0:0:0:
103,380,185792,1,8,0:0:0:0:
112,383,185866,5,2,1:0:0:0:
201,367,186014,1,8,0:0:0:0:
244,293,186163,1,0,1:0:0:0:
220,209,186311,2,0,L|157:193,1,49.5000015106202,10|8,0:0|0:0,0:0:0:0:
324,314,186460,1,2,1:2:0:0:
331,317,186534,2,0,P|389:305|439:281,1,99.0000030212403,8|0,0:0|0:0,0:0:0:0:
438,280,186757,6,0,L|450:216,1,49.5000015106202,4|0,0:3|0:0,0:0:0:0:
503,164,186906,2,0,L|515:100,1,49.5000015106202,4|4,0:3|0:3,0:0:0:0:
361,13,187054,6,0,B|350:82|385:147|385:147|406:106,1,180,4|0,1:0|0:0,0:0:0:0:
503,17,187648,2,0,P|472:26|434:37,1,45,8|0,0:0|0:0,0:0:0:0:
297,133,187797,1,8,0:0:0:0:
297,133,188242,6,0,P|238:124|161:98,1,135,0|0,1:0|0:0,0:0:0:0:
145,97,188539,2,0,L|120:5,1,90,8|0,0:0|1:0,0:0:0:0:
49,198,188836,2,0,L|24:106,1,90,8|0,0:0|1:0,0:0:0:0:
300,231,189133,2,0,L|275:139,1,90,8|0,0:0|1:0,0:0:0:0:
132,337,189430,5,8,0:0:0:0:
215,283,189579,1,8,0:3:0:0:
143,255,189727,1,8,0:3:0:0:
219,355,189876,1,4,0:3:0:0:
80,294,190024,6,0,P|34:310|-7:334,1,90,4|0,0:3|0:0,0:0:0:0:
299,220,190618,6,0,P|362:243|453:149,1,180,6|8,1:0|0:0,0:0:0:0:
365,135,191064,1,0,0:0:0:0:
262,298,191212,2,0,P|274:350|289:396,2,90,2|0|8,1:0|0:0|0:0,0:0:0:0:
182,186,191658,6,0,B|210:122|189:54|189:54|138:89,1,180,2|0,0:1|3:0,0:0:0:0:
142,85,192029,1,0,3:0:0:0:
133,90,192104,2,0,P|78:74|28:48,1,90,8|2,0:0|0:1,0:0:0:0:
259,0,192401,2,0,L|279:57,1,45,0|0,1:0|0:0,0:0:0:0:
359,73,192549,2,0,L|339:130,1,45
288,188,192698,2,0,P|265:236|256:298,1,90,8|0,0:0|0:0,0:0:0:0:
454,355,192995,6,0,P|483:259|428:178,1,180,2|8,1:0|0:0,0:0:0:0:
365,149,193440,1,0,0:0:0:0:
291,286,193589,2,0,P|361:273|411:249,1,90,0|2,1:0|0:1,0:0:0:0:
507,113,193886,2,0,P|448:85|409:50,1,90,8|2,0:0|3:1,0:0:0:0:
424,61,194108,1,0,3:0:0:0:
418,50,194183,5,0,1:0:0:0:
313,0,194331,1,0,0:0:0:0:
319,182,194480,2,0,P|336:116|345:67,1,90,8|0,0:0|0:0,0:0:0:0:
187,24,194777,2,0,L|200:97,1,45,0|0,1:0|0:0,0:0:0:0:
121,131,194926,2,0,L|178:186,1,45
213,234,195074,1,8,0:0:0:0:
217,244,195148,1,8,0:0:0:0:
221,254,195222,1,8,0:0:0:0:
224,265,195296,1,8,0:0:0:0:
228,278,195371,6,0,P|180:338|70:313,1,180,2|8,1:0|0:0,0:0:0:0:
15,257,195816,1,0,0:0:0:0:
208,185,195965,2,0,P|271:198|322:217,2,90,2|0|8,1:0|0:0|0:0,0:0:0:0:
15,257,196410,6,0,B|15:200|48:156|48:156|37:109|53:78,1,180,2|0,0:1|0:0,0:0:0:0:
226,0,196856,1,8,0:0:0:0:
140,113,197005,1,2,0:1:0:0:
267,71,197153,6,0,P|328:83|357:100,1,90,0|0,1:0|0:0,0:0:0:0:
241,321,197450,1,8,0:0:0:0:
225,291,197524,1,8,0:0:0:0:
214,259,197598,1,8,0:0:0:0:
209,225,197672,1,8,0:0:0:0:
211,192,197747,6,0,B|281:175|281:175|329:190|329:190|395:179,1,180,2|8,1:0|0:0,0:0:0:0:
461,91,198193,1,0,0:0:0:0:
366,268,198341,2,0,L|351:326,2,45,2|8|0,1:0|0:0|0:0,0:0:0:0:
351,160,198638,5,0,1:0:0:0:
512,338,198787,2,0,P|453:362|351:305,1,180,12|0,0:0|0:0,0:0:0:0:
225,161,199232,2,0,P|178:180|136:210,1,90,8|0,0:0|0:0,0:0:0:0:
173,379,199529,2,0,L|193:324,1,45,8|8,0:0|0:0,0:0:0:0:
284,295,199678,2,0,L|264:240,1,45,8|8,0:0|0:0,0:0:0:0:
225,161,199826,1,8,0:0:0:0:
212,129,199900,1,8,0:0:0:0:
203,97,199974,1,8,0:0:0:0:
198,63,200048,1,8,0:0:0:0:
197,29,200123,1,4,1:0:0:0:
197,29,200420,6,0,P|254:15|300:-4,1,99.0000030212403,10|0,0:0|1:0,0:0:0:0:
82,79,200717,1,10,0:0:0:0:
173,188,200866,2,0,P|222:220|267:236,1,99.0000030212403,0|8,1:0|0:0,0:0:0:0:
29,205,201163,2,0,P|27:299|100:378,1,198.000006042481,2|0,1:2|1:0,0:0:0:0:
101,380,201534,1,0,1:0:0:0:
110,384,201608,1,8,0:0:0:0:
259,234,201757,1,2,1:2:0:0:
134,278,201906,6,0,P|187:308|231:347,1,99.0000030212403,8|0,0:0|1:0,0:0:0:0:
457,274,202203,2,0,P|408:291|348:296,1,99.0000030212403,8|0,0:0|1:0,0:0:0:0:
354,293,202425,1,0,1:0:0:0:
346,287,202500,6,0,L|316:183,1,99.0000030212403,8|0,0:0|1:0,0:0:0:0:
374,28,202797,2,0,L|404:132,1,99.0000030212403,10|0,0:2|1:0,0:0:0:0:
210,198,203094,6,0,P|224:136|238:93,1,99.0000030212403,8|2,0:0|1:2,0:0:0:0:
512,104,203391,2,0,P|498:166|484:209,1,99.0000030212403,8|0,0:0|1:0,0:0:0:0:
273,360,203688,6,0,L|289:301,1,49.5000015106202,10|0,0:0|0:0,0:0:0:0:
235,241,203836,2,0,L|294:225,1,49.5000015106202,0|0,1:0|0:0,0:0:0:0:
304,147,203985,2,0,P|360:161|408:176,1,99.0000030212403,10|0,0:0|1:0,0:0:0:0:
463,368,204282,2,0,P|408:333|376:300,1,99.0000030212403,10|0,0:0|1:0,0:0:0:0:
337,69,204579,2,0,L|313:128,1,49.5000015106202,10|0,0:0|0:0,0:0:0:0:
232,73,204727,2,0,L|181:90,1,49.5000015106202,0|0,1:0|0:0,0:0:0:0:
85,113,204876,6,0,P|106:47|114:-4,1,99.0000030212403,4|0,1:0|0:0,0:0:0:0:
206,196,205173,2,0,P|225:254|253:298,1,99.0000030212403,10|0,0:0|1:0,0:0:0:0:
7,172,205470,1,10,0:0:0:0:
205,90,205618,2,0,P|257:63|299:30,1,99.0000030212403,0|8,1:0|0:0,0:0:0:0:
95,220,205915,2,0,P|70:293|159:377,1,198.000006042481,2|0,1:2|1:0,0:0:0:0:
153,376,206287,1,0,1:0:0:0:
161,374,206361,1,8,0:0:0:0:
18,283,206509,1,2,1:2:0:0:
225,258,206658,6,0,P|283:228|326:191,1,99.0000030212403,8|0,0:0|1:0,0:0:0:0:
122,125,206955,2,0,P|100:183|95:253,1,99.0000030212403,8|0,0:0|1:0,0:0:0:0:
366,375,207252,6,0,L|380:272,1,99.0000030212403,12|0,0:0|1:0,0:0:0:0:
223,73,207549,2,0,L|210:172,1,99.0000030212403,12|0,0:0|1:0,0:0:0:0:
489,265,207846,6,0,L|475:162,1,99.0000030212403,14|0,0:0|1:2,0:0:0:0:
73,170,208143,2,0,L|87:273,1,99.0000030212403,12|10,0:0|0:0,0:0:0:0:
304,300,208440,5,0,1:0:0:0:
295,224,208589,1,8,0:0:0:0:
287,150,208737,1,8,0:0:0:0:
210,278,208886,5,0,1:0:0:0:
210,278,208960,1,0,1:0:0:0:
210,278,209034,1,8,0:0:0:0:
375,191,209183,1,8,0:0:0:0:
253,140,209331,1,8,0:0:0:0:
343,338,209480,2,0,L|367:391,1,49.5000015106202,8|0,0:0|0:0,0:0:0:0:
