osu file format v14

[General]
AudioFilename: audio.mp3
AudioLeadIn: 0
PreviewTime: 158391
Countdown: 0
SampleSet: Soft
StackLeniency: 0.8
Mode: 0
LetterboxInBreaks: 0
WidescreenStoryboard: 1

[Editor]
Bookmarks: 11212,20717,30222,39727,53985,65866,75371,84876,94381,108638,118143,130024,139529,149034,158539,168044,177549,190618,200123
DistanceSpacing: 1.5
BeatDivisor: 4
GridSize: 16
TimelineZoom: 1.5

[Metadata]
Title:oversupply
TitleUnicode:oversupply
Artist:yanaginagi
ArtistUnicode:やなぎなぎ
Creator:nexusqi
Version:nexyui's insane
Source:
Tags:rock pop japanese branch kowari mnyui gelidium
BeatmapID:3984452
BeatmapSetID:1912139

[Difficulty]
HPDrainRate:5
CircleSize:4
OverallDifficulty:8
ApproachRate:9
SliderMultiplier:1.6
SliderTickRate:1

[Events]
//Background and Video events
0,0,"nexooooooooooos.jpg",0,0
//Break Periods
2,66066,74771
2,149234,162692
//Storyboard Layer 0 (Background)
//Storyboard Layer 1 (Fail)
//Storyboard Layer 2 (Pass)
//Storyboard Layer 3 (Foreground)
//Storyboard Layer 4 (Overlay)
//Storyboard Sound Samples

[TimingPoints]
1708,297.029702970297,4,2,1,70,1,0
20717,-125,4,2,1,50,0,0
28143,-125,4,2,1,60,0,0
30222,-111.111111111111,4,2,1,60,0,0
39727,-111.111111111111,4,2,1,60,0,0
44628,-125,4,2,1,60,0,0
49232,-125,4,2,1,65,0,0
49529,-111.111111111111,4,2,1,65,0,0
53539,-249.999999999999,4,2,1,65,0,0
53985,-100,4,2,1,70,0,1
63490,-111.111111111111,4,2,1,70,0,0
64678,-166.666666666666,4,2,1,60,0,0
75371,-125,4,2,1,50,0,0
82797,-125,4,2,1,60,0,0
83985,-100,4,2,1,60,0,0
84876,-111.111111111111,4,2,1,60,0,0
99133,-125,4,2,1,60,0,0
103886,-125,4,2,1,65,0,0
104183,-111.111111111111,4,2,1,65,0,0
106262,-333.333333333332,4,2,1,65,0,0
107450,-166.666666666666,4,2,1,65,0,0
108193,-249.999999999999,4,2,1,65,0,0
108638,-100,4,2,1,70,0,1
118069,-100,4,2,1,70,0,0
118143,-100,4,2,1,70,0,1
127648,-100,4,2,1,60,0,0
130024,-153.846153846153,4,2,1,50,0,0
148143,-105.263157894737,4,2,1,50,0,0
163589,-181.818181818182,4,2,1,50,0,0
164183,-153.846153846151,4,2,1,50,0,0
164777,-133.333333333332,4,2,1,50,0,0
165371,-117.647058823528,4,2,1,50,0,0
165668,-100,4,2,1,60,0,0
168044,-100,4,2,1,70,0,1
177475,-90.9090909090909,4,2,1,70,0,0
177549,-100,4,2,1,70,0,1
187054,-166.666666666667,4,2,1,70,0,0
188539,-100,4,2,1,70,0,0
190024,-166.666666666667,4,2,1,70,0,0
190618,-100,4,2,1,70,0,0
200123,-90.9090909090909,4,2,2,70,0,1
209554,-90.9090909090909,4,2,2,70,0,1
209628,-100,4,2,1,70,0,0

[Colours]
Combo1 : 126,133,211
Combo2 : 207,235,252
Combo3 : 245,177,201

[HitObjects]
321,145,11212,6,0,P|358:66|337:-3,1,160,6|8,1:0|0:0,0:0:0:0:
274,78,11658,1,0,0:0:0:0:
395,197,11807,2,0,P|435:183|479:179,1,80,2|0,1:0|0:0,0:0:0:0:
512,83,12104,2,0,P|472:97|428:101,1,80,8|2,0:0|0:1,0:0:0:0:
315,228,12401,6,0,B|260:253|195:230|165:162,1,160,0|8,1:0|0:0,0:0:0:0:
80,133,12846,2,0,P|95:167|100:215,1,80,2|0,0:1|1:0,0:0:0:0:
86,336,13143,1,0,0:0:0:0:
23,384,13292,2,0,P|5:335|2:287,1,80,8|0,0:0|0:0,0:0:0:0:
210,273,13589,5,2,1:0:0:0:
210,273,13886,2,0,B|233:311|279:326|328:311,1,120,8|0,0:0|0:0,0:0:0:0:
314,314,14183,1,0,1:0:0:0:
395,256,14331,2,0,P|405:304|421:339,1,80,2|8,0:1|0:0,0:0:0:0:
501,177,14628,5,0,3:0:0:0:
501,177,14703,1,0,3:0:0:0:
501,177,14777,2,0,P|461:159|406:153,1,80,2|0,1:0|0:0,0:0:0:0:
319,198,15074,1,8,0:0:0:0:
448,49,15222,1,0,0:0:0:0:
353,2,15371,2,0,L|378:94,1,80,0|0,1:0|0:0,0:0:0:0:
257,129,15668,1,8,0:0:0:0:
257,129,15742,1,8,0:0:0:0:
257,129,15816,2,0,P|221:142|207:143,1,40,8|8,0:0|0:0,0:0:0:0:
168,204,15965,6,0,B|71:140|135:45|135:45,1,160,2|8,1:0|0:0,0:0:0:0:
40,196,16410,1,0,0:0:0:0:
92,259,16559,2,0,P|93:300|79:346,1,80,2|0,1:0|0:0,0:0:0:0:
253,286,16856,2,0,P|252:245|266:199,1,80,8|2,0:0|0:1,0:0:0:0:
136,54,17153,6,0,B|107:106|42:132|-18:97,1,160,0|8,1:0|0:0,0:0:0:0:
112,172,17599,2,0,P|147:180|200:193,1,80,2|0,0:1|1:0,0:0:0:0:
121,341,17896,1,0,0:0:0:0:
33,270,18044,1,8,0:0:0:0:
33,270,18118,1,8,0:0:0:0:
33,270,18193,2,0,P|42:295|48:320,1,40,8|8,0:0|0:0,0:0:0:0:
203,384,18341,6,0,B|229:356|248:308|223:259,1,120,2|0,1:0|0:0,0:0:0:0:
228,272,18638,2,0,P|180:267|135:254,1,80,8|0,0:0|0:0,0:0:0:0:
355,384,18935,1,2,1:0:0:0:
355,384,19009,2,0,P|337:333|330:288,1,80,8|0,0:0|0:0,0:0:0:0:
390,249,19232,2,0,P|432:237|480:226,1,80,0|12,1:0|0:0,0:0:0:0:
316,52,19529,5,0,1:0:0:0:
289,202,19678,1,8,0:0:0:0:
239,121,19826,2,0,P|194:136|140:145,1,80,0|0,1:0|1:0,0:0:0:0:
0,275,20123,5,8,0:0:0:0:
0,275,20198,1,8,0:0:0:0:
0,275,20272,2,0,P|12:302|15:326,1,40,8|8,0:0|0:0,0:0:0:0:
97,332,20420,1,8,0:0:0:0:
97,332,20495,1,8,0:0:0:0:
97,332,20569,2,0,P|92:355|78:390,1,40,8|8,0:0|0:0,0:0:0:0:
76,230,20717,6,0,P|50:174|65:112,1,128,6|0,1:2|1:0,0:0:0:0:
133,69,21163,1,0,0:0:0:0:
64,35,21311,2,0,P|25:50|-17:55,1,64,2|0,1:2|0:0,0:0:0:0:
133,149,21608,2,0,P|180:157|225:174,1,96,2|0,1:2|0:0,0:0:0:0:
225,174,21906,6,0,P|255:137|244:56,1,128,2|0,1:2|1:0,0:0:0:0:
302,6,22351,1,0,0:0:0:0:
375,31,22500,2,0,P|390:70|404:98,1,64,2|0,1:2|0:0,0:0:0:0:
512,165,22797,2,0,P|481:155|451:144,1,64,2|0,1:2|0:0,0:0:0:0:
338,262,23094,6,0,P|391:229|454:230,1,128,2|0,1:2|1:0,0:0:0:0:
409,310,23539,1,0,0:0:0:0:
284,384,23688,2,0,P|273:337|255:292,1,96,0|0,1:2|0:0,0:0:0:0:
255,292,23985,2,0,L|193:276,1,64,2|0,1:2|0:0,0:0:0:0:
101,175,24282,6,0,P|78:232|66:251,1,64,0|0,1:2|0:0,0:0:0:0:
113,315,24579,2,0,P|68:333|38:341,1,64,2|0,1:2|0:0,0:0:0:0:
3,274,24876,1,0,1:0:0:0:
164,384,25024,2,0,P|154:321|181:264,1,128,2|0,0:0|0:0,0:0:0:0:
102,160,25470,6,0,P|95:128|82:99,1,64,0|0,1:0|0:0,0:0:0:0:
198,34,25767,2,0,P|185:63|178:94,1,64,2|0,1:2|0:0,0:0:0:0:
240,156,26064,2,0,P|281:178|329:174,2,96,2|2|2,1:2|0:2|0:2,0:0:0:0:
264,276,26658,6,0,P|281:322|285:345,1,64,0|0,1:0|0:0,0:0:0:0:
359,375,26955,1,0,1:0:0:0:
359,375,27104,1,0,0:0:0:0:
494,335,27252,2,0,P|447:326|401:312,1,96,2|0,1:2|0:0,0:0:0:0:
401,312,27549,2,0,P|404:233|442:188,1,128,2|0,1:2|1:0,0:0:0:0:
512,43,28143,6,0,P|440:26|415:-4,1,96,2|0,1:2|0:0,0:0:0:0:
425,12,28440,2,0,L|444:81,1,64,2|0,1:2|0:0,0:0:0:0:
276,172,28737,2,0,P|291:131|297:96,1,64,2|0,1:2|0:0,0:0:0:0:
358,63,29034,1,2,1:2:0:0:
361,241,29183,5,8,0:0:0:0:
170,183,29331,2,0,P|179:213|184:245,1,64,8|8,0:0|0:0,0:0:0:0:
184,245,29554,1,8,0:0:0:0:
184,245,29628,2,0,L|173:288,1,32,10|0,0:2|0:0,0:0:0:0:
0,384,29777,5,8,0:0:0:0:
56,324,29925,1,4,1:3:0:0:
130,346,30074,1,4,0:3:0:0:
325,316,30222,6,0,B|365:285|384:220|333:170,1,143.999995605469,4|8,1:0|0:0,0:0:0:0:
278,246,30668,1,0,0:0:0:0:
393,360,30816,2,0,P|426:370|477:394,1,71.9999978027344,2|0,1:2|0:0,0:0:0:0:
278,246,31113,2,0,P|274:211|252:159,1,71.9999978027344,10|0,0:2|0:0,0:0:0:0:
139,324,31410,6,0,B|115:363|52:388|13:365,1,143.999995605469,2|8,1:2|0:0,0:0:0:0:
134,232,31856,1,0,0:0:0:0:
208,267,32005,2,0,P|215:299|236:356,1,71.9999978027344,2|0,1:2|0:0,0:0:0:0:
44,240,32302,2,0,P|56:199|60:151,1,71.9999978027344,8|0,0:0|0:0,0:0:0:0:
160,30,32599,6,0,B|146:78|184:135|246:125,1,143.999995605469,2|8,1:2|0:0,0:0:0:0:
251,217,33044,1,0,0:0:0:0:
161,189,33193,1,0,1:2:0:0:
161,189,33490,6,0,P|175:234|189:295,1,107.999996704102,10|0,0:0|0:0,0:0:0:0:
188,293,33787,2,0,P|138:281|96:279,1,71.9999978027344,0|0,1:0|0:0,0:0:0:0:
295,384,34084,2,0,P|280:339|272:298,1,71.9999978027344,10|0,0:2|0:0,0:0:0:0:
345,169,34381,5,0,1:0:0:0:
276,221,34529,1,10,0:0:0:0:
356,257,34678,1,8,0:0:0:0:
268,138,34826,1,8,0:0:0:0:
268,138,34901,1,8,0:0:0:0:
268,138,34975,1,4,1:2:0:0:
470,232,35272,6,0,B|524:269|500:342|500:342,1,107.999996704102,10|0,0:2|0:0,0:0:0:0:
503,328,35569,2,0,P|462:342|430:352,1,71.9999978027344,0|0,1:0|0:0,0:0:0:0:
317,384,35866,2,0,P|327:350|331:302,1,71.9999978027344,10|0,0:2|0:0,0:0:0:0:
354,142,36163,6,0,P|381:188|383:248,1,107.999996704102,2|0,1:2|0:0,0:0:0:0:
384,241,36460,2,0,P|334:233|298:229,1,71.9999978027344,8|0,0:0|0:0,0:0:0:0:
222,336,36757,2,0,P|187:345|152:355,1,71.9999978027344,2|0,1:2|0:0,0:0:0:0:
21,220,37054,2,0,B|45:253|90:270|127:260,1,107.999996704102,8|0,0:0|0:0,0:0:0:0:
115,262,37351,6,0,B|184:194|128:123|128:123,2,143.999995605469,2|10|0,1:2|0:2|1:0,0:0:0:0:
254,224,38094,1,0,0:0:0:0:
202,293,38242,2,0,P|209:335|228:370,1,71.9999978027344,8|8,0:0|0:0,0:0:0:0:
221,361,38465,1,8,0:0:0:0:
221,361,38539,6,0,B|270:375|326:358|347:302,1,143.999995605469,0|12,1:0|0:3,0:0:0:0:
440,384,38985,1,4,0:3:0:0:
440,384,39059,1,4,0:3:0:0:
440,384,39133,1,2,1:2:0:0:
318,164,39430,1,10,0:0:0:0:
318,164,39727,5,2,1:0:0:0:
386,119,39876,1,0,0:0:0:0:
277,32,40024,2,0,P|263:65|258:100,1,71.9999978027344,10|0,0:0|0:0,0:0:0:0:
178,209,40321,2,0,P|99:247|38:240,1,143.999995605469,2|10,1:0|0:0,0:0:0:0:
159,127,40767,1,2,1:3:0:0:
159,127,41361,5,0,3:0:0:0:
159,127,41435,1,0,3:0:0:0:
159,127,41509,2,0,P|137:62|136:50,2,71.9999978027344,0|8|4,3:0|0:3|0:3,0:0:0:0:
280,191,41955,5,4,0:3:0:0:
280,191,42029,1,4,0:3:0:0:
280,191,42104,2,0,P|258:249|233:293,1,107.999996704102,2|0,1:0|0:0,0:0:0:0:
235,289,42401,2,0,P|200:297|167:310,1,71.9999978027344,8|0,0:0|0:0,0:0:0:0:
377,384,42698,5,8,0:0:0:0:
340,265,42846,1,8,0:0:0:0:
474,196,42995,5,8,0:0:0:0:
453,314,43143,1,8,0:0:0:0:
453,314,43737,5,0,1:3:0:0:
453,314,43811,1,0,1:3:0:0:
453,314,43886,2,0,L|470:367,2,47.9999985351563,8|8|8,0:3|0:3|0:3,0:0:0:0:
295,236,44183,2,0,L|228:206,2,47.9999985351563,4|4|4,0:3|0:3|0:3,0:0:0:0:
369,269,44480,5,10,0:0:0:0:
407,200,44628,2,0,P|418:137|404:75,1,128,10|0,0:0|0:0,0:0:0:0:
340,29,45074,2,0,P|307:20|275:4,1,64,2|0,0:0|0:0,0:0:0:0:
170,90,45371,2,0,L|108:106,1,64,2|0,0:0|0:0,0:0:0:0:
198,13,45668,5,10,0:0:0:0:
104,120,45816,2,0,P|184:124|242:190,1,128,10|0,0:0|0:0,0:0:0:0:
258,220,46262,1,2,0:0:0:0:
105,284,46559,1,2,0:0:0:0:
234,376,46856,5,10,0:0:0:0:
162,340,47005,2,0,P|153:277|176:218,1,128,10|0,0:0|0:0,0:0:0:0:
298,148,47450,2,0,P|327:161|357:170,1,64,2|0,0:0|0:0,0:0:0:0:
420,66,47747,2,0,P|389:75|360:88,1,64,2|0,0:0|0:0,0:0:0:0:
135,122,48044,5,10,0:0:0:0:
184,25,48193,2,0,P|218:103|206:152,1,128,10|0,0:0|1:0,0:0:0:0:
210,142,48564,1,0,1:0:0:0:
210,142,48638,2,0,P|221:174|226:203,1,64,0|4,1:0|0:3,0:0:0:0:
69,301,48935,2,0,P|58:331|52:362,1,64,8|0,0:0|0:0,0:0:0:0:
167,300,49232,5,10,0:0:0:0:
34,220,49381,1,8,0:0:0:0:
167,300,49529,2,0,B|244:279|230:332|312:310,1,143.999995605469,0|0,1:0|1:0,0:0:0:0:
306,311,50123,2,0,P|292:344|283:379,1,71.9999978027344,2|0,1:2|0:0,0:0:0:0:
239,263,50420,1,10,0:2:0:0:
368,214,50569,2,0,P|373:249|382:284,1,71.9999978027344,8|0,0:0|1:0,0:0:0:0:
287,185,50866,2,0,P|279:115|304:48,1,143.999995605469,2|0,0:2|0:0,0:0:0:0:
376,20,51311,1,2,1:2:0:0:
427,77,51460,1,0,0:0:0:0:
235,118,51608,6,0,L|219:49,1,35.9999989013672,10|8,0:2|0:0,0:0:0:0:
161,48,51757,2,0,L|169:13,4,35.9999989013672,8|8|8|8|8,0:0|0:0|0:0|0:0|0:0,0:0:0:0:
0,138,52203,6,0,L|39:128,3,35.9999989013672,10|8|8|8,0:2|0:0|0:0|0:0,0:0:0:0:
194,201,52500,1,10,0:2:0:0:
194,201,52574,1,8,0:0:0:0:
194,201,52648,2,0,L|228:211,1,35.9999989013672,8|8,0:0|0:0,0:0:0:0:
150,324,52797,6,0,B|102:340|102:340|71:368|71:368|22:384,1,143.999995605469,10|0,0:0|0:0,0:0:0:0:
22,384,53391,5,8,0:0:0:0:
225,294,53539,2,0,L|302:314,1,80,8|0,0:0|0:0,0:0:0:0:
302,314,53985,6,0,B|344:300|370:214|320:153,1,160,6|8,1:0|0:0,0:0:0:0:
413,311,54430,1,0,0:0:0:0:
263,207,54579,2,0,P|223:219|160:231,1,80,2|0,1:2|0:0,0:0:0:0:
185,227,54802,1,2,0:2:0:0:
185,227,54876,1,10,0:2:0:0:
16,151,55024,5,2,0:2:0:0:
8,70,55173,2,0,L|101:96,1,80,0|0,1:0|0:0,0:0:0:0:
159,163,55470,2,0,B|185:123|182:71|144:36,1,120,8|0,0:0|0:0,0:0:0:0:
157,50,55767,2,0,P|200:45|247:32,1,80,2|0,1:0|0:0,0:0:0:0:
120,233,56064,2,0,P|81:223|41:218,1,80,8|0,0:0|0:0,0:0:0:0:
249,139,56361,6,0,B|272:190|328:216|386:190,1,160,2|8,1:0|0:0,0:0:0:0:
360,114,56807,1,0,0:0:0:0:
257,253,56955,2,0,P|209:265|153:287,1,80,2|0,1:2|0:0,0:0:0:0:
180,275,57178,1,2,0:0:0:0:
180,275,57253,1,10,0:2:0:0:
391,344,57401,1,2,0:0:0:0:
314,384,57549,6,0,P|309:342|316:302,1,80,0|0,1:0|0:0,0:0:0:0:
454,163,57846,1,8,0:0:0:0:
454,163,57920,1,8,0:0:0:0:
454,163,57995,1,8,0:0:0:0:
454,163,58069,1,8,0:0:0:0:
454,163,58143,2,0,B|480:197|479:241|446:294,1,120,2|0,1:0|0:0,0:0:0:0:
456,276,58440,2,0,P|411:259|365:250,1,80,8|8,0:0|0:0,0:0:0:0:
334,190,58663,5,8,0:0:0:0:
334,190,58737,2,0,B|277:177|222:207|198:259,1,160,2|8,1:0|0:0,0:0:0:0:
306,271,59183,1,0,0:0:0:0:
389,124,59331,2,0,P|372:84|364:43,1,80,2|0,1:2|0:0,0:0:0:0:
364,48,59554,1,2,0:2:0:0:
364,48,59628,1,10,0:2:0:0:
461,168,59777,5,2,0:2:0:0:
294,96,59925,2,0,B|273:135|208:162|134:131,1,160,2|8,1:1|0:0,0:0:0:0:
151,137,60519,2,0,P|137:197|125:222,1,80,0|8,1:0|0:0,0:0:0:0:
242,324,60816,2,0,P|227:286|220:247,1,80,0|8,1:0|0:0,0:0:0:0:
226,243,61039,1,8,0:0:0:0:
236,250,61113,6,0,B|264:287|313:299|359:279,1,120,2|0,1:0|0:0,0:0:0:0:
343,284,61410,2,0,P|356:229|373:188,1,80,8|0,0:0|0:0,0:0:0:0:
285,186,61708,1,2,1:0:0:0:
348,374,61856,1,8,0:0:0:0:
419,336,62005,2,0,P|456:323|497:318,1,80,0|8,1:0|0:0,0:0:0:0:
496,318,62227,1,8,0:0:0:0:
496,318,62302,6,0,P|513:269|512:229,1,80,2|8,1:0|0:0,0:0:0:0:
385,98,62599,1,0,1:0:0:0:
313,130,62747,1,10,0:2:0:0:
313,130,62821,1,8,0:0:0:0:
313,130,62896,2,0,P|294:181|297:226,1,80,10|8,0:0|0:3,0:0:0:0:
388,318,63193,1,4,0:3:0:0:
421,247,63341,1,4,0:3:0:0:
375,186,63490,1,4,1:0:0:0:
78,253,63787,6,0,P|43:241|-3:231,1,71.9999978027344,8|0,0:0|1:0,0:0:0:0:
111,343,64084,2,0,P|76:331|30:321,1,71.9999978027344,8|0,0:0|1:0,0:0:0:0:
200,183,64381,2,0,P|165:171|119:161,1,71.9999978027344,8|0,0:0|1:0,0:0:0:0:
254,306,64678,6,0,B|316:345|396:319|417:243,2,191.999994140625,8|4|6,0:0|1:2|1:0,0:0:0:0:
161,47,75371,6,0,B|120:57|120:57|86:78|86:78|28:92,1,128,6|0,1:2|1:0,0:0:0:0:
178,140,75817,1,0,0:0:0:0:
110,216,75965,2,0,P|102:184|101:152,1,64,2|0,1:2|0:0,0:0:0:0:
248,13,76262,2,0,P|246:44|239:76,1,64,2|0,1:2|0:0,0:0:0:0:
321,156,76559,6,0,P|392:201|435:188,1,128,2|0,1:2|1:0,0:0:0:0:
429,191,77153,2,0,P|413:244|413:266,1,64,2|0,1:2|0:0,0:0:0:0:
351,302,77450,1,2,1:2:0:0:
425,332,77599,1,0,0:0:0:0:
279,265,77747,6,0,P|240:320|246:379,1,128,2|0,1:2|1:0,0:0:0:0:
326,384,78193,1,0,0:0:0:0:
208,308,78341,2,0,B|152:313|158:351|73:349,2,128,0|2|0,1:2|1:2|1:2,0:0:0:0:
208,308,79232,2,0,P|197:277|191:246,1,64,2|0,1:2|0:0,0:0:0:0:
34,180,79529,2,0,P|22:226|0:269,1,96,0|0,1:0|0:0,0:0:0:0:
0,269,79826,2,0,P|64:224|118:223,1,128,0|0,1:0|1:0,0:0:0:0:
177,167,80272,5,0,0:0:0:0:
118,80,80420,2,0,P|108:110|103:142,1,64,2|0,1:2|0:0,0:0:0:0:
286,225,80717,2,0,P|273:178|252:135,2,96,2|2|2,1:2|0:2|0:2,0:0:0:0:
286,225,81461,1,0,0:0:0:0:
356,268,81608,2,0,P|384:281|416:287,1,64,0|0,1:0|0:0,0:0:0:0:
290,309,81906,2,0,P|224:325|173:369,1,128,2|2,1:2|1:2,0:0:0:0:
178,362,82500,6,0,P|165:306|154:286,1,64,0|0,1:0|0:0,0:0:0:0:
18,193,82797,2,0,P|66:232|129:230,1,128,2|2,1:2|1:2,0:0:0:0:
284,110,83391,1,2,1:2:0:0:
284,110,83688,5,2,1:2:0:0:
185,15,83837,1,8,0:0:0:0:
91,156,83985,2,0,P|130:151|168:138,1,80,8|8,0:0|0:0,0:0:0:0:
179,142,84208,1,8,0:0:0:0:
186,148,84282,2,0,P|167:202|163:235,1,80,10|8,0:2|0:0,0:0:0:0:
317,319,84579,5,4,1:3:0:0:
341,349,84653,1,4,0:3:0:0:
377,366,84727,1,4,0:3:0:0:
417,364,84801,1,4,0:3:0:0:
452,345,84876,2,0,B|493:316|505:260|468:211,1,143.999995605469,4|2,1:0|0:0,0:0:0:0:
362,157,85321,1,0,1:0:0:0:
362,157,85470,1,8,0:0:0:0:
426,105,85618,2,0,P|456:114|499:120,1,71.9999978027344,8|2,0:0|0:0,0:0:0:0:
402,245,85915,6,0,B|359:228|309:252|299:305,1,107.999996704102,0|0,1:0|0:0,0:0:0:0:
309,286,86212,2,0,B|263:316|196:295|182:237,1,143.999995605469,8|0,0:0|1:0,0:0:0:0:
179,359,86658,1,8,0:0:0:0:
107,300,86807,2,0,P|103:337|92:372,1,71.9999978027344,8|2,0:0|0:0,0:0:0:0:
262,215,87104,5,8,0:0:0:0:
262,215,87252,2,0,B|282:163|265:105|204:80,1,143.999995605469,4|0,1:2|0:0,0:0:0:0:
324,274,87698,1,0,1:0:0:0:
183,191,87846,1,10,0:0:0:0:
324,274,87995,2,0,P|361:262|399:255,1,71.9999978027344,8|0,0:0|0:0,0:0:0:0:
437,69,88292,6,0,B|396:150|307:127,1,143.999995605469,4|8,1:2|0:0,0:0:0:0:
433,194,88737,1,0,1:0:0:0:
493,147,88886,1,8,0:0:0:0:
493,147,88960,1,8,0:0:0:0:
493,147,89034,2,0,P|512:181|516:218,1,71.9999978027344,10|8,0:0|0:3,0:0:0:0:
418,371,89331,2,0,P|400:331|396:287,1,71.9999978027344,4|4,0:3|0:3,0:0:0:0:
478,308,89628,5,4,1:2:0:0:
328,372,89777,2,0,B|280:394|225:378|199:322,1,143.999995605469,0|0,1:0|1:0,0:0:0:0:
164,261,90222,1,8,0:0:0:0:
91,300,90371,2,0,P|82:349|70:376,1,71.9999978027344,8|2,0:0|0:0,0:0:0:0:
248,262,90668,6,0,B|257:226|248:185|202:148,1,107.999996704102,0|0,1:0|0:0,0:0:0:0:
218,163,90965,2,0,P|171:174|131:187,1,71.9999978027344,8|0,0:0|0:0,0:0:0:0:
14,124,91262,1,0,1:0:0:0:
14,124,91336,1,0,1:0:0:0:
14,124,91410,1,10,0:0:0:0:
2,38,91559,2,0,P|40:50|81:56,1,71.9999978027344,8|0,0:0|0:0,0:0:0:0:
101,251,91856,5,0,1:0:0:0:
45,198,92005,2,0,B|-9:228|-19:283|5:334,1,143.999995605469,2|2,1:2|0:0,0:0:0:0:
134,383,92450,1,0,1:0:0:0:
205,348,92599,1,8,0:0:0:0:
205,348,92747,2,0,P|199:302|185:274,1,71.9999978027344,8|0,0:0|0:0,0:0:0:0:
257,220,93044,1,8,0:0:0:0:
317,283,93193,5,0,1:0:0:0:
330,291,93292,2,0,P|354:301|378:310,1,47.9999985351563,8|8,0:0|0:0,0:0:0:0:
438,266,93490,2,0,P|451:296|460:327,2,47.9999985351563,0|8|4,1:0|0:3|0:3,0:0:0:0:
372,218,93787,1,0,1:0:0:0:
502,26,94084,1,8,0:0:0:0:
502,26,94381,5,2,1:0:0:0:
387,141,94530,1,0,1:0:0:0:
373,52,94678,2,0,P|404:68|439:76,1,71.9999978027344,8|4,0:0|0:3,0:0:0:0:
305,166,94975,2,0,B|236:166|253:208|162:208,1,143.999995605469,8|8,0:3|0:0,0:0:0:0:
290,24,95421,1,2,1:3:0:0:
290,24,95717,5,0,1:0:0:0:
203,67,95866,1,8,0:0:0:0:
127,14,96015,1,8,0:3:0:0:
127,14,96089,1,8,0:3:0:0:
127,14,96163,2,0,P|113:46|108:82,1,71.9999978027344,4|4,0:3|0:3,0:0:0:0:
178,215,96460,2,0,P|215:228|257:240,1,71.9999978027344,8|0,0:0|3:0,0:0:0:0:
246,237,96683,5,0,3:0:0:0:
246,237,96757,2,0,B|256:280|256:280|236:324|236:324|248:374,1,143.999995605469,2|8,1:0|0:0,0:0:0:0:
366,228,97203,5,0,3:0:0:0:
366,228,97277,1,0,3:0:0:0:
366,228,97351,2,0,P|380:194|390:160,1,71.9999978027344,4|4,0:3|0:3,0:0:0:0:
284,137,97649,5,8,0:0:0:0:
325,330,97797,1,0,1:3:0:0:
325,330,98094,5,0,1:0:0:0:
398,363,98242,1,8,0:0:0:0:
460,317,98391,1,8,0:0:0:0:
460,317,98465,1,8,0:0:0:0:
460,317,98539,2,0,P|477:357|483:392,1,71.9999978027344,10|8,0:0|0:3,0:0:0:0:
409,249,98836,2,0,P|423:216|431:181,1,71.9999978027344,4|0,0:3|0:0,0:0:0:0:
329,244,99134,5,10,0:0:0:0:
507,152,99282,2,0,P|436:145|397:97,1,128,10|0,0:0|0:0,0:0:0:0:
337,47,99727,2,0,P|330:79|315:113,1,64,2|0,0:0|0:0,0:0:0:0:
253,158,100024,2,0,P|240:128|233:97,1,64,2|0,0:0|0:0,0:0:0:0:
328,198,100322,5,10,0:0:0:0:
160,146,100470,2,0,B|122:158|122:158|87:182|87:182|38:196,1,128,10|0,0:0|0:0,0:0:0:0:
210,244,100915,2,0,P|225:277|232:345,1,96,2|0,0:0|0:0,0:0:0:0:
232,335,101212,2,0,L|307:356,1,64,2|0,0:0|0:0,0:0:0:0:
155,379,101510,5,10,0:0:0:0:
365,311,101658,2,0,P|408:355|471:356,1,128,10|0,0:0|0:0,0:0:0:0:
430,260,102104,2,0,P|440:219|443:187,1,64,2|0,0:0|0:0,0:0:0:0:
345,155,102401,2,0,P|349:186|357:217,1,64,2|0,0:0|0:0,0:0:0:0:
416,120,102698,5,10,0:0:0:0:
273,201,102846,2,0,P|251:142|260:80,1,128,10|0,0:0|1:0,0:0:0:0:
260,80,103218,1,0,1:0:0:0:
260,80,103292,2,0,P|215:63|188:45,1,64,8|4,0:3|0:3,0:0:0:0:
97,0,103589,2,0,P|110:28|118:59,1,64,8|0,0:0|0:0,0:0:0:0:
153,193,103886,5,10,0:0:0:0:
30,91,104035,1,8,0:0:0:0:
117,75,104183,2,0,B|107:127|107:127|78:156|78:156|67:214,1,143.999995605469,0|0,1:0|1:0,0:0:0:0:
69,206,104777,2,0,L|0:223,1,71.9999978027344,2|0,1:2|0:0,0:0:0:0:
104,360,105074,5,2,1:0:0:0:
204,254,105222,1,8,0:0:0:0:
126,272,105371,1,8,0:0:0:0:
270,320,105519,2,0,P|281:228|251:170,1,143.999995605469,2|8,1:0|0:0,0:0:0:0:
294,10,105965,5,2,1:0:0:0:
178,131,106114,1,8,0:0:0:0:
358,188,106262,6,0,B|381:174|381:174|413:188|413:188|446:251|509:242,1,179.999994506836,4|0,1:0|0:0,0:0:0:0:
508,242,107450,6,0,B|439:233|453:283|372:278,1,143.999995605469
222,373,108045,5,8,0:0:0:0:
273,169,108193,2,0,P|280:208|295:245,1,80,8|0,0:0|0:0,0:0:0:0:
290,254,108638,6,0,B|237:269|237:269|201:297|201:297|143:314,1,160,6|8,1:0|0:0,0:0:0:0:
62,246,109084,1,0,0:0:0:0:
123,125,109232,2,0,P|133:164|158:206,1,80,2|0,1:2|0:0,0:0:0:0:
152,198,109455,1,2,0:2:0:0:
152,198,109529,1,10,0:2:0:0:
229,373,109678,1,2,0:2:0:0:
378,336,109826,6,0,P|338:330|287:314,1,80,0|0,1:0|0:0,0:0:0:0:
135,292,110123,2,0,B|177:299|224:284|247:224,1,120,8|0,0:0|0:0,0:0:0:0:
236,245,110420,2,0,P|240:192|249:161,1,80,2|0,1:0|0:0,0:0:0:0:
185,26,110717,2,0,P|181:79|172:110,1,80,8|0,0:0|0:0,0:0:0:0:
357,204,111014,6,0,B|439:183|428:243|529:215,1,160,2|8,1:0|0:0,0:0:0:0:
430,265,111460,1,0,0:0:0:0:
366,113,111608,2,0,P|316:130|272:136,1,80,2|0,1:2|0:0,0:0:0:0:
286,141,111831,1,2,0:0:0:0:
279,137,111906,2,0,P|262:94|240:60,1,80,10|0,0:0|0:0,0:0:0:0:
250,267,112203,6,0,P|290:276|340:293,1,80,0|0,1:1|0:0,0:0:0:0:
199,187,112500,1,8,0:0:0:0:
199,187,112574,1,8,0:0:0:0:
199,187,112648,1,8,0:0:0:0:
199,187,112722,1,8,0:0:0:0:
199,187,112797,2,0,B|179:227|119:245|78:209,1,120,2|0,1:0|0:0,0:0:0:0:
95,220,113094,2,0,P|84:174|70:133,1,80,8|8,0:0|0:0,0:0:0:0:
130,82,113316,5,8,0:0:0:0:
130,82,113391,2,0,B|176:61|249:86|266:137,1,160,2|8,1:0|0:0,0:0:0:0:
199,187,113836,1,0,0:0:0:0:
341,104,113985,2,0,P|326:62|319:28,1,80,2|0,1:2|0:0,0:0:0:0:
318,28,114208,1,2,0:2:0:0:
318,28,114282,1,10,0:2:0:0:
460,116,114430,5,2,0:2:0:0:
357,211,114579,2,0,B|306:248|300:309|340:363,1,160,2|8,1:0|0:0,0:0:0:0:
332,352,115173,1,0,1:0:0:0:
257,215,115321,1,8,0:0:0:0:
241,317,115470,2,0,P|212:333|159:347,1,80,0|8,1:0|0:0,0:0:0:0:
162,355,115693,1,8,0:0:0:0:
155,355,115767,6,0,B|126:329|102:285|129:233,1,120,2|0,1:0|0:0,0:0:0:0:
122,247,116064,2,0,P|109:198|81:159,1,80,8|0,0:0|0:0,0:0:0:0:
73,324,116361,2,0,P|28:340|-12:365,1,80,2|8,1:0|0:0,0:0:0:0:
204,201,116658,2,0,P|251:217|291:222,1,80,0|8,1:0|0:0,0:0:0:0:
280,221,116881,1,8,0:0:0:0:
280,221,116955,5,2,1:0:0:0:
399,272,117104,1,8,0:0:0:0:
465,178,117252,1,0,1:0:0:0:
331,314,117401,5,8,0:0:0:0:
331,314,117475,1,8,0:0:0:0:
331,314,117549,2,0,P|329:352|322:373,3,40,8|8|8|8,0:0|0:0|0:3|0:3,0:0:0:0:
241,384,117846,1,4,0:3:0:0:
241,384,117920,1,4,0:3:0:0:
241,384,117995,2,0,P|240:349|243:335,1,40,0|0,1:0|1:0,0:0:0:0:
210,216,118143,6,0,B|169:227|169:227|113:270|113:270|67:279,1,160,6|8,1:0|0:0,0:0:0:0:
0,239,118588,1,0,0:0:0:0:
77,78,118737,2,0,B|66:119|66:119|73:155,1,80,2|0,1:2|0:0,0:0:0:0:
73,155,118960,2,0,L|111:165,1,40,2|8,0:2|0:2,0:0:0:0:
298,201,119182,5,2,0:2:0:0:
233,290,119331,2,0,P|226:251|209:215,1,80,0|0,1:0|0:0,0:0:0:0:
329,58,119628,2,0,P|363:96|372:170,1,120,8|0,0:0|0:0,0:0:0:0:
373,162,119925,2,0,P|410:176|449:185,1,80,2|0,1:0|0:0,0:0:0:0:
331,310,120222,2,0,P|310:344|299:382,1,80,8|0,0:0|0:0,0:0:0:0:
77,272,120519,6,0,P|143:276|214:199,1,160,2|8,1:0|0:0,0:0:0:0:
209,215,120965,1,0,0:0:0:0:
141,110,121113,2,0,P|128:160|112:194,1,80,2|0,1:2|0:0,0:0:0:0:
116,185,121336,1,2,0:0:0:0:
116,185,121410,1,10,0:0:0:0:
225,127,121559,1,0,0:0:0:0:
39,44,121708,2,0,P|43:83|56:121,1,80,0|0,1:0|0:0,0:0:0:0:
154,267,122005,5,8,0:0:0:0:
192,257,122079,1,8,0:0:0:0:
231,266,122153,1,8,0:0:0:0:
261,291,122227,1,8,0:0:0:0:
276,328,122302,1,2,1:0:0:0:
154,267,122599,1,8,0:0:0:0:
315,174,122747,5,8,0:0:0:0:
315,174,122821,1,8,0:0:0:0:
315,174,122896,2,0,B|340:161|340:161|357:168|357:168|396:229|463:217,1,160,2|8,1:0|0:0,0:0:0:0:
443,140,123341,1,0,0:0:0:0:
266,93,123489,2,0,P|250:58|241:12,1,80,2|0,1:2|0:0,0:0:0:0:
241,17,123712,2,0,L|189:-8,1,40,2|8,0:2|0:2,0:0:0:0:
373,92,123935,5,2,0:2:0:0:
249,229,124083,2,0,P|181:279|93:269,1,160,2|8,1:0|0:0,0:0:0:0:
108,275,124678,1,0,1:0:0:0:
259,335,124826,5,8,0:0:0:0:
154,194,124975,2,0,P|167:156|172:116,1,80,0|8,1:0|0:0,0:0:0:0:
173,117,125198,5,8,0:0:0:0:
173,117,125272,2,0,P|117:143|73:156,1,80,2|0,1:0|0:0,0:0:0:0:
361,250,125569,2,0,P|416:276|460:289,1,80,8|0,0:0|0:0,0:0:0:0:
435,191,125866,5,2,1:0:0:0:
278,256,126014,1,8,0:0:0:0:
367,60,126163,2,0,B|359:101|359:101|366:138,1,80,0|8,1:0|0:0,0:0:0:0:
366,138,126385,5,8,0:0:0:0:
366,138,126460,2,0,B|410:145|410:145|470:184|470:184|534:198,1,160,2|0,1:0|1:0,0:0:0:0:
393,278,126905,5,10,0:0:0:0:
393,278,126979,1,8,0:0:0:0:
393,278,127054,1,2,1:2:0:0:
306,221,127203,5,8,0:0:0:0:
227,236,127351,5,4,0:3:0:0:
179,284,127499,5,4,0:3:0:0:
171,315,127648,5,4,1:0:0:0:
171,315,127945,6,0,P|160:265|146:230,1,80,8|0,0:0|1:0,0:0:0:0:
47,308,128242,2,0,P|63:365|73:388,1,80,8|0,0:0|1:0,0:0:0:0:
255,198,128539,2,0,P|240:160|230:121,1,80,8|0,0:0|1:0,0:0:0:0:
109,160,128836,5,4,0:3:0:0:
154,17,129282,5,0,1:0:0:0:
154,17,129356,1,0,1:0:0:0:
154,17,129430,2,0,B|174:62|138:88|86:105|53:41|118:37|138:88|146:205|14:187|-2:124,1,280,8|0,0:0|0:0,0:0:0:0:
2,134,130024,6,0,P|69:158|91:186,1,103.999995239258,2|0,1:2|0:0,0:0:0:0:
11,225,130470,2,0,P|41:289|37:324,1,103.999995239258,2|0,1:2|0:0,0:0:0:0:
115,384,130915,2,0,B|115:354|115:354|128:318,1,51.999997619629,8|0,0:1|0:0,0:0:0:0:
248,356,131212,6,0,P|271:368|301:379,1,51.999997619629,2|0,1:2|0:0,0:0:0:0:
403,267,131509,2,0,P|348:297|296:290,1,103.999995239258,2|2,0:0|0:2,0:0:0:0:
236,247,131955,1,0,0:0:0:0:
311,208,132104,1,8,0:1:0:0:
311,208,132401,6,0,P|322:159|309:94,1,103.999995239258,2|0,1:2|0:0,0:0:0:0:
400,216,132846,2,0,P|386:268|399:333,1,103.999995239258,2|0,1:2|0:0,0:0:0:0:
327,384,133292,2,0,P|311:352|305:323,1,51.999997619629,8|0,0:1|0:0,0:0:0:0:
105,273,133589,6,0,P|132:267|155:255,1,51.999997619629,2|0,1:2|0:0,0:0:0:0:
230,309,133886,2,0,P|205:316|177:332,1,51.999997619629,0|0,0:0|1:0,0:0:0:0:
252,157,134183,1,2,0:2:0:0:
252,157,134331,1,0,0:0:0:0:
314,205,134480,2,0,P|319:229|310:269,1,51.999997619629,8|0,0:1|0:0,0:0:0:0:
177,185,134777,6,0,B|166:147|164:113|201:75,1,103.999995239258,2|0,1:2|0:0,0:0:0:0:
226,5,135222,2,0,B|250:37|288:51|334:42,1,103.999995239258,2|0,1:2|0:0,0:0:0:0:
374,111,135668,2,0,P|350:118|319:131,1,51.999997619629,8|0,0:1|0:0,0:0:0:0:
429,222,135965,6,0,P|437:189|446:167,1,51.999997619629,2|0,1:2|0:0,0:0:0:0:
491,270,136262,2,0,B|522:292|534:341|493:372,1,103.999995239258,2|2,0:0|0:2,0:0:0:0:
431,322,136708,1,0,0:0:0:0:
358,304,136856,1,8,0:1:0:0:
358,304,137153,6,0,P|283:322|240:347,1,103.999995239258,2|0,1:2|0:0,0:0:0:0:
169,269,137599,2,0,P|244:251|287:226,1,103.999995239258,2|0,1:2|0:0,0:0:0:0:
323,172,138044,2,0,P|341:214|354:231,1,51.999997619629,8|0,0:1|0:0,0:0:0:0:
201,138,138341,6,0,P|213:115|222:90,1,51.999997619629,2|0,1:2|0:0,0:0:0:0:
284,31,138638,2,0,P|259:20|221:11,1,51.999997619629,0|0,0:0|1:0,0:0:0:0:
128,97,138935,2,0,B|103:128|68:138|26:121,1,103.999995239258,2|8,0:2|0:1,0:0:0:0:
39,52,139381,1,0,0:0:0:0:
162,212,139529,6,0,B|206:220|206:220|239:283|310:264,1,155.999992858887,2|0,1:1|1:0,0:0:0:0:
373,384,140123,2,0,P|394:330|394:292,1,77.9999964294435,2|0,0:0|0:0,0:0:0:0:
395,310,140420,2,0,L|459:294,1,51.999997619629,8|0,0:1|0:0,0:0:0:0:
366,227,140717,5,2,1:2:0:0:
366,227,140866,1,0,0:0:0:0:
433,152,141014,2,0,P|445:186|474:233,1,77.9999964294435,2|0,0:0|0:0,0:0:0:0:
465,222,141311,2,0,P|484:145|503:114,1,103.999995239258,2|8,0:0|0:1,0:0:0:0:
457,57,141757,1,0,0:0:0:0:
342,125,141906,6,0,P|321:60|317:31,1,77.9999964294435,2|0,1:2|0:0,0:0:0:0:
319,50,142203,2,0,P|278:32|260:17,1,51.999997619629,0|0,0:0|1:0,0:0:0:0:
153,91,142500,2,0,L|33:121,1,103.999995239258,2|8,0:2|0:1,0:0:0:0:
52,116,142945,1,0,0:0:0:0:
150,186,143094,6,0,P|163:211|171:298,1,103.999995239258,2|0,1:2|0:0,0:0:0:0:
114,335,143539,1,0,1:0:0:0:
2,384,143688,2,0,P|56:287|65:281,1,103.999995239258,2|8,0:2|0:1,0:0:0:0:
194,360,144133,1,8,0:1:0:0:
253,305,144282,6,0,P|296:334|350:334,1,103.999995239258,2|0,1:1|0:0,0:0:0:0:
469,384,144727,2,0,P|426:323|417:275,1,103.999995239258,0|0,1:0|0:0,0:0:0:0:
359,210,145173,2,0,P|351:241|338:267,1,51.999997619629,8|0,0:1|0:0,0:0:0:0:
419,158,145470,6,0,P|454:151|487:144,1,51.999997619629,2|0,1:2|0:0,0:0:0:0:
512,247,145767,2,0,P|485:238|457:224,1,51.999997619629,0|0,0:0|1:0,0:0:0:0:
291,174,146064,2,0,P|261:215|198:222,1,103.999995239258,2|8,0:2|0:1,0:0:0:0:
155,275,146509,1,0,0:0:0:0:
38,196,146658,6,0,P|51:157|57:109,1,77.9999964294435,2|0,1:2|0:0,0:0:0:0:
56,120,146955,2,0,L|129:103,1,51.999997619629,0|0,0:0|1:0,0:0:0:0:
190,41,147252,2,0,P|216:121|217:144,1,103.999995239258,2|8,0:2|0:1,0:0:0:0:
148,183,147698,1,0,0:0:0:0:
298,280,147846,5,2,1:2:0:0:
120,354,147995,1,8,0:0:0:0:
273,292,148143,2,0,L|352:313,1,75.9999979705811,8|8,0:0|0:3,0:0:0:0:
346,311,148366,5,8,0:3:0:0:
346,311,148440,1,8,0:3:0:0:
452,281,148589,5,8,0:3:0:0:
477,182,148737,5,4,0:3:0:0:
443,107,148886,5,4,0:3:0:0:
408,89,149034,5,0,1:0:0:0:
217,10,163292,5,0,1:0:0:0:
217,10,163589,2,0,P|209:43|193:64,1,44.0000013427735,2|0,0:3|0:0,0:0:0:0:
292,74,163886,5,8,0:0:0:0:
292,74,164183,2,0,P|297:104|318:142,1,51.999997619629,2|0,0:3|0:0,0:0:0:0:
164,125,164480,5,0,1:0:0:0:
164,125,164777,2,0,P|152:169|137:194,1,60.0000022888184,2|0,0:3|0:0,0:0:0:0:
367,185,165074,5,8,0:0:0:0:
367,185,165371,2,0,P|379:230|400:264,1,68.0000012969971,2|0,0:3|0:0,0:0:0:0:
204,367,165668,6,0,P|160:372|117:387,1,80,8|8,0:0|0:0,0:0:0:0:
218,207,165965,2,0,P|255:219|295:224,1,80,8|8,0:0|0:0,0:0:0:0:
179,289,166262,5,8,0:0:0:0:
143,147,166410,1,8,0:0:0:0:
179,289,166559,1,8,0:0:0:0:
143,147,166708,1,8,0:0:0:0:
273,309,166856,5,8,0:0:0:0:
300,320,166930,1,8,0:0:0:0:
330,320,167004,1,8,0:0:0:0:
357,308,167078,1,8,0:0:0:0:
378,287,167153,2,0,P|382:253|389:236,1,40,8|8,0:0|0:0,0:0:0:0:
458,349,167302,1,8,0:0:0:0:
458,349,167376,1,8,0:0:0:0:
458,349,167450,1,8,0:0:0:0:
338,89,168044,6,0,B|361:80|361:80|383:89|383:89|421:157|509:125,1,160,6|8,1:0|0:0,0:0:0:0:
461,57,168489,1,0,0:0:0:0:
278,160,168638,2,0,P|292:197|301:236,1,80,2|0,1:2|0:0,0:0:0:0:
301,236,168861,2,0,L|366:259,1,40,2|8,0:2|0:2,0:0:0:0:
410,212,169084,1,2,0:2:0:0:
213,313,169232,6,0,P|167:333|131:341,1,80,0|0,1:0|0:0,0:0:0:0:
4,214,169529,2,0,P|88:225|122:265,1,120,8|0,0:0|0:0,0:0:0:0:
111,247,169826,2,0,P|95:190|92:167,1,80,2|0,1:0|0:0,0:0:0:0:
234,41,170123,2,0,P|250:98|253:121,1,80,8|0,0:0|3:0,0:0:0:0:
253,118,170346,5,0,3:0:0:0:
253,118,170420,2,0,B|301:127|301:127|341:158|341:158|411:172,1,160,2|8,1:0|0:0,0:0:0:0:
400,170,171014,2,0,B|393:129|393:129|400:91,1,80,2|0,1:2|0:0,0:0:0:0:
400,91,171237,1,2,0:0:0:0:
400,91,171311,1,10,0:0:0:0:
307,179,171460,1,2,0:0:0:0:
481,248,171608,2,0,P|441:253|403:266,1,80,0|0,1:1|0:0,0:0:0:0:
254,384,171906,5,8,0:0:0:0:
279,353,171980,1,8,0:0:0:0:
288,315,172054,1,8,0:0:0:0:
279,276,172128,1,8,0:0:0:0:
254,246,172203,1,2,1:0:0:0:
16,341,172500,1,8,0:0:0:0:
214,323,172648,5,8,0:0:0:0:
214,323,172722,1,8,0:0:0:0:
214,323,172797,2,0,B|182:313|182:313|159:281|159:281|107:269|107:269|74:280,1,160,2|8,1:0|0:0,0:0:0:0:
16,341,173242,1,0,0:0:0:0:
191,201,173391,2,0,P|178:148|178:116,1,80,2|0,1:2|0:0,0:0:0:0:
177,122,173613,2,0,L|123:103,1,40,2|8,0:2|0:2,0:0:0:0:
32,27,173836,5,2,0:2:0:0:
0,156,173985,2,0,P|68:160|150:90,1,160,2|8,1:0|0:0,0:0:0:0:
140,108,174579,1,0,1:0:0:0:
350,179,174727,5,8,0:0:0:0:
304,96,174876,2,0,P|286:42|282:13,1,80,0|8,1:0|0:0,0:0:0:0:
278,15,175099,5,8,0:0:0:0:
274,11,175173,2,0,P|263:49|245:85,1,80,2|0,1:0|0:0,0:0:0:0:
432,159,175470,2,0,P|476:187|515:195,1,80,8|0,0:0|0:0,0:0:0:0:
397,81,175767,5,2,1:0:0:0:
298,224,175915,1,8,0:0:0:0:
465,339,176064,2,0,P|459:299|444:262,1,80,0|8,1:0|0:0,0:0:0:0:
444,262,176286,5,8,0:0:0:0:
444,262,176361,2,0,B|396:275|396:275|348:311|348:311|292:323,1,160,2|0,1:0|1:0,0:0:0:0:
141,384,176807,1,8,0:2:0:0:
141,384,176881,1,8,0:2:0:0:
141,384,176955,2,0,P|162:334|169:305,1,80,8|4,1:2|0:3,0:0:0:0:
86,113,177252,5,4,0:3:0:0:
48,125,177326,1,4,0:3:0:0:
22,155,177400,1,0,1:0:0:0:
15,194,177474,1,0,1:0:0:0:
28,231,177549,2,0,B|42:291|121:318|173:291,1,160,6|8,1:0|0:0,0:0:0:0:
320,235,177995,1,0,0:0:0:0:
233,153,178143,2,0,B|223:191|223:191|232:255,1,80,2|0,1:2|0:0,0:0:0:0:
228,231,178366,1,2,0:2:0:0:
228,231,178440,1,10,0:2:0:0:
287,71,178589,5,2,0:2:0:0:
145,165,178737,2,0,B|122:197|70:216|12:175,1,120,0|0,1:0|0:0,0:0:0:0:
37,189,179034,2,0,P|18:132|-7:95,1,80,8|0,0:0|0:0,0:0:0:0:
150,87,179331,1,2,1:0:0:0:
158,85,179406,2,0,P|174:48|176:-6,1,80,8|0,0:0|0:0,0:0:0:0:
177,8,179628,1,8,0:0:0:0:
301,193,179851,5,8,0:0:0:0:
310,198,179925,2,0,B|366:211|366:211|406:242|406:242|477:258,1,160,2|8,1:0|0:0,0:0:0:0:
462,169,180371,1,0,0:0:0:0:
330,286,180519,2,0,P|342:319|350:383,1,80,2|0,1:2|0:0,0:0:0:0:
349,363,180742,2,0,L|293:350,1,40,2|8,0:2|0:2,0:0:0:0:
227,223,180965,1,2,0:2:0:0:
73,322,181113,6,0,P|125:308|167:299,1,80,0|0,1:0|0:0,0:0:0:0:
157,112,181410,1,8,0:0:0:0:
157,112,181485,1,8,0:0:0:0:
157,112,181559,1,8,0:0:0:0:
157,112,181633,1,8,0:0:0:0:
157,112,181708,2,0,B|110:148|106:192|129:234,1,120,2|0,1:0|0:0,0:0:0:0:
121,217,182005,1,8,0:0:0:0:
268,354,182153,5,8,0:0:0:0:
268,354,182227,1,8,0:0:0:0:
268,354,182302,2,0,B|309:325|335:248|304:202,1,160,2|8,1:0|0:0,0:0:0:0:
231,239,182747,1,0,0:0:0:0:
380,362,182896,2,0,P|423:372|459:385,1,80,2|0,1:2|0:0,0:0:0:0:
456,384,183118,1,2,0:2:0:0:
456,384,183193,2,0,P|471:328|496:293,1,80,10|0,0:2|0:2,0:0:0:0:
454,162,183490,6,0,B|422:215|362:232|286:192,1,160,2|8,1:0|0:0,0:0:0:0:
314,204,184084,2,0,B|312:162|312:162|328:114,1,80,0|8,1:0|0:0,0:0:0:0:
215,0,184381,2,0,B|219:41|219:41|203:94,1,80,0|8,1:0|0:0,0:0:0:0:
201,86,184604,1,8,0:0:0:0:
195,86,184678,6,0,P|104:114|81:149,1,120,2|0,1:0|0:0,0:0:0:0:
90,130,184975,2,0,P|105:195|107:219,1,80,8|0,0:0|0:0,0:0:0:0:
191,167,185272,1,2,1:0:0:0:
26,248,185420,1,8,0:0:0:0:
159,338,185569,2,0,P|202:347|257:374,1,80,0|8,1:0|0:0,0:0:0:0:
235,360,185792,1,8,0:0:0:0:
235,360,185866,5,2,1:0:0:0:
385,280,186014,1,8,0:0:0:0:
254,223,186163,1,0,1:0:0:0:
317,335,186311,6,0,P|311:310|301:287,1,40,10|8,0:0|0:0,0:0:0:0:
396,198,186460,1,2,1:2:0:0:
396,198,186534,2,0,B|441:207|441:207|469:226|469:226|519:239,1,120,8|4,0:0|0:3,0:0:0:0:
305,296,186906,5,4,0:3:0:0:
305,296,186980,1,4,0:3:0:0:
305,296,187054,2,0,B|230:303|248:340|160:335,1,143.999995605469,4|0,1:0|0:0,0:0:0:0:
107,273,187648,5,8,0:0:0:0:
254,368,187797,1,8,0:0:0:0:
432,205,188242,5,0,1:0:0:0:
432,205,188539,2,0,P|438:162|455:118,1,80,8|0,0:0|1:0,0:0:0:0:
346,78,188836,5,8,0:0:0:0:
285,140,188985,1,0,1:0:0:0:
285,25,189133,5,8,0:0:0:0:
354,177,189282,1,0,1:0:0:0:
200,86,189430,6,0,P|170:100|124:110,1,80,8|8,0:0|0:3,0:0:0:0:
3,256,189727,2,0,P|33:242|79:232,1,80,8|4,0:3|0:3,0:0:0:0:
26,140,190024,2,2,P|79:188|185:186,1,167.999994873047,4|0,0:3|0:0,0:0:0:0:
171,191,190618,6,0,P|216:257|216:337,1,160,6|8,1:0|0:0,0:0:0:0:
131,293,191064,1,0,0:0:0:0:
294,384,191212,2,0,P|306:335|322:304,1,80,2|0,1:0|0:0,0:0:0:0:
440,209,191509,2,0,P|490:193|520:172,1,80,8|2,0:0|0:1,0:0:0:0:
420,306,191807,5,0,1:0:0:0:
420,306,192104,1,8,0:0:0:0:
340,191,192252,2,0,P|324:155|312:117,1,80,2|0,0:1|1:0,0:0:0:0:
155,218,192549,1,0,3:0:0:0:
155,218,192623,1,0,3:0:0:0:
155,218,192698,2,0,P|104:236|73:254,1,80,8|0,0:0|0:0,0:0:0:0:
214,92,192995,6,0,P|234:29|239:-4,1,80,2|0,1:0|0:0,0:0:0:0:
0,68,193292,2,0,P|51:120|142:121,1,160,8|0,0:0|1:0,0:0:0:0:
268,208,193737,2,0,P|280:249|296:288,1,80,2|8,0:1|0:0,0:0:0:0:
184,384,194034,2,0,P|199:331|204:283,1,80,2|0,0:1|1:0,0:0:0:0:
153,235,194331,5,0,0:0:0:0:
283,123,194480,2,0,P|343:148|376:149,1,80,8|0,0:0|0:0,0:0:0:0:
499,256,194777,2,0,L|507:297,2,40,0|0|0,1:0|0:0|0:0,0:0:0:0:
455,64,195074,1,8,0:0:0:0:
455,64,195148,1,8,0:0:0:0:
455,64,195222,2,0,L|436:109,1,40,8|8,0:0|0:0,0:0:0:0:
484,179,195371,6,0,B|428:189|428:189|400:215|400:215|329:237,1,160,2|8,1:0|0:0,0:0:0:0:
338,234,195965,2,0,P|389:255|415:273,1,80,2|0,1:0|0:0,0:0:0:0:
327,355,196262,1,8,0:0:0:0:
279,293,196410,1,2,0:1:0:0:
204,309,196559,2,0,P|158:332|124:338,1,80,0|0,1:0|0:0,0:0:0:0:
157,157,196856,5,8,0:0:0:0:
0,206,197005,2,0,B|86:200|67:256|176:244,1,160,2|0,0:1|0:0,0:0:0:0:
270,136,197450,1,8,0:0:0:0:
282,108,197524,1,8,0:0:0:0:
284,79,197598,1,8,0:0:0:0:
277,50,197672,1,8,0:0:0:0:
261,25,197747,6,0,P|224:42|170:52,1,80,2|0,1:0|0:0,0:0:0:0:
353,177,198044,2,0,P|378:224|404:257,1,80,8|0,0:0|0:0,0:0:0:0:
250,357,198341,1,2,1:0:0:0:
250,357,198415,2,0,P|267:297|273:255,1,80,8|0,0:0|0:0,0:0:0:0:
270,279,198638,1,0,1:0:0:0:
86,148,198787,5,12,0:0:0:0:
86,148,198861,1,0,1:0:0:0:
86,148,198935,2,0,P|38:169|0:181,1,80,0|0,1:0|0:0,0:0:0:0:
158,245,199232,1,8,0:0:0:0:
219,109,199381,1,0,0:0:0:0:
58,257,199529,5,8,0:0:0:0:
58,257,199604,1,8,0:0:0:0:
58,257,199678,2,0,L|71:307,1,40,8|8,0:0|0:0,0:0:0:0:
143,331,199826,1,8,0:0:0:0:
143,331,199901,1,8,0:0:0:0:
143,331,199975,2,0,L|124:389,1,40,8|8,0:0|0:0,0:0:0:0:
251,340,200123,6,0,B|302:300|318:234|279:176,1,176.000005371094,4|10,1:0|0:0,0:0:0:0:
218,255,200569,1,0,1:0:0:0:
362,330,200717,2,0,P|408:345|453:372,1,88.000002685547,10|0,0:0|1:0,0:0:0:0:
372,183,201014,2,0,P|417:166|472:162,1,88.000002685547,8|2,0:0|1:2,0:0:0:0:
218,255,201311,6,0,B|179:309|108:327|29:279,1,176.000005371094,8|8,0:0|0:0,0:0:0:0:
29,143,201757,2,0,P|24:178|0:237,1,88.000002685547,2|8,1:2|0:0,0:0:0:0:
77,384,202054,1,0,1:0:0:0:
237,354,202203,2,0,P|180:335|128:328,1,88.000002685547,8|0,0:0|1:0,0:0:0:0:
152,330,202425,1,0,1:0:0:0:
152,330,202500,6,0,B|126:272|131:202|192:165,1,176.000005371094,8|10,0:0|0:2,0:0:0:0:
116,114,202945,1,0,1:0:0:0:
243,234,203094,2,0,P|296:226|343:203,1,88.000002685547,8|2,0:0|1:2,0:0:0:0:
421,29,203391,2,0,P|368:37|321:60,1,88.000002685547,8|0,0:0|1:0,0:0:0:0:
336,50,203613,1,0,1:0:0:0:
336,50,203688,5,10,0:0:0:0:
266,92,203836,1,0,1:0:0:0:
266,10,203985,1,10,0:0:0:0:
335,135,204133,1,0,1:0:0:0:
205,161,204282,6,0,P|160:158|111:141,1,88.000002685547,10|0,0:0|1:0,0:0:0:0:
0,33,204579,2,0,P|45:36|94:53,1,88.000002685547,10|0,0:0|1:0,0:0:0:0:
35,204,204876,6,0,B|-25:232|-44:313|8:374,1,176.000005371094,4|10,1:0|0:0,0:0:0:0:
90,273,205321,1,0,1:0:0:0:
155,218,205470,2,0,P|139:182|125:119,1,88.000002685547,10|0,0:0|1:0,0:0:0:0:
247,293,205767,2,0,P|285:299|345:323,1,88.000002685547,8|2,0:0|1:2,0:0:0:0:
376,151,206064,6,0,B|320:143|283:160|255:196,1,132.00000402832,8|0,0:0|0:0,0:0:0:0:
257,192,206361,1,8,0:0:0:0:
187,30,206509,2,0,P|190:68|220:129,1,88.000002685547,2|8,1:2|0:0,0:0:0:0:
339,232,206807,1,0,1:0:0:0:
199,313,206955,2,0,P|150:299|86:291,1,88.000002685547,8|0,0:0|1:0,0:0:0:0:
47,365,207252,5,12,0:0:0:0:
47,365,207401,1,0,1:0:0:0:
152,202,207549,1,12,0:0:0:0:
152,202,207698,1,0,1:0:0:0:
41,140,207846,2,0,L|71:249,1,88.000002685547,14|0,0:0|1:2,0:0:0:0:
162,384,208143,1,12,0:0:0:0:
290,274,208292,6,0,B|367:281|377:330|460:334,1,176.000005371094,10|8,0:0|0:0,0:0:0:0:
448,155,208737,2,0,P|430:186|426:248,1,88.000002685547,8|0,0:0|1:0,0:0:0:0:
424,237,208960,1,0,1:0:0:0:
424,237,209034,5,8,0:0:0:0:
352,111,209183,1,8,0:0:0:0:
426,67,209331,5,8,0:0:0:0:
315,210,209480,1,8,0:0:0:0:
