osu file format v14

[General]
AudioFilename: audio.mp3
AudioLeadIn: 0
PreviewTime: 158391
Countdown: 0
SampleSet: Soft
StackLeniency: 0.7
Mode: 0
LetterboxInBreaks: 0
WidescreenStoryboard: 1

[Editor]
Bookmarks: 11212,20717,30222,39727,53985,65866,75371,84876,94381,108638,130024,139529,149034,158539,168044,187054
DistanceSpacing: 1
BeatDivisor: 4
GridSize: 16
TimelineZoom: 1.5

[Metadata]
Title:oversupply
TitleUnicode:oversupply
Artist:yanaginagi
ArtistUnicode:やなぎなぎ
Creator:nexusqi
Version:hard
Source:
Tags:rock pop japanese branch kowari mnyui gelidium
BeatmapID:3957614
BeatmapSetID:1912139

[Difficulty]
HPDrainRate:4
CircleSize:3.8
OverallDifficulty:6.5
ApproachRate:8
SliderMultiplier:1.4
SliderTickRate:1

[Events]
//Background and Video events
0,0,"nexooooooooooos.jpg",0,0
//Break Periods
2,65866,74621
2,149234,162542
//Storyboard Layer 0 (Background)
//Storyboard Layer 1 (Fail)
//Storyboard Layer 2 (Pass)
//Storyboard Layer 3 (Foreground)
//Storyboard Layer 4 (Overlay)
//Storyboard Sound Samples

[TimingPoints]
1708,297.029702970297,4,2,1,70,1,0
20717,-133.333333333333,4,2,1,50,0,0
28143,-133.333333333333,4,2,1,60,0,0
29034,-117.647058823529,4,2,1,60,0,0
49232,-105.263157894737,4,2,1,65,0,0
53985,-100,4,2,1,70,0,1
63490,-111.111111111111,4,2,1,60,0,0
75371,-133.333333333333,4,2,1,50,0,0
82797,-133.333333333333,4,2,1,60,0,0
83688,-117.647058823529,4,2,1,60,0,0
103886,-105.263157894737,4,2,1,65,0,0
108638,-100,4,2,1,70,0,1
118069,-100,4,2,1,70,0,0
118143,-100,4,2,1,70,0,1
127648,-111.111111111111,4,2,1,60,0,0
130024,-133.333333333333,4,2,1,50,0,0
139529,-125,4,2,1,50,0,0
163292,-111.111111111111,4,2,1,50,0,0
165668,-111.111111111111,4,2,1,60,0,0
168044,-100,4,2,1,70,0,1
177475,-100,4,2,1,70,0,0
177549,-100,4,2,1,70,0,1
187054,-100,4,2,1,70,0,0
200123,-100,4,2,2,70,0,1
209628,-100,4,2,1,70,0,0

[Colours]
Combo1 : 126,133,211
Combo2 : 207,235,252
Combo3 : 245,177,201

[HitObjects]
0,287,11212,6,0,P|48:337|122:339,1,140,6|8,1:0|0:0,0:0:0:0:
186,384,11658,1,0,0:0:0:0:
236,320,11807,2,0,P|251:278|253:243,1,70,2|0,1:0|0:0,0:0:0:0:
161,261,12104,2,0,P|149:217|132:187,1,70,8|2,0:0|0:1,0:0:0:0:
199,113,12401,2,0,P|253:105|326:164,1,140,0|8,1:0|0:0,0:0:0:0:
343,249,12846,2,0,P|395:292|464:287,1,140,2|0,0:1|0:0,0:0:0:0:
512,212,13292,2,0,P|508:181|496:137,1,70,8|0,0:0|0:0,0:0:0:0:
496,49,13589,6,0,P|463:62|413:72,1,70,2|0,1:0|0:0,0:0:0:0:
374,146,13886,2,0,P|333:109|246:113,1,140,8|0,0:0|1:0,0:0:0:0:
156,98,14331,2,0,P|167:133|174:170,1,70,2|8,0:1|0:0,0:0:0:0:
258,210,14628,1,0,0:0:0:0:
192,269,14777,2,0,B|121:278|139:315|59:317,1,140,2|8,1:0|0:0,0:0:0:0:
2,258,15222,1,0,0:0:0:0:
2,258,15371,2,0,L|13:187,1,70,0|0,1:0|0:0,0:0:0:0:
82,141,15668,2,0,P|86:118|88:99,3,35,8|8|8|8,0:0|0:0|0:0|0:0,0:0:0:0:
94,96,15965,6,0,P|150:151|227:143,1,140,2|8,1:0|0:0,0:0:0:0:
264,91,16410,1,0,0:0:0:0:
323,151,16559,2,0,P|317:190|307:227,1,70,2|0,1:0|0:0,0:0:0:0:
381,292,16856,2,0,P|383:259|397:216,1,70,8|2,0:0|0:1,0:0:0:0:
484,202,17153,6,0,P|494:125|454:73,1,140,0|8,1:0|0:0,0:0:0:0:
493,0,17599,2,0,P|443:40|360:45,1,140,2|0,0:1|0:0,0:0:0:0:
287,44,18044,2,0,L|296:98,3,35,8|8|8|8,0:0|0:0|0:0|0:0,0:0:0:0:
304,92,18341,2,0,B|319:126|319:126|318:175,1,70,2|0,1:0|0:0,0:0:0:0:
321,259,18638,2,0,P|254:216|228:216,1,105,8|0,0:0|0:0,0:0:0:0:
229,224,18935,1,2,1:0:0:0:
222,228,19009,2,0,P|164:264|121:260,1,105,8|0,0:0|1:0,0:0:0:0:
61,319,19381,1,12,0:0:0:0:
136,364,19529,6,0,P|171:370|216:380,1,70,0|8,1:0|0:0,0:0:0:0:
290,384,19826,2,0,P|280:339|271:304,1,70,0|0,1:0|1:0,0:0:0:0:
364,332,20123,2,0,L|419:348,3,35,8|8|8|8,0:0|0:0|0:0|0:0,0:0:0:0:
410,346,20420,2,0,L|431:264,1,70,8|8,0:0|0:0,0:0:0:0:
448,172,20717,6,0,P|381:200|334:199,1,105.000004005432,6|0,1:2|1:0,0:0:0:0:
271,237,21163,1,0,0:0:0:0:
271,237,21311,2,0,P|266:178|250:122,1,105.000004005432,2|2,1:2|1:2,0:0:0:0:
125,233,21906,2,0,P|130:292|146:348,1,105.000004005432,2|0,1:2|1:0,0:0:0:0:
65,380,22351,1,0,0:0:0:0:
65,380,22500,2,0,P|60:340|53:319,1,52.5000020027161,2|0,1:2|0:0,0:0:0:0:
0,275,22797,2,0,P|-4:236|-11:213,1,52.5000020027161,2|0,1:2|0:0,0:0:0:0:
14,121,23094,6,0,P|65:158|120:148,1,105.000004005432,2|0,1:2|1:0,0:0:0:0:
187,157,23539,1,0,0:0:0:0:
187,157,23688,2,0,P|177:98|162:50,2,105.000004005432,0|2|0,1:2|1:2|1:2,0:0:0:0:
261,286,24579,2,0,P|310:296|370:315,1,105.000004005432,2|0,1:2|1:0,0:0:0:0:
422,363,25024,1,2,0:0:0:0:
422,363,25173,2,0,B|469:322|444:256|444:256,1,105.000004005432,0|0,1:0|1:0,0:0:0:0:
490,199,25618,5,0,0:0:0:0:
432,143,25767,2,0,L|365:159,1,52.5000020027161,2|0,1:2|0:0,0:0:0:0:
325,214,26064,2,0,P|282:204|245:194,2,78.7500030040742,2|2|2,1:2|0:2|0:2,0:0:0:0:
350,73,26807,1,0,0:0:0:0:
350,73,26955,2,0,P|341:34|325:2,1,52.5000020027161,0|0,1:0|0:0,0:0:0:0:
261,6,27252,2,0,P|219:47|172:49,2,105.000004005432,2|2|0,1:2|1:2|1:0,0:0:0:0:
362,88,28143,6,0,P|413:93|447:131,1,105.000004005432,2|2,1:2|1:2,0:0:0:0:
512,243,28737,1,2,1:2:0:0:
391,357,29034,1,2,1:2:0:0:
325,316,29183,1,8,0:0:0:0:
325,316,29331,2,0,P|332:280|336:249,1,59.5000011348725,8|8,0:0|0:0,0:0:0:0:
330,253,29554,1,8,0:0:0:0:
324,247,29628,2,0,P|279:257|248:261,1,59.5000011348725,10|8,0:2|0:0,0:0:0:0:
246,344,29925,2,0,P|201:334|170:330,1,59.5000011348725,4|4,1:3|0:3,0:0:0:0:
119,382,30222,6,0,P|82:330|90:269,1,119.000002269745,4|8,1:0|0:0,0:0:0:0:
15,238,30668,1,0,0:0:0:0:
80,192,30816,2,0,P|110:199|151:210,1,59.5000011348725,2|0,1:2|0:0,0:0:0:0:
224,222,31113,2,0,P|218:186|210:150,1,59.5000011348725,10|0,0:2|0:0,0:0:0:0:
174,70,31410,2,0,P|228:112|281:109,1,119.000002269745,2|8,1:2|0:0,0:0:0:0:
348,160,31856,1,0,0:0:0:0:
348,160,32005,2,0,P|357:122|357:97,1,59.5000011348725,2|0,1:2|0:0,0:0:0:0:
447,67,32302,2,0,P|438:105|438:130,1,59.5000011348725,8|0,0:0|0:0,0:0:0:0:
512,200,32599,6,0,P|457:205|401:250,1,119.000002269745,2|8,1:2|0:0,0:0:0:0:
355,309,33044,1,0,0:0:0:0:
355,309,33193,1,0,1:2:0:0:
243,212,33490,6,0,P|258:147|265:83,2,119.000002269745,10|0|10,0:0|1:0|0:2,0:0:0:0:
153,308,34381,2,0,P|117:318|92:328,1,59.5000011348725,0|10,1:0|0:0,0:0:0:0:
31,263,34678,2,0,P|67:253|92:243,1,59.5000011348725,8|8,0:0|0:0,0:0:0:0:
95,240,34901,5,8,0:0:0:0:
101,234,34975,2,0,P|108:199|70:110,1,119.000002269745,4|10,1:2|0:2,0:0:0:0:
123,52,35420,1,0,0:0:0:0:
181,109,35569,2,0,P|210:120|249:127,1,59.5000011348725,0|0,1:0|0:0,0:0:0:0:
302,69,35866,2,0,P|313:98|320:137,1,59.5000011348725,10|0,0:2|0:0,0:0:0:0:
264,205,36163,2,0,P|235:248|238:318,1,119.000002269745,2|8,1:2|0:0,0:0:0:0:
400,384,36757,2,0,P|429:341|426:271,1,119.000002269745,2|8,1:2|0:0,0:0:0:0:
435,108,37351,6,0,P|382:141|324:140,2,119.000002269745,2|10|0,1:2|0:2|1:0,0:0:0:0:
492,53,38094,1,0,0:0:0:0:
427,10,38242,2,0,L|365:26,1,59.5000011348725,8|8,0:0|0:0,0:0:0:0:
365,33,38465,1,8,0:0:0:0:
359,39,38539,2,0,L|239:22,1,119.000002269745,0|12,1:0|0:3,0:0:0:0:
178,71,38985,1,4,0:3:0:0:
178,71,39059,1,4,0:3:0:0:
178,71,39133,1,2,1:2:0:0:
279,210,39430,1,10,0:0:0:0:
140,357,39727,6,0,L|76:373,2,59.5000011348725,2|0|10,1:0|0:0|0:0,0:0:0:0:
182,277,40173,1,0,0:0:0:0:
182,277,40321,2,0,P|230:325|301:323,1,119.000002269745,2|10,1:0|0:0,0:0:0:0:
350,380,40767,1,2,1:3:0:0:
512,219,41361,6,0,L|499:176,2,29.7500005674362,0|0|0,3:0|3:0|3:0,0:0:0:0:
456,274,41658,1,8,0:3:0:0:
398,227,41807,2,0,L|316:210,1,59.5000011348725,4|4,0:3|0:3,0:0:0:0:
329,212,42029,1,4,0:3:0:0:
322,218,42104,2,0,P|330:264|333:280,2,59.5000011348725,2|0|8,1:0|0:0|0:0,0:0:0:0:
252,175,42549,1,0,0:0:0:0:
195,108,42698,2,0,P|224:102|256:93,1,59.5000011348725,8|8,0:0|0:0,0:0:0:0:
299,25,42995,1,8,0:0:0:0:
378,55,43143,1,8,0:0:0:0:
347,235,43737,5,0,1:3:0:0:
347,235,43811,1,0,1:3:0:0:
347,235,43886,2,0,L|357:287,2,39.6666674232483,8|8|8,0:3|0:3|0:3,0:0:0:0:
365,286,44183,2,0,L|375:338,2,39.6666674232483,4|4|4,0:3|0:3|0:3,0:0:0:0:
365,342,44480,5,10,0:0:0:0:
301,384,44628,1,10,0:0:0:0:
17,229,45668,5,10,0:0:0:0:
85,266,45816,1,10,0:0:0:0:
327,151,46856,5,10,0:0:0:0:
259,188,47004,1,10,0:0:0:0:
19,18,48044,5,10,0:0:0:0:
87,55,48192,1,10,0:0:0:0:
251,5,48490,5,0,1:0:0:0:
251,5,48564,1,0,1:0:0:0:
251,5,48638,2,0,P|287:13|323:24,1,59.5000011348725,0|4,1:0|0:3,0:0:0:0:
396,19,48935,2,0,P|385:47|373:78,1,59.5000011348725,8|0,0:0|0:0,0:0:0:0:
358,173,49232,5,10,0:0:0:0:
358,173,49381,2,0,P|393:165|434:158,1,66.4999982242585,8|0,0:0|1:0,0:0:0:0:
470,90,49678,2,0,P|503:127|509:220,1,132.999996448517,2|0,0:1|0:0,0:0:0:0:
512,294,50123,2,0,P|480:283|432:273,1,66.4999982242585,2|0,1:2|0:0,0:0:0:0:
394,346,50420,1,10,0:2:0:0:
321,313,50569,2,0,L|303:232,1,66.4999982242585,8|0,0:0|1:0,0:0:0:0:
337,168,50866,2,0,P|274:219|215:217,1,132.999996448517,2|0,0:1|0:0,0:0:0:0:
139,237,51311,2,0,L|153:161,1,66.4999982242585,2|0,1:2|0:0,0:0:0:0:
90,89,51608,5,10,0:2:0:0:
90,89,51757,2,0,L|182:73,1,66.4999982242585,8|8,0:0|0:0,0:0:0:0:
225,32,52054,1,8,0:0:0:0:
225,32,52128,1,8,0:0:0:0:
225,32,52203,2,0,L|238:76,3,33.2499991121292,10|8|8|8,0:2|0:0|0:0|0:0,0:0:0:0:
246,75,52500,2,0,L|259:119,3,33.2499991121292,10|8|8|8,0:2|0:0|0:0|0:0,0:0:0:0:
268,119,52797,1,10,0:0:0:0:
116,253,53391,5,8,0:0:0:0:
116,253,53539,1,8,0:0:0:0:
265,348,53985,6,0,P|334:351|398:296,1,140,6|8,1:0|0:0,0:0:0:0:
461,370,54430,1,0,0:0:0:0:
506,290,54579,2,0,P|498:252|486:216,1,70,2|0,1:2|0:0,0:0:0:0:
490,213,54802,1,2,0:2:0:0:
481,209,54876,2,0,P|436:225|398:228,1,70,10|2,0:2|0:2,0:0:0:0:
366,136,55173,6,0,P|318:188|245:193,1,140,0|8,1:0|0:0,0:0:0:0:
182,264,55618,1,0,0:0:0:0:
133,188,55767,2,0,P|144:143|144:114,1,70,2|0,1:0|0:0,0:0:0:0:
70,52,56064,2,0,P|59:97|56:126,1,70,8|0,0:0|0:0,0:0:0:0:
0,198,56361,6,0,P|5:262|73:294,1,140,2|8,1:0|0:0,0:0:0:0:
112,378,56807,1,0,0:0:0:0:
177,311,56955,2,0,B|155:253|213:202|213:202,2,105,2|2|2,1:2|0:0|0:0,0:0:0:0:
258,324,57549,2,0,P|301:334|341:364,1,70,0|0,1:0|0:0,0:0:0:0:
417,373,57846,2,0,L|408:328,3,35,8|8|8|8,0:0|0:0|0:0|0:0,0:0:0:0:
423,325,58143,2,0,P|449:278|431:190,1,140,2|8,1:0|0:0,0:0:0:0:
466,110,58589,5,8,0:0:0:0:
466,110,58663,1,8,0:0:0:0:
466,110,58737,2,0,P|412:155|338:161,1,140,2|8,1:0|0:0,0:0:0:0:
266,112,59183,1,0,0:0:0:0:
214,192,59331,2,0,P|227:222|236:270,1,70,2|0,1:2|0:0,0:0:0:0:
242,264,59554,1,2,0:2:0:0:
240,273,59628,2,0,P|192:285|164:300,1,70,10|2,0:2|0:2,0:0:0:0:
105,358,59925,2,0,P|58:302|64:227,1,140,2|8,1:1|0:0,0:0:0:0:
14,93,60519,5,0,1:0:0:0:
14,93,60668,1,8,0:0:0:0:
78,41,60816,2,0,P|87:77|108:116,1,70,0|8,1:0|0:0,0:0:0:0:
110,113,61039,1,8,0:0:0:0:
118,114,61113,2,0,P|202:125|235:169,2,140,2|8|2,1:0|0:0|1:0,0:0:0:0:
57,189,61856,1,8,0:0:0:0:
61,192,62005,2,0,P|73:228|80:268,1,70,0|8,1:0|0:0,0:0:0:0:
158,315,62302,6,0,B|227:319|223:360|300:350,1,140,2|0,1:0|1:0,0:0:0:0:
382,382,62747,1,10,0:2:0:0:
382,382,62821,1,8,0:0:0:0:
382,382,62896,2,0,P|368:336|360:291,1,70,10|8,0:0|0:3,0:0:0:0:
431,254,63193,2,0,P|445:300|453:345,1,70,4|4,0:3|0:3,0:0:0:0:
512,382,63490,1,4,1:0:0:0:
343,213,63787,6,0,P|347:178|359:146,1,62.9999980773926,8|0,0:0|1:0,0:0:0:0:
261,112,64084,2,0,P|293:90|332:80,1,62.9999980773926,8|0,0:0|1:0,0:0:0:0:
305,3,64381,2,0,P|361:18|373:26,1,62.9999980773926,8|0,0:0|1:0,0:0:0:0:
431,93,64678,1,8,0:0:0:0:
203,217,65272,1,4,1:2:0:0:
131,9,75371,6,0,P|158:51|155:119,1,105.000004005432,6|0,1:2|1:0,0:0:0:0:
94,153,75817,1,0,0:0:0:0:
94,153,75965,2,0,P|39:157|-5:190,1,105.000004005432,2|2,1:2|1:2,0:0:0:0:
39,324,76559,2,0,P|94:320|138:287,1,105.000004005432,2|0,1:2|1:0,0:0:0:0:
223,202,77154,2,0,P|219:170|209:142,1,52.5000020027161,2|0,1:2|0:0,0:0:0:0:
185,64,77450,2,0,P|210:71|236:74,1,52.5000020027161,2|0,1:2|0:0,0:0:0:0:
298,139,77748,6,0,P|340:107|401:107,1,105.000004005432,2|0,1:2|1:0,0:0:0:0:
494,129,78193,1,0,0:0:0:0:
494,129,78342,2,0,P|465:84|470:13,2,105.000004005432,0|2|0,1:2|1:2|1:2,0:0:0:0:
412,237,79232,2,0,B|354:237|320:295,1,105.000004005432,2|0,1:2|1:0,0:0:0:0:
278,372,79678,1,2,0:0:0:0:
278,372,79827,2,0,P|248:317|247:265,1,105.000004005432,0|0,1:0|1:0,0:0:0:0:
287,200,80272,5,0,0:0:0:0:
221,158,80421,2,0,L|154:174,1,52.5000020027161,2|0,1:2|0:0,0:0:0:0:
94,132,80718,2,0,P|91:168|72:229,2,78.7500030040742,2|2|2,1:2|0:2|0:2,0:0:0:0:
190,42,81461,1,0,0:0:0:0:
190,42,81609,2,0,P|221:53|250:57,1,52.5000020027161,0|0,1:0|0:0,0:0:0:0:
288,126,81906,2,0,P|335:93|384:94,2,105.000004005432,2|2|0,1:2|1:2|1:0,0:0:0:0:
193,241,82797,6,0,P|187:189|157:146,1,105.000004005432,2|2,1:2|1:2,0:0:0:0:
50,80,83391,1,2,1:2:0:0:
0,208,83688,1,2,1:2:0:0:
60,265,83837,1,8,0:0:0:0:
60,265,83985,2,0,L|50:323,1,59.5000011348725,8|8,0:0|0:0,0:0:0:0:
47,332,84208,1,8,0:0:0:0:
53,337,84282,2,0,P|83:333|113:324,1,59.5000011348725,10|8,0:2|0:0,0:0:0:0:
185,377,84579,2,0,P|189:341|199:304,1,59.5000011348725,4|4,1:3|0:3,0:0:0:0:
163,233,84876,6,0,P|203:269|273:276,1,119.000002269745,4|2,1:0|0:0,0:0:0:0:
314,344,85321,1,0,1:0:0:0:
374,285,85470,1,8,0:0:0:0:
374,285,85618,2,0,P|367:249|357:220,1,59.5000011348725,8|2,0:0|0:0,0:0:0:0:
442,193,85915,2,0,P|433:137|415:78,1,119.000002269745,0|8,1:0|0:0,0:0:0:0:
355,24,86361,1,2,0:0:0:0:
308,92,86509,2,0,P|311:121|327:168,1,59.5000011348725,0|8,1:0|0:0,0:0:0:0:
251,213,86807,1,8,0:0:0:0:
251,213,86955,2,0,P|243:173|235:151,1,59.5000011348725,2|8,0:0|0:0,0:0:0:0:
225,52,87252,6,0,P|190:85|120:93,1,119.000002269745,4|0,1:2|0:0,0:0:0:0:
58,143,87698,1,0,1:0:0:0:
58,143,87846,2,0,P|71:187|74:214,1,59.5000011348725,10|8,0:0|0:0,0:0:0:0:
20,266,88143,1,0,0:0:0:0:
91,304,88292,2,0,P|137:297|202:351,1,119.000002269745,4|8,1:2|0:0,0:0:0:0:
266,384,88737,2,0,L|329:369,1,59.5000011348725,0|8,1:0|0:0,0:0:0:0:
332,374,88960,1,8,0:0:0:0:
338,366,89034,2,0,P|331:329|321:300,1,59.5000011348725,10|8,0:0|0:3,0:0:0:0:
306,225,89331,2,0,P|282:238|246:247,1,59.5000011348725,4|4,0:3|0:3,0:0:0:0:
203,315,89628,1,4,1:2:0:0:
53,204,89925,6,0,P|41:141|63:90,1,119.000002269745,2|8,0:0|0:0,0:0:0:0:
54,9,90371,1,8,0:0:0:0:
54,9,90519,1,2,0:0:0:0:
133,41,90668,2,0,P|178:78|253:75,1,119.000002269745,0|8,1:0|0:0,0:0:0:0:
307,29,91113,2,0,P|314:59|331:87,1,59.5000011348725,0|0,0:0|1:0,0:0:0:0:
283,151,91410,2,0,P|255:162|224:169,1,59.5000011348725,10|8,0:0|0:0,0:0:0:0:
233,251,91708,2,0,P|208:247|160:233,1,59.5000011348725,0|0,0:0|1:0,0:0:0:0:
104,183,92005,6,0,P|61:230|65:300,1,119.000002269745,2|2,1:2|0:0,0:0:0:0:
97,356,92450,1,0,1:0:0:0:
174,325,92599,1,8,0:0:0:0:
174,325,92747,1,8,0:0:0:0:
337,345,93044,5,8,0:0:0:0:
405,384,93193,2,0,L|417:312,2,39.6666674232483,0|8|8,1:0|0:0|0:0,0:0:0:0:
420,336,93490,2,0,L|432:264,2,39.6666674232483,0|8|4,1:0|0:3|0:3,0:0:0:0:
434,290,93787,1,0,1:0:0:0:
512,149,94084,1,8,0:0:0:0:
365,34,94381,6,0,P|329:42|285:51,1,59.5000011348725,2|0,1:0|1:0,0:0:0:0:
225,54,94678,2,0,P|232:78|251:116,1,59.5000011348725,8|4,0:0|0:3,0:0:0:0:
254,115,94901,1,4,0:3:0:0:
253,123,94975,2,0,P|242:155|237:191,1,59.5000011348725,8|4,0:3|0:3,0:0:0:0:
325,176,95272,1,8,0:0:0:0:
325,176,95420,1,2,1:3:0:0:
204,319,95717,5,0,1:0:0:0:
204,319,95866,2,0,P|166:331|141:336,1,59.5000011348725,8|8,0:0|0:3,0:0:0:0:
140,343,96089,1,8,0:3:0:0:
134,350,96163,2,0,L|62:339,1,59.5000011348725,4|4,0:3|0:3,0:0:0:0:
16,288,96460,1,8,0:0:0:0:
112,159,96757,6,0,P|123:192|126:222,1,59.5000011348725,2|0,1:0|1:0,0:0:0:0:
215,232,97054,2,0,P|204:199|201:169,1,59.5000011348725,8|0,0:0|3:0,0:0:0:0:
206,167,97277,1,0,3:0:0:0:
215,164,97351,2,0,L|272:177,1,59.5000011348725,4|4,0:3|0:3,0:0:0:0:
319,260,97648,1,8,0:0:0:0:
319,260,97797,1,0,1:3:0:0:
411,120,98094,5,0,1:0:0:0:
411,120,98242,2,0,P|406:82|397:54,1,59.5000011348725,8|8,0:0|0:0,0:0:0:0:
391,58,98465,1,8,0:0:0:0:
383,54,98539,2,0,P|348:66|316:67,1,59.5000011348725,10|8,0:0|0:3,0:0:0:0:
252,21,98836,1,4,0:3:0:0:
96,160,99133,5,10,0:0:0:0:
28,122,99282,1,10,0:0:0:0:
86,354,100321,5,10,0:0:0:0:
154,324,100469,1,10,0:0:0:0:
331,219,101509,5,10,0:0:0:0:
260,184,101657,1,10,0:0:0:0:
426,41,102697,5,10,0:0:0:0:
496,6,102845,1,10,0:0:0:0:
406,149,103143,5,0,1:0:0:0:
406,149,103217,1,0,1:0:0:0:
406,149,103291,2,0,P|424:187|426:222,1,59.5000011348725,8|4,0:3|0:3,0:0:0:0:
505,224,103588,2,0,P|496:255|482:283,1,59.5000011348725,8|0,0:0|0:0,0:0:0:0:
504,373,103885,5,10,0:0:0:0:
504,373,104034,2,0,P|469:365|428:358,1,66.4999982242585,8|0,0:0|1:0,0:0:0:0:
383,287,104331,2,0,B|322:298|325:336|236:331,1,132.999996448517,2|0,0:1|0:0,0:0:0:0:
185,383,104776,2,0,P|185:347|165:303,1,66.4999982242585,2|0,1:2|0:0,0:0:0:0:
128,218,105074,6,0,P|168:230|211:236,1,66.4999982242585,2|8,1:0|0:0,0:0:0:0:
251,168,105371,5,8,0:0:0:0:
251,168,105519,2,0,P|291:180|334:186,1,66.4999982242585,2|8,1:0|0:0,0:0:0:0:
381,126,105816,5,8,0:0:0:0:
381,126,105965,2,0,P|421:138|464:144,1,66.4999982242585,2|8,1:0|0:0,0:0:0:0:
400,217,106262,1,4,1:0:0:0:
256,192,106410,12,0,107450,0:0:0:0:
0,0,108044,5,8,0:0:0:0:
0,0,108192,1,8,0:0:0:0:
132,106,108638,6,0,P|160:168|146:244,1,140,6|8,1:0|0:0,0:0:0:0:
71,263,109083,1,0,0:0:0:0:
125,324,109232,2,0,P|161:332|199:347,1,70,2|0,1:2|0:0,0:0:0:0:
200,351,109455,1,2,0:2:0:0:
205,360,109529,2,0,P|241:354|281:343,1,70,10|2,0:2|0:2,0:0:0:0:
291,248,109826,6,0,P|346:289|415:290,1,140,0|8,1:0|0:0,0:0:0:0:
483,338,110271,1,0,0:0:0:0:
512,256,110420,2,0,P|497:213|488:172,1,70,2|0,1:0|0:0,0:0:0:0:
395,139,110717,2,0,P|408:178|414:218,1,70,8|0,0:0|0:0,0:0:0:0:
409,304,111014,6,0,P|325:311|288:358,1,140,2|8,1:0|0:0,0:0:0:0:
219,384,111460,1,0,0:0:0:0:
166,315,111608,2,0,P|178:250|186:193,2,105,2|2|0,1:2|0:0|0:0,0:0:0:0:
96,359,112202,2,0,P|84:316|76:284,1,70,0|0,1:1|0:0,0:0:0:0:
6,241,112499,2,0,L|-3:196,3,35,8|8|8|8,0:0|0:0|0:0|0:0,0:0:0:0:
5,197,112796,2,0,P|74:192|127:128,1,140,2|8,1:0|0:0,0:0:0:0:
149,34,113242,5,8,0:0:0:0:
149,34,113316,1,8,0:0:0:0:
149,34,113390,2,0,P|199:90|200:162,1,140,2|8,1:0|0:0,0:0:0:0:
273,205,113836,1,0,0:0:0:0:
330,150,113984,2,0,L|404:167,1,70,2|0,1:2|0:0,0:0:0:0:
405,161,114207,1,2,0:2:0:0:
412,156,114281,2,0,L|404:75,1,70,10|2,0:2|0:2,0:0:0:0:
355,4,114578,2,0,P|423:54|486:54,1,140,2|8,1:0|0:0,0:0:0:0:
329,162,115172,5,0,1:0:0:0:
329,162,115321,1,8,0:0:0:0:
229,123,115469,2,0,P|241:154|249:198,1,70,0|8,1:0|0:0,0:0:0:0:
248,200,115692,1,8,0:0:0:0:
256,203,115766,2,0,P|340:214|373:258,2,140,2|8|2,1:0|0:0|1:0,0:0:0:0:
174,178,116509,1,8,0:0:0:0:
178,181,116658,2,0,L|159:109,1,70,0|8,1:0|0:0,0:0:0:0:
76,178,116955,6,0,P|44:234|70:319,1,140,2|0,1:0|1:0,0:0:0:0:
132,272,117400,1,8,0:0:0:0:
132,272,117474,1,8,0:0:0:0:
132,272,117549,2,0,P|171:287|210:298,1,70,8|8,0:0|0:3,0:0:0:0:
245,362,117846,2,0,P|267:356|296:349,3,35,4|4|0|0,0:3|0:3|1:0|1:0,0:0:0:0:
288,341,118143,6,0,P|335:377|433:378,1,140,6|8,1:0|0:0,0:0:0:0:
482,333,118588,1,0,0:0:0:0:
488,234,118737,2,0,P|449:245|410:251,1,70,2|0,1:2|0:0,0:0:0:0:
414,258,118960,1,2,0:2:0:0:
405,254,119034,2,0,P|411:213|416:172,1,70,10|2,0:2|0:2,0:0:0:0:
333,125,119331,6,0,P|277:166|208:166,1,140,0|8,1:0|0:0,0:0:0:0:
170,259,119776,1,0,0:0:0:0:
86,229,119925,2,0,P|72:184|70:146,1,70,2|0,1:0|0:0,0:0:0:0:
0,97,120222,2,0,P|30:87|66:66,1,70,8|0,0:0|0:0,0:0:0:0:
130,0,120519,6,0,P|179:46|247:46,1,140,2|8,1:0|0:0,0:0:0:0:
328,0,120965,1,0,0:0:0:0:
402,53,121113,2,0,P|437:80|448:148,2,105,2|2|0,1:2|0:0|0:0,0:0:0:0:
329,117,121707,2,0,P|309:142|266:155,1,70,0|0,1:0|0:0,0:0:0:0:
179,162,122004,2,0,L|188:117,3,35,8|8|8|8,0:0|0:0|0:0|0:0,0:0:0:0:
182,112,122301,2,0,P|136:80|34:91,1,140,2|8,1:0|0:0,0:0:0:0:
0,172,122747,5,8,0:0:0:0:
0,172,122821,1,8,0:0:0:0:
0,172,122895,2,0,P|12:240|28:309,1,140,2|8,1:0|0:0,0:0:0:0:
91,384,123341,1,0,0:0:0:0:
140,298,123489,2,0,P|134:257|122:227,1,70,2|0,1:2|0:0,0:0:0:0:
128,222,123712,1,2,0:2:0:0:
138,218,123786,2,0,P|173:231|209:241,1,70,10|2,0:2|0:2,0:0:0:0:
269,300,124083,2,0,B|328:237|279:159|279:159,1,140,2|8,1:0|0:0,0:0:0:0:
119,57,124677,5,0,1:0:0:0:
119,57,124826,1,8,0:0:0:0:
185,2,124974,2,0,P|214:16|255:23,1,70,0|8,1:0|0:0,0:0:0:0:
260,28,125197,1,8,0:0:0:0:
265,36,125271,2,0,P|335:48|397:-7,2,140,2|8|2,1:0|0:0|1:0,0:0:0:0:
219,114,126014,1,8,0:0:0:0:
223,117,126163,2,0,P|218:161|204:189,1,70,0|8,1:0|0:0,0:0:0:0:
116,215,126460,6,0,P|171:263|251:277,1,140,2|0,1:0|1:0,0:0:0:0:
233,366,126905,1,10,0:0:0:0:
233,366,126979,1,8,0:0:0:0:
233,366,127054,2,0,P|272:351|311:340,1,70,2|8,1:2|0:0,0:0:0:0:
400,369,127351,2,0,P|385:330|374:291,1,70,4|4,0:3|0:3,0:0:0:0:
308,241,127648,1,4,1:0:0:0:
367,108,127945,6,0,P|392:119|431:125,1,62.9999980773926,8|0,0:0|1:0,0:0:0:0:
276,43,128242,2,0,P|307:38|336:26,1,62.9999980773926,8|0,0:0|1:0,0:0:0:0:
215,122,128539,2,0,P|246:126|275:138,1,62.9999980773926,8|0,0:0|1:0,0:0:0:0:
308,217,128836,1,4,0:3:0:0:
83,373,129282,1,0,1:0:0:0:
83,373,129356,1,0,1:0:0:0:
83,373,129430,2,0,P|27:304|55:202,1,188.999994232178,8|0,0:0|0:0,0:0:0:0:
34,130,130024,6,0,P|78:172|133:173,1,105.000004005432,2|0,1:2|0:0,0:0:0:0:
206,209,130470,2,0,P|162:257|172:309,1,105.000004005432,2|0,1:2|0:0,0:0:0:0:
129,366,130915,1,8,0:1:0:0:
258,291,131212,2,0,P|283:300|312:307,1,52.5000020027161,2|0,1:2|0:0,0:0:0:0:
369,377,131509,2,0,P|377:347|394:321,1,52.5000020027161,0|0,0:0|1:0,0:0:0:0:
466,333,131807,2,0,P|463:277|420:223,1,105.000004005432,2|8,0:2|0:1,0:0:0:0:
476,105,132401,6,0,P|425:144|371:144,1,105.000004005432,2|0,1:2|0:0,0:0:0:0:
301,193,132846,2,0,P|307:140|273:80,1,105.000004005432,2|0,1:2|0:0,0:0:0:0:
244,25,133292,1,8,0:1:0:0:
155,160,133589,6,0,P|121:154|90:146,1,52.5000020027161,2|0,1:2|0:0,0:0:0:0:
55,223,133886,2,0,P|89:229|120:237,1,52.5000020027161,0|0,0:0|1:0,0:0:0:0:
157,308,134183,1,2,0:2:0:0:
157,308,134331,1,0,0:0:0:0:
222,362,134480,2,0,P|231:326|244:298,1,52.5000020027161,8|0,0:1|0:0,0:0:0:0:
322,305,134777,6,0,P|317:243|277:198,1,105.000004005432,2|0,1:2|0:0,0:0:0:0:
212,178,135223,2,0,P|267:167|306:121,1,105.000004005432,2|0,1:2|0:0,0:0:0:0:
245,80,135668,1,8,0:1:0:0:
402,130,135965,2,0,P|393:154|387:190,1,52.5000020027161,2|0,1:2|0:0,0:0:0:0:
467,192,136262,2,0,P|458:216|452:252,1,52.5000020027161,0|0,0:0|1:0,0:0:0:0:
378,289,136560,2,0,P|331:296|283:343,1,105.000004005432,2|8,0:2|0:1,0:0:0:0:
137,384,137154,6,0,P|107:339|111:279,1,105.000004005432,2|0,1:2|0:0,0:0:0:0:
89,209,137599,2,0,P|142:216|189:245,1,105.000004005432,2|0,1:2|0:0,0:0:0:0:
236,307,138044,1,8,0:1:0:0:
308,135,138341,2,0,L|371:151,1,52.5000020027161,2|0,1:2|0:0,0:0:0:0:
443,151,138639,2,0,P|436:123|428:89,1,52.5000020027161,0|0,0:0|1:0,0:0:0:0:
457,11,138935,2,0,P|390:24|359:69,1,105.000004005432,2|8,0:2|0:1,0:0:0:0:
304,124,139381,5,0,0:0:0:0:
304,124,139529,2,0,B|218:125|232:175|139:156,1,168,2|0,1:1|1:0,0:0:0:0:
92,97,140123,2,0,P|55:148|61:206,1,112,2|8,0:0|0:1,0:0:0:0:
2,254,140569,1,0,0:0:0:0:
58,309,140717,2,0,P|92:303|128:287,1,56,2|0,1:2|0:0,0:0:0:0:
208,331,141014,2,0,P|195:296|190:263,1,56,0|0,0:0|1:0,0:0:0:0:
164,199,141311,2,0,P|213:233|286:235,1,112,2|8,0:0|0:1,0:0:0:0:
304,320,141757,5,0,0:0:0:0:
304,320,141906,2,0,P|333:308|365:301,1,56,2|0,1:2|0:0,0:0:0:0:
416,365,142203,2,0,P|428:336|435:304,1,56,0|0,0:0|1:0,0:0:0:0:
512,322,142500,2,0,P|511:278|473:211,1,112,2|8,0:2|0:1,0:0:0:0:
418,156,142945,1,0,0:0:0:0:
418,156,143094,2,0,P|369:196|314:188,1,112,2|0,1:2|0:0,0:0:0:0:
261,145,143539,1,0,1:0:0:0:
261,145,143688,1,2,0:2:0:0:
143,283,143985,5,8,0:1:0:0:
70,323,144133,1,8,0:1:0:0:
10,267,144282,2,0,P|-8:197|45:101,1,168,2|0,1:1|1:0,0:0:0:0:
24,33,144876,2,0,P|81:46|126:82,1,112,2|8,0:0|0:1,0:0:0:0:
113,162,145321,1,0,0:0:0:0:
113,162,145470,2,0,L|183:149,1,56,2|0,1:2|0:0,0:0:0:0:
239,111,145767,2,0,L|252:181,1,56,0|0,0:0|1:0,0:0:0:0:
190,231,146064,2,0,P|157:262|171:332,1,112,2|8,0:2|0:1,0:0:0:0:
227,381,146509,5,0,0:0:0:0:
227,381,146658,2,0,P|259:373|292:371,1,56,2|0,1:2|0:0,0:0:0:0:
318,282,146955,2,0,P|286:290|253:292,1,56,0|0,0:0|1:0,0:0:0:0:
195,244,147252,2,0,P|135:207|84:220,1,112,2|8,0:2|0:1,0:0:0:0:
31,259,147698,5,0,0:0:0:0:
0,186,147846,2,0,L|17:111,1,56,2|8,1:2|0:0,0:0:0:0:
99,132,148143,2,0,P|86:88|75:44,1,84,8|8,0:0|0:3,0:0:0:0:
83,44,148440,2,0,L|151:60,1,56,8|8,0:3|0:3,0:0:0:0:
181,128,148737,2,0,L|235:115,2,56,4|4|0,0:3|0:3|1:0,0:0:0:0:
90,384,163292,6,0,P|78:317|58:259,1,125.999996154785,0|2,1:0|0:3,0:0:0:0:
0,131,163886,2,0,P|52:140|133:161,1,125.999996154785,8|2,0:0|0:3,0:0:0:0:
217,67,164480,2,0,P|229:134|249:192,1,125.999996154785,0|2,1:0|0:3,0:0:0:0:
217,318,165074,2,0,P|277:304|338:281,1,125.999996154785,8|2,0:0|0:3,0:0:0:0:
463,366,165668,6,0,P|469:329|473:296,1,62.9999980773926,8|8,0:0|0:0,0:0:0:0:
488,228,165965,2,0,P|491:197|501:146,1,62.9999980773926,8|8,0:0|0:0,0:0:0:0:
505,79,166262,2,0,P|478:90|433:97,1,62.9999980773926,8|8,0:0|0:0,0:0:0:0:
411,169,166559,2,0,P|384:180|339:187,1,62.9999980773926,8|8,0:0|0:0,0:0:0:0:
272,139,166856,6,0,L|264:96,3,31.4999990386963,8|8|8|8,0:0|0:0|0:0|0:0,0:0:0:0:
271,93,167153,2,0,L|263:50,3,31.4999990386963,8|8|8|8,0:0|0:0|0:0|0:0,0:0:0:0:
271,47,167450,1,8,0:0:0:0:
91,177,168044,6,0,P|142:223|226:228,1,140,6|8,1:0|0:0,0:0:0:0:
234,318,168489,1,0,0:0:0:0:
305,247,168638,2,0,P|313:282|326:318,1,70,2|0,1:2|0:0,0:0:0:0:
326,324,168861,1,2,0:2:0:0:
332,332,168935,2,0,P|368:326|408:315,1,70,10|2,0:2|0:2,0:0:0:0:
484,379,169232,6,0,P|510:299|498:230,1,140,0|8,1:0|0:0,0:0:0:0:
512,147,169677,1,0,0:0:0:0:
429,181,169826,2,0,P|387:175|357:160,1,70,2|0,1:0|0:0,0:0:0:0:
282,87,170123,2,0,P|276:123|260:161,1,70,8|0,0:0|0:0,0:0:0:0:
319,247,170420,6,0,B|254:253|260:289|181:285,1,140,2|8,1:0|0:0,0:0:0:0:
124,220,170866,1,0,0:0:0:0:
52,267,171014,2,0,P|34:299|41:377,2,105,2|2|0,1:2|0:0|0:0,0:0:0:0:
14,189,171608,2,0,P|10:143|-6:114,1,70,0|0,1:1|0:0,0:0:0:0:
8,28,171905,2,0,L|49:42,3,35,8|8|8|8,0:0|0:0|0:0|0:0,0:0:0:0:
53,47,172202,2,0,P|102:95|180:86,1,140,2|8,1:0|0:0,0:0:0:0:
259,58,172648,5,8,0:0:0:0:
259,58,172722,1,8,0:0:0:0:
259,58,172796,2,0,P|211:110|216:205,1,140,2|8,1:0|0:0,0:0:0:0:
276,240,173242,1,0,0:0:0:0:
204,293,173390,2,0,P|169:303|133:318,1,70,2|0,1:2|0:0,0:0:0:0:
131,323,173613,1,2,0:2:0:0:
121,322,173687,2,0,P|109:270|104:246,1,70,10|2,0:2|0:2,0:0:0:0:
25,297,173984,2,0,P|-3:220|4:150,1,140,2|8,1:0|0:0,0:0:0:0:
108,30,174578,5,0,1:0:0:0:
108,30,174727,1,8,0:0:0:0:
171,72,174875,2,0,P|183:103|183:149,1,70,0|8,1:0|0:0,0:0:0:0:
177,147,175098,1,8,0:0:0:0:
181,156,175172,2,0,P|249:153|296:104,2,140,2|8|2,1:0|0:0|1:0,0:0:0:0:
111,230,175915,1,8,0:0:0:0:
111,230,176064,2,0,P|151:243|188:258,1,70,0|8,1:0|0:0,0:0:0:0:
229,341,176361,6,0,P|274:295|348:294,1,140,2|0,1:0|1:0,0:0:0:0:
419,355,176806,1,8,0:2:0:0:
419,355,176880,1,8,0:2:0:0:
419,355,176955,2,0,P|423:305|433:271,1,70,8|4,1:2|0:3,0:0:0:0:
498,247,177252,2,0,L|481:189,3,35,4|4|0|0,0:3|0:3|1:0|1:0,0:0:0:0:
492,204,177549,6,0,P|424:199|373:152,1,140,6|8,1:0|0:0,0:0:0:0:
320,83,177994,1,0,0:0:0:0:
259,144,178143,2,0,P|268:179|274:216,1,70,2|0,1:2|0:0,0:0:0:0:
280,221,178366,1,2,0:2:0:0:
283,232,178440,2,0,P|276:266|272:304,1,70,10|2,0:2|0:2,0:0:0:0:
212,383,178737,6,0,P|136:376|94:314,1,140,0|8,1:0|0:0,0:0:0:0:
15,296,179182,1,0,0:0:0:0:
9,203,179331,2,0,P|47:216|85:221,1,70,2|0,1:0|0:0,0:0:0:0:
153,245,179628,2,0,P|173:178|151:127,1,105,8|8,0:0|0:0,0:0:0:0:
161,136,179925,6,0,P|220:148|282:99,1,140,2|8,1:0|0:0,0:0:0:0:
322,22,180371,1,0,0:0:0:0:
384,99,180519,2,0,P|400:141|416:203,2,105,2|2|2,1:2|0:2|0:2,0:0:0:0:
411,0,181113,2,0,P|444:16|488:23,1,70,0|0,1:0|0:0,0:0:0:0:
503,107,181410,2,0,L|491:141,3,35,8|8|8|8,0:0|0:0|0:0|0:0,0:0:0:0:
498,147,181707,2,0,P|522:199|450:271,1,140,2|8,1:0|0:0,0:0:0:0:
512,360,182153,5,8,0:0:0:0:
512,360,182227,1,8,0:0:0:0:
512,360,182301,2,0,P|458:311|380:320,1,140,2|8,1:0|0:0,0:0:0:0:
344,383,182747,1,0,0:0:0:0:
271,327,182895,2,0,P|283:290|285:253,1,70,2|0,1:2|0:0,0:0:0:0:
278,254,183118,1,2,0:2:0:0:
268,250,183192,2,0,P|233:263|197:273,1,70,10|2,0:2|0:2,0:0:0:0:
151,341,183489,2,0,P|108:267|123:204,1,140,2|8,1:0|0:0,0:0:0:0:
27,93,184083,5,0,1:0:0:0:
27,93,184232,1,8,0:0:0:0:
96,47,184380,2,0,P|131:60|170:64,1,70,0|8,1:0|0:0,0:0:0:0:
172,71,184603,1,8,0:0:0:0:
181,67,184677,2,0,P|241:22|301:32,2,140,2|8|2,1:0|0:0|1:0,0:0:0:0:
123,134,185420,1,8,0:0:0:0:
127,137,185569,2,0,P|119:176|104:211,1,70,0|8,1:0|0:0,0:0:0:0:
24,242,185866,6,0,P|95:250|145:306,1,140,2|0,1:0|1:0,0:0:0:0:
133,384,186311,1,10,0:0:0:0:
133,384,186385,1,8,0:0:0:0:
133,384,186460,2,0,P|171:375|206:359,1,70,2|0,1:2|3:0,0:0:0:0:
227,283,186757,2,0,P|259:296|293:304,1,70,4|4,0:3|0:3,0:0:0:0:
352,367,187054,1,4,1:0:0:0:
491,187,187648,5,8,0:0:0:0:
491,187,187797,1,8,0:0:0:0:
308,26,188242,1,0,1:0:0:0:
222,132,188539,5,8,0:0:0:0:
222,132,188688,1,0,1:0:0:0:
278,201,188836,1,8,0:0:0:0:
278,201,188985,1,0,1:0:0:0:
206,250,189133,2,0,P|172:242|121:234,1,70,8|0,0:0|1:0,0:0:0:0:
61,183,189430,6,0,P|58:217|46:250,1,70,8|8,0:0|0:3,0:0:0:0:
18,341,189727,2,0,P|60:331|98:324,1,70,8|4,0:3|0:3,0:0:0:0:
163,366,190024,1,4,0:3:0:0:
277,224,190618,6,0,P|296:157|248:91,1,140,6|8,1:0|0:0,0:0:0:0:
187,63,191064,1,0,0:0:0:0:
247,14,191213,2,0,P|283:25|328:30,1,70,2|0,1:0|0:0,0:0:0:0:
399,48,191510,2,0,P|383:79|375:113,1,70,8|2,0:0|0:1,0:0:0:0:
438,176,191807,2,0,P|484:212|478:310,1,140,0|8,1:0|0:0,0:0:0:0:
444,365,192252,2,0,P|387:320|322:327,1,140,2|0,0:1|0:0,0:0:0:0:
256,384,192698,2,0,P|246:355|240:309,1,70,8|0,0:0|0:0,0:0:0:0:
287,237,192995,6,0,P|246:228|193:211,1,70,2|0,1:0|0:0,0:0:0:0:
160,278,193292,2,0,P|123:209|139:133,1,140,8|0,0:0|1:0,0:0:0:0:
66,80,193737,2,0,P|110:72|139:60,1,70,2|8,0:1|0:0,0:0:0:0:
191,0,194034,1,2,0:1:0:0:
247,65,194183,2,0,P|286:102|371:112,1,140,0|8,1:0|0:0,0:0:0:0:
427,184,194628,1,0,0:0:0:0:
427,184,194777,2,0,P|385:195|344:209,1,70,0|0,1:0|0:0,0:0:0:0:
297,258,195074,2,0,L|305:295,3,35,8|8|8|8,0:0|0:0|0:0|0:0,0:0:0:0:
304,302,195371,6,0,P|235:343|150:341,1,140,2|8,1:0|0:0,0:0:0:0:
104,384,195816,1,0,0:0:0:0:
32,331,195965,2,0,P|38:292|51:258,1,70,2|0,1:0|0:0,0:0:0:0:
0,194,196262,2,0,L|78:177,1,70,8|2,0:0|0:1,0:0:0:0:
149,229,196559,6,0,P|215:209|302:193,1,140,0|8,1:0|0:0,0:0:0:0:
306,98,197005,2,0,P|235:121|153:134,1,140,2|0,0:1|0:0,0:0:0:0:
114,77,197450,2,0,P|119:60|124:43,3,35,8|8|8|8,0:0|0:0|0:0|0:0,0:0:0:0:
127,27,197747,2,0,P|167:36|214:38,1,70,2|0,1:0|0:0,0:0:0:0:
270,0,198044,2,0,P|316:14|401:20,1,105,8|0,0:0|0:0,0:0:0:0:
381,28,198341,1,2,1:0:0:0:
389,35,198415,2,0,P|356:85|370:143,1,105,8|0,0:0|1:0,0:0:0:0:
422,181,198787,1,12,0:0:0:0:
485,245,198935,6,0,P|450:254|416:271,1,70,0|0,1:0|0:0,0:0:0:0:
350,334,199232,2,0,P|337:285|324:256,1,70,8|0,0:0|0:0,0:0:0:0:
271,202,199529,2,0,L|237:192,3,35,8|8|8|8,0:0|0:0|0:0|0:0,0:0:0:0:
228,185,199826,2,0,P|240:143|249:103,1,70,8|8,0:0|0:0,0:0:0:0:
287,35,200123,6,0,P|231:75|159:73,1,140,4|10,1:0|0:0,0:0:0:0:
83,34,200569,1,0,1:0:0:0:
25,104,200717,2,0,P|34:136|41:187,1,70,10|0,0:0|1:0,0:0:0:0:
86,253,201014,1,8,0:0:0:0:
86,253,201163,1,2,1:2:0:0:
151,191,201311,6,0,P|186:203|225:209,1,70,8|0,0:0|1:0,0:0:0:0:
261,282,201608,1,8,0:0:0:0:
336,338,201757,2,0,P|344:303|354:262,1,70,2|8,1:2|0:0,0:0:0:0:
439,272,202054,1,0,1:0:0:0:
439,272,202203,2,0,P|428:234|413:195,1,70,8|0,0:0|1:0,0:0:0:0:
424,197,202425,5,0,1:0:0:0:
423,187,202500,2,0,P|459:146|446:51,1,140,8|10,0:0|0:2,0:0:0:0:
397,0,202945,1,0,1:0:0:0:
329,49,203094,2,0,P|341:83|347:124,1,70,8|2,0:0|1:2,0:0:0:0:
281,180,203391,2,0,P|267:136|262:100,1,70,8|0,0:0|1:0,0:0:0:0:
202,42,203688,5,10,0:0:0:0:
202,42,203836,1,0,1:0:0:0:
137,92,203985,2,0,P|106:84|63:78,1,70,10|0,0:0|1:0,0:0:0:0:
0,137,204282,5,10,0:0:0:0:
0,137,204430,1,0,1:0:0:0:
38,208,204579,2,0,P|69:216|112:222,1,70,10|0,0:0|1:0,0:0:0:0:
159,291,204876,6,0,P|197:236|189:156,1,140,4|10,1:0|0:0,0:0:0:0:
124,108,205321,1,0,1:0:0:0:
181,42,205470,2,0,P|216:54|260:64,1,70,10|0,0:0|1:0,0:0:0:0:
325,15,205767,2,0,P|333:53|347:94,1,70,8|2,0:0|1:2,0:0:0:0:
294,168,206064,6,0,P|330:173|377:191,1,70,8|0,0:0|1:0,0:0:0:0:
410,269,206361,1,8,0:0:0:0:
337,305,206509,2,0,P|298:298|251:281,1,70,2|8,1:2|0:0,0:0:0:0:
199,339,206807,1,0,1:0:0:0:
150,272,206955,2,0,P|162:231|170:197,1,70,8|0,0:0|1:0,0:0:0:0:
101,145,207252,5,12,0:0:0:0:
101,145,207400,1,0,1:0:0:0:
40,75,207549,2,0,P|80:67|116:56,1,70,12|0,0:0|1:0,0:0:0:0:
185,0,207846,5,14,0:0:0:0:
185,0,207995,2,0,P|192:37|206:75,1,70,0|12,1:2|0:0,0:0:0:0:
258,131,208292,2,0,P|322:122|386:181,1,140,10|8,0:0|0:0,0:0:0:0:
328,230,208737,2,0,P|295:238|259:255,1,70,8|0,0:0|1:0,0:0:0:0:
261,261,208960,1,0,1:0:0:0:
252,262,209034,1,8,0:0:0:0:
180,304,209183,1,8,0:0:0:0:
110,250,209331,1,8,0:0:0:0:
148,174,209480,1,8,0:0:0:0:
