osu file format v14

[General]
AudioFilename: audio.mp3
AudioLeadIn: 0
PreviewTime: 158391
Countdown: 0
SampleSet: Soft
StackLeniency: 1
Mode: 0
LetterboxInBreaks: 0
WidescreenStoryboard: 0

[Editor]
Bookmarks: 11212,20717,30222,39727,53985,65866,75371,84876,94381,108638,130024,139529,149034,158539,168044,187054
DistanceSpacing: 1
BeatDivisor: 4
GridSize: 16
TimelineZoom: 1.5

[Metadata]
Title:oversupply
TitleUnicode:oversupply
Artist:yanaginagi
ArtistUnicode:やなぎなぎ
Creator:nexusqi
Version:willow
Source:
Tags:rock pop japanese branch kowari mnyui gelidium
BeatmapID:3944280
BeatmapSetID:1912139

[Difficulty]
HPDrainRate:6
CircleSize:4
OverallDifficulty:8.5
ApproachRate:9.3
SliderMultiplier:1.8
SliderTickRate:1

[Events]
//Background and Video events
0,0,"nexooooooooooos.jpg",0,0
//Break Periods
2,150422,162738
//Storyboard Layer 0 (Background)
//Storyboard Layer 1 (Fail)
//Storyboard Layer 2 (Pass)
//Storyboard Layer 3 (Foreground)
//Storyboard Layer 4 (Overlay)
//Storyboard Sound Samples

[TimingPoints]
1708,297.029702970297,4,2,1,70,1,0
19009,-90.9090909090909,4,2,1,70,0,0
19381,-71.4285714285714,4,2,1,70,0,0
20717,-125,4,2,1,50,0,0
28143,-111.111111111111,4,2,1,60,0,0
34975,-111.111111111111,4,2,1,60,0,0
39133,-250,4,2,1,60,0,0
39430,-76.9230769230769,4,2,1,60,0,0
39727,-100,4,2,1,60,0,0
41212,-200,4,2,1,60,0,0
42104,-100,4,2,1,60,0,0
44480,-66.6666666666667,4,2,1,60,0,0
48490,-100,4,2,1,60,0,0
49232,-100,4,2,1,65,0,0
53985,-95.2380952380952,4,2,1,70,0,1
63490,-100,4,2,1,60,0,0
64678,-500,4,2,1,60,0,0
65866,-100,4,2,1,70,0,0
74183,-100,4,2,1,70,0,0
75371,-125,4,2,1,50,0,0
82797,-111.111111111111,4,2,1,60,0,0
93787,-249.999999999999,4,2,1,60,0,0
94084,-76.9230769230768,4,2,1,60,0,0
94381,-100,4,2,1,60,0,0
95717,-133.333333333333,4,2,1,60,0,0
96757,-100,4,2,1,60,0,0
99133,-66.6666666666667,4,2,1,60,0,0
103143,-100,4,2,1,60,0,0
103886,-100,4,2,1,65,0,0
108638,-95.2380952380952,4,2,1,70,0,1
118069,-95.2380952380952,4,2,1,70,0,0
118143,-95.2380952380952,4,2,1,70,0,1
127648,-100,4,2,1,60,0,0
129282,-500,4,2,1,50,0,0
130024,-133.333333333333,4,2,1,50,0,0
139529,-399.999999999997,4,2,1,50,0,0
140123,-125,4,2,1,50,0,0
144282,-400,4,2,1,50,0,0
144876,-125,4,2,1,50,0,0
149034,-500,4,2,1,50,0,0
163589,-153.846153846153,4,2,1,50,0,0
164183,-133.333333333333,4,2,1,50,0,0
164777,-117.647058823529,4,2,1,50,0,0
165371,-105.263157894737,4,2,1,50,0,0
165668,-100,4,2,1,60,0,0
168044,-95.2380952380952,4,2,1,70,0,1
177475,-95.2380952380952,4,2,1,70,0,0
177549,-95.2380952380952,4,2,1,70,0,1
187054,-333.333333333333,4,2,1,70,0,0
188242,-100,4,2,1,70,0,0
190024,-333.333333333333,4,2,1,70,0,0
190618,-100,4,2,1,70,0,0
200123,-95.2380952380952,4,2,2,70,0,1
209628,-95.2380952380952,4,2,1,70,0,0

[Colours]
Combo1 : 126,133,211
Combo2 : 207,235,252
Combo3 : 245,177,201

[HitObjects]
3,1,11212,6,0,B|19:66|89:98|154:67,1,180,6|8,1:0|0:0,0:0:0:0:
74,188,11658,1,0,0:0:0:0:
11,133,11807,2,0,P|-6:174|-6:232,1,90,2|0,1:0|0:0,0:0:0:0:
185,383,12104,2,0,B|192:338|192:338|162:280,1,90,8|2,0:0|3:1,0:0:0:0:
168,289,12326,1,0,3:0:0:0:
173,276,12401,6,0,B|263:243|292:321|292:321,1,135,0|0,1:0|0:0,0:0:0:0:
288,314,12698,1,8,0:0:0:0:
411,384,12846,2,0,P|412:345|431:288,1,90,2|0,0:1|1:0,0:0:0:0:
259,142,13143,1,0,0:0:0:0:
353,104,13292,2,0,P|352:143|333:200,1,90,8|0,0:0|0:0,0:0:0:0:
35,45,13589,6,0,B|56:88|106:110|166:84,1,135,2|0,1:0|0:0,0:0:0:0:
149,89,13886,2,0,P|147:42|132:-17,1,90,8|0,0:0|3:0,0:0:0:0:
137,0,14108,1,0,3:0:0:0:
137,0,14183,1,0,1:0:0:0:
0,160,14331,2,0,P|2:207|17:266,1,90,2|8,0:1|0:0,0:0:0:0:
239,140,14628,5,0,3:0:0:0:
239,140,14703,1,0,3:0:0:0:
239,140,14777,2,0,P|237:93|222:34,1,90,2|0,1:0|0:0,0:0:0:0:
154,106,15074,1,8,0:0:0:0:
327,174,15222,1,0,0:0:0:0:
154,283,15371,2,0,P|93:298|61:316,1,90,0|0,1:0|0:0,0:0:0:0:
263,384,15668,5,8,0:0:0:0:
269,366,15742,1,8,0:0:0:0:
275,349,15816,2,0,P|272:315|259:287,1,45,8|8,0:0|0:0,0:0:0:0:
338,256,15965,6,0,B|431:239|417:301|519:279,1,180,2|8,1:0|0:0,0:0:0:0:
449,381,16410,1,0,3:0:0:0:
449,381,16485,1,0,3:0:0:0:
449,381,16559,2,0,P|406:361|332:350,1,90,2|0,1:0|0:0,0:0:0:0:
307,176,16856,2,0,P|264:196|190:207,1,90,8|2,0:0|3:1,0:0:0:0:
213,217,17079,1,0,3:0:0:0:
201,211,17153,6,0,B|159:182|142:134|174:85,1,135,0|0,1:0|0:0,0:0:0:0:
169,93,17450,1,8,0:0:0:0:
290,267,17599,2,0,P|305:297|313:363,1,90,2|0,0:1|1:0,0:0:0:0:
72,188,17896,6,2,P|87:180|116:172,1,45
169,93,18044,1,8,0:0:0:0:
191,130,18118,1,8,0:0:0:0:
228,146,18192,1,8,0:0:0:0:
274,143,18266,1,8,0:0:0:0:
308,120,18341,2,0,P|321:74|321:22,1,90,2|0,1:0|0:0,0:0:0:0:
512,236,18638,2,0,B|464:236|425:271|425:271|383:238,1,135,8|0,0:0|0:0,0:0:0:0:
329,290,18935,1,2,1:0:0:0:
329,290,19009,2,0,P|320:343|306:387,1,99.0000030212403,8|0,0:0|0:0,0:0:0:0:
407,351,19232,1,0,1:0:0:0:
419,164,19381,6,0,P|411:128|399:91,1,62.9999980773926,12|0,0:0|0:0,0:0:0:0:
452,217,19529,2,0,P|485:231|517:236,1,62.9999980773926,0|0,1:0|0:0,0:0:0:0:
403,103,19678,1,8,0:0:0:0:
403,103,19752,1,8,0:0:0:0:
403,103,19826,2,0,B|346:114|354:152|269:154,1,125.999996154785,0|0,1:0|1:0,0:0:0:0:
240,96,20049,1,0,1:0:0:0:
240,96,20123,2,0,P|249:56|248:34,1,62.9999980773926,8|8,0:0|0:0,0:0:0:0:
114,129,20272,2,0,P|104:160|102:196,1,62.9999980773926,8|8,0:0|0:0,0:0:0:0:
178,225,20420,5,8,0:0:0:0:
224,217,20494,1,8,0:0:0:0:
268,232,20568,1,8,0:0:0:0:
300,267,20642,1,8,0:0:0:0:
311,312,20717,2,0,B|384:304|374:349|476:324,1,144,6|0,1:2|1:0,0:0:0:0:
497,245,21163,1,0,0:0:0:0:
488,162,21311,2,0,P|454:179|397:188,1,72,2|0,1:2|0:0,0:0:0:0:
337,384,21608,2,0,P|330:348|314:315,1,72,2|0,1:2|0:0,0:0:0:0:
314,316,21831,1,0,0:0:0:0:
314,316,21906,6,0,B|220:296|194:389|194:389,1,144,2|0,1:2|1:0,0:0:0:0:
395,295,22351,1,0,0:0:0:0:
274,215,22500,2,0,P|307:228|342:233,1,72,2|0,1:2|0:0,0:0:0:0:
445,156,22797,1,2,1:2:0:0:
445,156,22945,1,0,0:0:0:0:
507,207,23094,6,0,B|570:131|506:68|506:68,1,144,2|0,1:2|1:0,0:0:0:0:
427,277,23539,1,0,0:0:0:0:
361,202,23688,2,0,P|357:237|335:283,1,72,0|0,1:2|0:0,0:0:0:0:
512,384,23985,2,0,L|491:300,1,72,2|0,1:2|0:0,0:0:0:0:
363,114,24282,2,0,P|336:125|267:135,1,72,0|0,1:2|0:0,0:0:0:0:
145,190,24579,6,0,B|191:169|249:185|268:255,1,144,2|0,1:2|1:0,0:0:0:0:
358,328,25024,1,2,0:0:0:0:
417,384,25173,2,0,P|433:348|437:292,1,72,0|0,1:0|0:0,0:0:0:0:
438,315,25396,1,0,0:0:0:0:
444,323,25470,1,0,1:0:0:0:
256,231,25618,5,0,0:0:0:0:
187,267,25767,2,0,B|131:269|144:303|63:295,1,108,2|0,1:2|0:0,0:0:0:0:
84,296,26064,2,0,P|82:257|65:212,1,72,2|0,1:2|0:0,0:0:0:0:
124,169,26287,2,0,P|146:176|174:181,1,36,2|0,0:2|1:0,0:0:0:0:
308,310,26509,6,0,P|270:316|233:338,1,72,2|0,0:2|1:0,0:0:0:0:
337,224,26807,1,0,0:0:0:0:
456,341,26956,1,0,1:0:0:0:
456,341,27104,1,0,0:0:0:0:
512,266,27252,2,0,B|537:233|530:179|489:147,1,108,2|0,1:2|0:0,0:0:0:0:
507,165,27549,2,0,P|469:171|429:184,1,72,2|0,1:2|0:0,0:0:0:0:
230,164,27846,1,0,1:0:0:0:
230,164,28143,6,0,B|188:126|183:82|209:37,1,121.499996292114,2|0,1:2|0:0,0:0:0:0:
200,54,28440,2,0,P|255:63|298:77,1,80.9999975280763,2|0,1:2|0:0,0:0:0:0:
88,235,28737,2,0,P|79:180|60:139,1,80.9999975280763,2|0,1:2|0:0,0:0:0:0:
3,86,29034,5,2,1:2:0:0:
197,204,29183,1,8,0:0:0:0:
0,324,29331,5,8,0:0:0:0:
188,113,29480,1,8,0:0:0:0:
188,113,29554,1,8,0:0:0:0:
188,113,29628,2,0,P|235:129|288:134,1,80.9999975280763,10|8,0:2|0:0,0:0:0:0:
439,384,29925,2,0,P|423:337|418:284,1,80.9999975280763,4|4,1:3|0:3,0:0:0:0:
428,298,30148,1,4,0:3:0:0:
422,290,30222,6,0,B|324:248|284:357|284:357,1,161.999995056153,4|8,1:0|0:0,0:0:0:0:
150,280,30668,1,0,0:0:0:0:
251,188,30816,2,0,P|243:236|225:280,1,80.9999975280763,2|0,1:2|0:0,0:0:0:0:
18,384,31113,2,0,P|58:374|94:358,1,80.9999975280763,10|0,0:2|3:0,0:0:0:0:
103,361,31336,1,0,3:0:0:0:
108,353,31410,6,0,B|154:260|63:203|63:203,1,161.999995056153,2|8,1:2|0:0,0:0:0:0:
11,277,31856,1,0,3:0:0:0:
11,277,31930,1,0,3:0:0:0:
11,277,32005,1,2,1:2:0:0:
116,134,32153,1,0,0:0:0:0:
42,99,32302,5,8,0:0:0:0:
182,227,32450,1,0,0:0:0:0:
297,87,32599,2,0,B|380:67|375:114|465:79,1,161.999995056153,2|8,1:2|0:0,0:0:0:0:
456,82,33044,1,0,0:0:0:0:
294,180,33193,2,0,P|262:167|198:155,1,80.9999975280763,0|0,1:2|0:0,0:0:0:0:
283,0,33490,2,0,P|251:13|187:25,1,80.9999975280763,10|0,0:0|0:0,0:0:0:0:
381,99,33787,2,0,P|387:136|419:195,1,80.9999975280763,0|0,1:0|3:0,0:0:0:0:
404,185,34009,1,0,3:0:0:0:
413,192,34084,6,0,B|491:172|513:239|513:239,1,121.499996292114,10|0,0:2|0:0,0:0:0:0:
512,238,34381,1,0,1:0:0:0:
298,150,34529,1,10,0:0:0:0:
443,17,34678,5,8,0:0:0:0:
244,214,34826,1,8,0:0:0:0:
244,214,34901,1,8,0:0:0:0:
244,214,34975,2,0,B|160:142|216:57|216:57,1,161.999995056153,4|10,1:2|0:2,0:0:0:0:
287,60,35420,1,0,0:0:0:0:
161,248,35569,2,0,P|115:256|71:273,1,80.9999975280763,0|0,1:0|0:0,0:0:0:0:
13,194,35866,2,0,P|59:186|103:169,1,80.9999975280763,10|0,0:2|0:0,0:0:0:0:
303,320,36163,6,0,P|349:363|427:352,1,121.499996292114,2|0,1:2|0:0,0:0:0:0:
404,363,36460,2,0,P|416:312|434:275,1,80.9999975280763,8|0,0:0|0:0,0:0:0:0:
507,354,36757,1,2,1:2:0:0:
340,226,36906,1,0,0:0:0:0:
414,172,37054,2,0,P|464:166|501:153,1,80.9999975280763,8|0,0:0|0:0,0:0:0:0:
278,384,37351,6,0,B|214:330|259:262|259:262,1,121.499996292114,2|0,1:2|0:0,0:0:0:0:
252,274,37648,2,0,B|319:245|367:279|381:333,2,161.999995056153,10|0|8,0:2|1:0|0:0,0:0:0:0:
165,118,38391,1,8,0:0:0:0:
165,118,38465,1,8,0:0:0:0:
165,118,38539,2,0,P|159:160|133:214,1,80.9999975280763,0|4,1:0|0:3,0:0:0:0:
241,187,38836,1,12,0:3:0:0:
90,326,38985,5,4,0:3:0:0:
90,326,39059,1,4,0:3:0:0:
90,326,39133,2,0,L|77:266,1,54,2|0,1:2|0:0,0:0:0:0:
0,275,39430,2,0,B|49:266|83:299|83:299|130:309|175:268,1,175.499991966248,10|0,0:0|0:0,0:0:0:0:
252,266,39727,6,0,P|237:309|229:353,1,90,2|0,1:0|0:0,0:0:0:0:
91,163,40024,2,0,P|105:117|114:67,1,90,10|0,0:0|0:0,0:0:0:0:
327,198,40321,2,0,P|334:242|346:287,1,90,2|0,1:0|0:0,0:0:0:0:
148,371,40618,5,10,0:0:0:0:
229,92,40767,1,2,1:3:0:0:
229,92,41064,1,0,0:0:0:0:
284,26,41212,1,0,0:0:0:0:
371,57,41361,1,0,3:0:0:0:
371,57,41435,1,0,3:0:0:0:
371,57,41509,1,0,3:0:0:0:
382,138,41658,1,8,0:3:0:0:
461,165,41807,1,4,0:3:0:0:
512,101,41955,5,4,0:3:0:0:
512,101,42029,1,4,0:3:0:0:
512,101,42104,2,0,P|495:50|486:6,1,90,2|0,1:0|0:0,0:0:0:0:
309,176,42401,2,0,P|302:223|289:263,1,90,8|0,0:0|3:0,0:0:0:0:
295,269,42623,1,0,3:0:0:0:
288,280,42698,5,8,0:0:0:0:
154,119,42846,1,8,0:0:0:0:
393,242,42995,1,8,0:0:0:0:
103,375,43143,1,8,0:0:0:0:
103,375,43440,1,0,0:0:0:0:
49,318,43589,1,0,0:0:0:0:
108,266,43737,6,0,P|133:274|161:281,1,45,0|0,1:3|1:3,0:0:0:0:
203,348,43886,5,8,0:3:0:0:
258,365,43985,1,8,0:3:0:0:
296,319,44084,1,8,0:3:0:0:
363,255,44183,5,4,0:3:0:0:
379,250,44282,1,4,0:3:0:0:
391,260,44381,1,4,0:3:0:0:
469,322,44480,6,0,P|478:288|492:239,1,67.5000025749208,10|0,0:0|0:0,0:0:0:0:
462,180,44628,2,0,P|470:214|485:272,1,67.5000025749208,10|0,0:0|0:0,0:0:0:0:
313,0,45668,6,0,P|322:34|336:83,1,67.5000025749208,10|0,0:0|0:0,0:0:0:0:
306,142,45816,2,0,P|314:108|329:50,1,67.5000025749208,10|0,0:0|0:0,0:0:0:0:
182,384,46856,6,0,P|191:350|205:301,1,67.5000025749208,10|0,0:0|0:0,0:0:0:0:
175,242,47004,2,0,P|183:276|198:334,1,67.5000025749208,10|0,0:0|0:0,0:0:0:0:
7,0,48044,6,0,P|16:34|30:83,1,67.5000025749208,10|0,0:0|0:0,0:0:0:0:
0,142,48192,2,0,P|8:108|23:50,1,67.5000025749208,10|0,0:0|0:0,0:0:0:0:
216,213,48490,5,0,1:0:0:0:
216,213,48564,1,0,1:0:0:0:
216,213,48638,2,0,P|201:256|197:307,1,90,0|4,1:0|0:3,0:0:0:0:
118,244,48935,2,0,P|74:256|22:259,1,90,8|0,0:0|0:0,0:0:0:0:
215,92,49232,6,0,P|255:109|311:122,1,90,10|8,0:0|0:0,0:0:0:0:
470,106,49529,1,0,1:0:0:0:
413,168,49678,2,0,B|334:79|408:-19|408:-19,1,180,2|0,0:1|0:0,0:0:0:0:
509,180,50123,2,0,P|495:221|486:287,1,90,2|0,1:2|0:0,0:0:0:0:
405,157,50420,5,10,0:2:0:0:
294,253,50569,1,8,0:0:0:0:
154,195,50717,1,0,1:0:0:0:
202,296,50866,6,0,B|293:274|283:329|380:294,1,180,2|0,0:1|0:0,0:0:0:0:
219,384,51311,2,0,P|174:370|110:358,1,90,2|0,1:2|0:0,0:0:0:0:
42,181,51608,5,10,0:2:0:0:
36,165,51683,1,8,0:0:0:0:
16,157,51757,1,8,0:0:0:0:
1,167,51831,1,8,0:0:0:0:
0,192,51906,5,8,0:0:0:0:
27,212,51980,1,8,0:0:0:0:
69,200,52054,1,8,0:0:0:0:
88,165,52128,1,8,0:0:0:0:
116,127,52203,5,10,0:2:0:0:
165,114,52277,1,8,0:0:0:0:
211,141,52351,1,8,0:0:0:0:
227,192,52425,1,8,0:0:0:0:
199,243,52500,5,10,0:2:0:0:
165,287,52574,1,8,0:0:0:0:
163,345,52648,1,8,0:0:0:0:
208,384,52722,1,8,0:0:0:0:
268,379,52797,1,10,0:0:0:0:
268,379,53390,5,8,0:0:0:0:
16,188,53539,1,8,0:0:0:0:
16,188,53985,6,0,B|-59:118|14:53|14:53,1,141.749995674133,6|0,1:0|0:0,0:0:0:0:
5,62,54282,2,0,P|61:73|100:87,1,94.499997116089,8|0,0:0|0:0,0:0:0:0:
198,189,54579,5,2,1:2:0:0:
207,184,54653,1,2,0:2:0:0:
366,89,54802,1,2,0:2:0:0:
374,94,54876,1,10,0:2:0:0:
207,0,55024,1,2,0:2:0:0:
312,186,55173,6,0,B|362:302|481:243|481:243,1,188.999994232178,0|8,1:0|0:0,0:0:0:0:
358,350,55618,1,0,0:0:0:0:
289,294,55767,2,0,P|272:335|272:393,1,94.499997116089,2|0,1:0|0:0,0:0:0:0:
512,176,56064,2,0,P|509:126|486:86,1,94.499997116089,8|0,0:0|3:0,0:0:0:0:
477,80,56287,1,0,3:0:0:0:
468,87,56361,6,0,B|423:168|336:135|336:135,1,141.749995674133,2|0,1:0|0:0,0:0:0:0:
347,138,56658,2,0,P|349:88|357:39,1,94.499997116089,8|0,0:0|0:0,0:0:0:0:
263,90,56955,5,2,1:2:0:0:
268,98,57029,1,2,0:0:0:0:
428,179,57178,1,2,0:0:0:0:
425,188,57252,1,10,0:2:0:0:
298,315,57401,1,2,0:0:0:0:
185,205,57549,6,0,P|233:223|283:229,1,94.499997116089,0|0,1:0|0:0,0:0:0:0:
511,281,57846,1,8,0:0:0:0:
467,251,57920,1,8,0:0:0:0:
420,251,57995,1,8,0:0:0:0:
380,288,58069,1,8,0:0:0:0:
375,343,58143,2,0,B|301:350|319:391|218:383,1,141.749995674133,2|0,1:0|0:0,0:0:0:0:
241,384,58440,2,0,B|221:339|221:339|226:292,1,94.499997116089,8|8,0:0|0:0,0:0:0:0:
141,264,58663,5,8,0:0:0:0:
135,254,58737,2,0,B|70:239|0:277|2:359,1,188.999994232178,2|8,1:0|0:0,0:0:0:0:
228,285,59183,1,0,0:0:0:0:
75,125,59331,5,2,1:2:0:0:
82,115,59406,1,2,0:2:0:0:
155,4,59554,1,2,0:2:0:0:
164,9,59628,1,10,0:2:0:0:
292,65,59777,1,2,0:2:0:0:
38,245,59925,6,0,B|-56:169|7:73|7:73,1,188.999994232178,2|8,1:1|0:0,0:0:0:0:
5,75,60519,1,0,1:0:0:0:
122,232,60668,5,8,0:0:0:0:
232,126,60816,2,0,P|176:145|129:147,1,94.499997116089,0|8,1:0|0:0,0:0:0:0:
131,144,61039,1,8,0:0:0:0:
138,137,61113,6,0,B|210:145|197:186|295:167,1,141.749995674133,2|0,1:0|0:0,0:0:0:0:
349,206,61410,2,0,B|356:159|356:159|333:105,1,94.499997116089,8|0,0:0|0:0,0:0:0:0:
438,165,61708,1,2,1:0:0:0:
264,255,61856,1,8,0:0:0:0:
421,345,62005,2,0,P|472:354|527:376,1,94.499997116089,0|8,1:0|0:0,0:0:0:0:
512,368,62227,1,8,0:0:0:0:
512,368,62302,5,2,1:0:0:0:
316,199,62450,1,8,0:0:0:0:
512,103,62599,1,0,1:0:0:0:
334,317,62747,5,10,0:2:0:0:
334,317,62821,1,8,0:0:0:0:
334,317,62896,2,0,P|284:302|228:295,1,94.499997116089,10|8,0:0|0:3,0:0:0:0:
12,241,63193,5,4,0:3:0:0:
143,299,63341,1,4,0:3:0:0:
247,184,63490,1,4,1:0:0:0:
247,184,63787,6,0,P|237:131|213:78,1,90,8|0,0:0|1:0,0:0:0:0:
454,0,64084,2,0,P|461:51|486:113,1,90,8|0,0:0|1:0,0:0:0:0:
343,233,64381,2,0,P|338:186|316:125,1,90,8|0,0:0|1:0,0:0:0:0:
50,293,64678,6,2,P|56:327|67:366,1,72,8|4,0:0|1:2,0:1:0:0:
371,19,65866,6,0,B|355:80|277:118|203:65,1,180,6|8,1:0|0:0,0:0:0:0:
254,6,66312,1,0,0:0:0:0:
396,130,66461,2,0,L|501:162,1,90,2|0,1:0|0:0,0:0:0:0:
290,293,66757,2,0,B|261:258|272:188,1,90,8|2,0:0|3:1,0:0:0:0:
273,201,66980,1,0,3:0:0:0:
265,198,67054,6,0,B|219:282|133:235|133:235,1,135,0|0,1:0|0:0,0:0:0:0:
150,242,67351,1,8,0:0:0:0:
19,286,67500,2,0,P|72:300|118:320,1,90,2|0,0:1|1:0,0:0:0:0:
255,383,67797,1,0,3:0:0:0:
255,383,67871,1,0,3:0:0:0:
255,383,67945,2,0,P|232:332|224:281,1,90,8|0,0:0|0:0,0:0:0:0:
101,126,68243,6,0,B|47:47|115:-6|115:-6,1,135,2|0,1:0|0:0,0:0:0:0:
106,2,68540,2,0,P|145:16|201:29,1,90,8|0,0:0|0:0,0:0:0:0:
161,180,68837,1,0,1:0:0:0:
93,226,68985,2,0,P|45:236|-9:260,1,90,2|8,0:1|0:0,0:0:0:0:
250,117,69282,5,2,3:1:0:0:
250,117,69357,1,0,3:0:0:0:
250,117,69431,2,0,P|258:159|283:213,1,90,0|0,1:0|0:0,0:0:0:0:
352,155,69727,1,8,0:0:0:0:
198,270,69876,1,0,0:0:0:0:
364,350,70024,2,0,P|410:359|453:379,1,90,0|0,1:0|0:0,0:0:0:0:
168,192,70322,5,8,0:0:0:0:
168,192,70396,1,8,0:0:0:0:
168,192,70470,2,0,P|138:201|122:203,1,45,8|8,0:0|0:0,0:0:0:0:
73,276,70618,6,0,B|-13:206|39:111,1,180,2|8,1:0|0:0,0:0:0:0:
135,1,71064,1,0,3:0:0:0:
135,1,71139,1,0,3:0:0:0:
135,1,71213,2,0,P|156:47|161:92,1,90,2|0,1:0|0:0,0:0:0:0:
345,273,71510,2,0,P|304:257|231:242,1,90,8|2,0:0|3:1,0:0:0:0:
245,247,71733,1,0,3:0:0:0:
238,238,71807,6,0,B|198:164|264:116,1,135,0|0,1:0|0:0,0:0:0:0:
260,118,72104,1,8,0:0:0:0:
356,21,72253,2,0,P|310:32|261:37,1,90,2|0,0:1|1:0,0:0:0:0:
131,171,72550,6,0,P|154:175|180:179,1,45,2|0,0:0|0:0,0:0:0:0:
238,238,72698,1,8,0:0:0:0:
263,260,72772,1,8,0:0:0:0:
279,294,72846,1,8,0:0:0:0:
274,329,72920,1,8,0:0:0:0:
258,357,72995,2,0,P|212:367|166:378,1,90,2|0,1:0|0:0,0:0:0:0:
0,214,73292,6,0,B|47:291|131:246|131:246,1,135,8|0,0:0|0:0,0:0:0:0:
179,186,73589,1,2,1:0:0:0:
179,186,73663,2,0,P|162:150|148:87,1,90,8|0,0:0|0:0,0:0:0:0:
93,182,73886,1,0,1:0:0:0:
309,274,74034,5,12,0:0:0:0:
309,274,74108,1,0,1:0:0:0:
309,274,74183,2,0,B|400:252|390:307|487:272,1,180,0|8,1:0|0:0,0:0:0:0:
328,363,74628,2,0,P|286:349|219:337,1,90,0|0,0:0|1:2,0:0:0:0:
203,311,74851,1,0,1:0:0:0:
161,341,74925,2,0,P|171:368|176:397,1,45,8|0,0:3|0:0,0:0:0:0:
0,210,75074,2,0,B|38:184|38:184|99:186,1,90,4|4,0:3|0:3,0:0:0:0:
93,177,75297,1,4,0:3:0:0:
107,183,75371,6,0,B|156:267|244:218|244:218,1,144,6|0,1:2|1:0,0:0:0:0:
306,266,75816,1,0,0:0:0:0:
332,120,75964,2,0,P|337:157|356:201,1,72,2|0,1:2|0:0,0:0:0:0:
439,359,76262,2,0,P|444:331|467:281,1,72,2|0,1:2|0:0,0:0:0:0:
468,298,76485,1,0,0:0:0:0:
468,298,76559,6,0,B|433:384|333:349,1,144,2|0,1:2|1:0,0:0:0:0:
216,269,77004,1,0,0:0:0:0:
313,207,77153,2,0,B|299:241|299:241|304:297,1,72,2|0,1:2|0:0,0:0:0:0:
179,370,77450,1,2,1:2:0:0:
183,375,77598,1,0,0:0:0:0:
125,303,77747,6,0,B|36:265|-12:361|-12:361,1,144,2|0,1:2|1:0,0:0:0:0:
65,384,78192,1,0,0:0:0:0:
131,222,78341,2,0,P|121:184|119:140,1,72,0|0,1:2|0:0,0:0:0:0:
25,115,78638,2,0,P|34:153|35:198,1,72,2|0,1:2|0:0,0:0:0:0:
202,71,78935,2,0,P|190:34|186:-4,1,72,0|0,1:2|0:0,0:0:0:0:
376,172,79232,6,0,B|414:249|499:219,1,144,2|0,1:2|1:0,0:0:0:0:
379,293,79677,1,2,0:0:0:0:
290,272,79826,2,0,P|302:305|305:341,1,72,0|0,1:0|0:0,0:0:0:0:
304,341,80049,1,0,0:0:0:0:
304,341,80123,1,0,1:0:0:0:
230,202,80271,5,0,0:0:0:0:
154,235,80420,2,0,B|84:250|54:178|54:178,1,108,2|0,1:2|0:0,0:0:0:0:
62,192,80717,2,0,P|76:159|85:109,1,72,2|0,1:2|0:0,0:0:0:0:
0,243,80940,2,0,P|12:265|16:293,1,36,2|0,0:2|1:0,0:0:0:0:
141,384,81162,6,0,P|147:350|166:301,1,72,2|0,0:2|1:0,0:0:0:0:
234,372,81460,1,0,0:0:0:0:
92,265,81609,1,0,1:0:0:0:
92,265,81757,1,0,0:0:0:0:
170,227,81905,2,0,B|211:243|254:230|278:184,1,108,2|0,1:2|0:0,0:0:0:0:
266,201,82202,2,0,P|287:241|300:272,1,72,2|0,1:2|0:0,0:0:0:0:
382,50,82499,1,0,1:0:0:0:
382,50,82797,6,0,B|302:75|274:0|274:0,1,121.499996292114,2|0,1:2|0:0,0:0:0:0:
278,9,83093,2,0,P|256:60|247:97,1,80.9999975280763,2|0,1:2|0:0,0:0:0:0:
437,204,83391,2,0,P|423:165|412:127,1,80.9999975280763,2|0,1:2|0:0,0:0:0:0:
338,203,83687,5,2,1:2:0:0:
512,287,83836,1,8,0:0:0:0:
512,99,83984,5,8,0:0:0:0:
398,302,84133,1,8,0:0:0:0:
398,302,84207,1,8,0:0:0:0:
398,302,84281,2,0,P|410:346|416:401,1,80.9999975280763,10|8,0:2|0:0,0:0:0:0:
273,233,84579,2,0,P|268:193|253:147,1,80.9999975280763,4|4,1:3|0:3,0:0:0:0:
256,143,84802,1,4,0:3:0:0:
246,138,84876,6,0,B|161:147|181:182|90:181,1,161.999995056153,4|2,1:0|0:0,0:0:0:0:
17,87,85321,1,0,1:0:0:0:
93,38,85470,5,8,0:0:0:0:
29,262,85618,2,0,P|14:216|-6:179,1,80.9999975280763,8|2,0:0|0:0,0:0:0:0:
93,38,85915,6,0,B|179:10|209:100|209:100,1,121.499996292114,0|0,1:0|0:0,0:0:0:0:
241,156,86212,2,0,B|348:202|387:94|387:94,1,161.999995056153,8|0,0:0|1:0,0:0:0:0:
363,247,86658,1,8,0:0:0:0:
437,204,86807,2,0,P|455:232|463:294,1,80.9999975280763,8|2,0:0|0:0,0:0:0:0:
292,101,87104,1,8,0:0:0:0:
227,153,87252,6,0,B|172:57|263:-8|263:-8,1,161.999995056153,4|0,1:2|0:0,0:0:0:0:
129,112,87698,1,0,1:0:0:0:
193,261,87846,1,10,0:0:0:0:
104,212,87995,2,0,P|69:232|30:243,1,80.9999975280763,8|0,0:0|0:0,0:0:0:0:
308,271,88292,6,0,B|359:367|459:318,1,161.999995056153,4|8,1:2|0:0,0:0:0:0:
442,325,88737,1,0,1:0:0:0:
311,175,88886,1,8,0:0:0:0:
311,175,88960,1,8,0:0:0:0:
311,175,89034,2,0,P|268:195|214:205,1,80.9999975280763,10|8,0:0|0:3,0:0:0:0:
253,362,89331,2,0,P|293:366|332:377,1,80.9999975280763,4|4,0:3|0:3,0:0:0:0:
109,279,89628,5,4,1:2:0:0:
109,279,89777,2,0,B|30:209|95:132|95:132,1,161.999995056153,0|0,1:0|1:0,0:0:0:0:
15,291,90222,1,8,0:0:0:0:
167,173,90371,2,0,P|199:184|253:199,1,80.9999975280763,8|2,0:0|0:0,0:0:0:0:
125,48,90668,6,0,B|95:120|16:96|16:96,1,121.499996292114,0|0,1:0|0:0,0:0:0:0:
25,98,90965,2,0,P|14:53|1:20,1,80.9999975280763,8|0,0:0|0:0,0:0:0:0:
173,199,91262,1,0,1:0:0:0:
173,199,91336,1,0,1:0:0:0:
173,199,91410,1,10,0:0:0:0:
0,206,91559,2,0,P|41:187|88:178,1,80.9999975280763,8|0,0:0|0:0,0:0:0:0:
331,69,91856,5,0,1:0:0:0:
331,69,92005,2,0,B|353:127|408:150|473:118,1,161.999995056153,2|2,1:2|0:0,0:0:0:0:
442,51,92450,1,0,1:0:0:0:
285,148,92599,1,8,0:0:0:0:
233,92,92747,2,0,P|249:43|249:-8,1,80.9999975280763,8|0,0:0|0:0,0:0:0:0:
373,176,93044,1,8,0:0:0:0:
295,293,93193,5,0,1:0:0:0:
249,332,93292,1,8,0:0:0:0:
192,313,93391,1,8,0:0:0:0:
116,339,93490,5,0,1:0:0:0:
106,353,93589,1,8,0:3:0:0:
117,362,93688,1,4,0:3:0:0:
0,298,93787,6,0,P|26:294|60:282,1,54,0|0,1:0|0:0,0:0:0:0:
52,285,94084,2,0,B|63:221|63:221|42:173|42:173|58:110,1,175.499991966248,8|0,0:0|0:0,0:0:0:0:
117,38,94381,6,0,P|129:79|142:138,1,90,2|0,1:0|1:0,0:0:0:0:
299,314,94678,1,8,0:0:0:0:
364,253,94826,1,4,0:3:0:0:
364,253,94901,1,4,0:3:0:0:
364,253,94975,2,0,P|348:200|343:158,1,90,8|4,0:3|0:3,0:0:0:0:
251,7,95272,5,8,0:0:0:0:
186,272,95420,1,2,1:3:0:0:
186,272,95717,1,0,1:0:0:0:
74,214,95866,6,0,P|112:210|153:194,1,67.5000025749208,8|8,0:0|0:3,0:0:0:0:
149,202,96089,1,8,0:3:0:0:
152,193,96163,2,0,P|135:146|130:122,1,67.5000025749208,4|4,0:3|0:3,0:0:0:0:
308,256,96460,2,0,P|291:303|286:327,1,67.5000025749208,8|0,0:0|3:0,0:0:0:0:
284,331,96683,1,0,3:0:0:0:
291,342,96757,6,0,P|334:349|381:369,1,90,2|0,1:0|1:0,0:0:0:0:
488,132,97054,2,0,P|495:176|512:217,1,90,8|0,0:0|3:0,0:0:0:0:
512,217,97277,1,0,3:0:0:0:
512,217,97351,5,4,0:3:0:0:
261,127,97500,1,4,0:3:0:0:
421,225,97648,1,8,0:0:0:0:
512,57,97797,1,0,1:3:0:0:
512,57,98094,1,0,1:0:0:0:
435,0,98242,6,0,P|429:48|411:91,1,90,8|8,0:0|0:0,0:0:0:0:
413,86,98465,1,8,0:0:0:0:
413,86,98539,1,10,0:0:0:0:
329,234,98688,1,8,0:3:0:0:
510,225,98836,2,0,B|467:149|384:179|384:179,1,135,4|0,0:3|0:0,0:0:0:0:
333,121,99133,6,0,P|292:136|232:151,1,67.5000025749208,10|0,0:0|0:0,0:0:0:0:
264,164,99282,2,0,P|222:152|163:134,1,67.5000025749208,10|0,0:0|0:0,0:0:0:0:
512,384,100321,6,0,P|498:340|482:283,1,67.5000025749208,10|0,0:0|0:0,0:0:0:0:
469,315,100470,2,0,P|483:271|499:214,1,67.5000025749208,10|0,0:0|0:0,0:0:0:0:
31,0,101509,6,0,P|45:42|61:101,1,67.5000025749208,10|0,0:0|0:0,0:0:0:0:
73,69,101658,2,0,P|58:111|43:170,1,67.5000025749208,10|0,0:0|0:0,0:0:0:0:
326,384,102698,6,0,P|368:370|427:354,1,67.5000025749208,10|0,0:0|0:0,0:0:0:0:
395,341,102847,2,0,P|437:354|496:371,1,67.5000025749208,10|0,0:0|0:0,0:0:0:0:
371,230,103143,5,0,1:0:0:0:
371,230,103217,1,0,1:0:0:0:
371,230,103292,2,0,P|349:171|344:121,1,90,8|4,0:3|0:3,0:0:0:0:
160,20,103589,2,0,P|206:37|257:44,1,90,8|0,0:0|0:0,0:0:0:0:
77,196,103886,5,10,0:0:0:0:
207,254,104034,1,8,0:0:0:0:
268,122,104183,1,0,1:0:0:0:
49,320,104331,6,0,B|-48:255|4:150|4:150,1,180,2|0,0:1|0:0,0:0:0:0:
135,286,104777,2,0,P|126:330|122:375,1,90,2|0,1:2|0:0,0:0:0:0:
268,135,105074,5,2,1:0:0:0:
98,210,105222,1,8,0:0:0:0:
159,43,105371,1,8,0:0:0:0:
250,229,105519,5,2,1:0:0:0:
67,117,105668,1,8,0:0:0:0:
282,53,105816,1,8,0:0:0:0:
192,306,105965,5,2,1:0:0:0:
61,25,106113,1,8,0:0:0:0:
347,154,106262,1,4,1:0:0:0:
256,192,106336,12,0,107450,0:0:0:0:
170,313,108044,5,8,0:0:0:0:
16,48,108193,1,8,0:0:0:0:
16,48,108638,6,0,B|65:127|154:88|154:88,1,141.749995674133,6|0,1:0|0:0,0:0:0:0:
139,92,108935,2,0,P|143:44|154:-2,1,94.499997116089,8|0,0:0|0:0,0:0:0:0:
225,64,109232,5,2,1:2:0:0:
220,71,109307,1,2,0:2:0:0:
47,123,109455,1,2,0:2:0:0:
51,131,109529,1,10,0:2:0:0:
187,244,109678,1,2,0:2:0:0:
347,182,109826,6,0,B|411:220|483:196|513:144,1,188.999994232178,0|8,1:0|0:0,0:0:0:0:
277,220,110272,1,0,0:0:0:0:
201,35,110420,2,0,B|185:81|185:81|194:140,1,94.499997116089,2|0,1:0|0:0,0:0:0:0:
58,329,110717,2,0,B|88:283|65:224,1,94.499997116089,8|0,0:0|3:0,0:0:0:0:
62,231,110940,1,0,3:0:0:0:
68,225,111014,6,0,B|118:347|235:294|235:294,1,188.999994232178,2|8,1:0|0:0,0:0:0:0:
389,220,111460,1,0,0:0:0:0:
330,384,111608,2,0,B|313:340|313:340|318:283,1,94.499997116089,2|0,1:2|0:0,0:0:0:0:
408,320,111831,1,2,0:0:0:0:
413,330,111906,2,0,B|515:357,1,94.499997116089,10|0,0:0|0:0,0:0:0:0:
287,149,112203,6,0,P|245:164|195:174,1,94.499997116089,0|0,1:1|0:0,0:0:0:0:
0,40,112500,1,8,0:0:0:0:
43,23,112574,1,8,0:0:0:0:
89,32,112648,1,8,0:0:0:0:
123,63,112722,1,8,0:0:0:0:
139,112,112797,2,0,B|87:136|73:200|97:254,1,141.749995674133,2|0,1:0|0:0,0:0:0:0:
89,232,113094,2,0,B|141:246|188:270,1,94.499997116089,8|8,0:0|0:0,0:0:0:0:
191,346,113316,5,8,0:0:0:0:
201,352,113391,2,0,B|273:339|273:339|316:349|316:349|404:332,1,188.999994232178,2|8,1:0|0:0,0:0:0:0:
457,369,113836,1,0,0:0:0:0:
507,240,113985,5,2,1:2:0:0:
512,231,114059,1,2,0:2:0:0:
334,121,114208,1,2,0:2:0:0:
330,110,114282,1,10,0:2:0:0:
510,15,114430,1,2,0:2:0:0:
383,225,114579,6,0,B|316:315|200:257,1,188.999994232178,2|8,1:0|0:0,0:0:0:0:
214,263,115173,2,0,P|237:316|237:363,1,94.499997116089,0|8,1:0|0:0,0:0:0:0:
70,137,115470,1,0,1:0:0:0:
0,169,115618,5,8,0:0:0:0:
0,169,115693,1,8,0:0:0:0:
0,169,115767,2,0,B|-44:69|44:30|44:30,1,141.749995674133,2|0,1:0|0:0,0:0:0:0:
25,41,116064,2,0,P|76:56|131:65,1,94.499997116089,8|0,0:0|0:0,0:0:0:0:
342,317,116361,5,2,1:0:0:0:
174,204,116509,1,8,0:0:0:0:
359,114,116658,1,0,1:0:0:0:
264,263,116807,5,8,0:0:0:0:
264,263,116881,1,8,0:0:0:0:
264,263,116955,2,0,B|261:213|261:213|275:166,1,94.499997116089,2|8,1:0|0:0,0:0:0:0:
83,0,117252,2,0,P|87:48|71:93,1,94.499997116089,0|8,1:0|0:0,0:0:0:0:
26,121,117475,1,8,0:0:0:0:
0,171,117549,1,8,0:0:0:0:
23,217,117623,1,8,0:0:0:0:
74,240,117698,2,0,P|99:236|133:220,1,47.2499985580445,8|8,0:3|0:3,0:0:0:0:
156,86,117846,5,4,0:3:0:0:
200,71,117920,1,4,0:3:0:0:
244,80,117994,1,0,1:0:0:0:
276,115,118068,1,0,1:0:0:0:
290,168,118143,2,0,B|204:215|268:308|268:308,1,141.749995674133,6|0,1:0|0:0,0:0:0:0:
258,290,118440,2,0,P|310:301|364:317,1,94.499997116089,8|0,0:0|0:0,0:0:0:0:
484,372,118737,5,2,1:2:0:0:
490,380,118811,1,2,0:2:0:0:
370,228,118960,1,2,0:2:0:0:
364,237,119034,1,10,0:2:0:0:
512,133,119183,1,2,0:2:0:0:
310,29,119331,6,0,B|286:93|210:124|135:78,1,188.999994232178,0|8,1:0|0:0,0:0:0:0:
192,17,119777,1,0,0:0:0:0:
334,138,119925,2,0,B|338:189|358:228,1,94.499997116089,2|0,1:0|0:0,0:0:0:0:
169,384,120222,2,0,P|165:339|149:292,1,94.499997116089,8|0,0:0|3:0,0:0:0:0:
154,284,120445,1,0,3:0:0:0:
149,282,120519,6,0,B|99:357|11:322|11:322,1,141.749995674133,2|0,1:0|0:0,0:0:0:0:
24,325,120816,2,0,P|10:266|-9:231,1,94.499997116089,8|0,0:0|0:0,0:0:0:0:
177,193,121113,2,0,P|194:148|196:97,1,94.499997116089,2|0,1:2|0:0,0:0:0:0:
134,59,121336,1,2,0:0:0:0:
124,54,121410,2,0,P|76:71|30:73,1,94.499997116089,10|0,0:0|0:0,0:0:0:0:
236,300,121708,6,0,P|283:310|338:326,1,94.499997116089,0|0,1:0|0:0,0:0:0:0:
476,345,122005,1,8,0:0:0:0:
503,306,122079,1,8,0:0:0:0:
508,260,122153,1,8,0:0:0:0:
489,217,122227,1,8,0:0:0:0:
452,187,122302,2,0,B|436:235|380:259|327:232,1,141.749995674133,2|0,1:0|0:0,0:0:0:0:
335,236,122599,2,0,P|329:188|315:140,1,94.499997116089,8|8,0:0|0:0,0:0:0:0:
260,83,122821,5,8,0:0:0:0:
252,73,122896,2,0,B|134:132|88:12|88:12,1,188.999994232178,2|8,1:0|0:0,0:0:0:0:
166,0,123341,1,0,0:0:0:0:
19,95,123490,5,2,1:2:0:0:
25,102,123564,1,2,0:2:0:0:
189,169,123712,1,2,0:2:0:0:
198,175,123787,1,10,0:2:0:0:
23,288,123935,1,2,0:2:0:0:
150,305,124084,6,0,B|276:277|309:400|309:400,1,188.999994232178,2|8,1:0|0:0,0:0:0:0:
303,384,124678,1,0,1:0:0:0:
484,268,124827,5,8,0:0:0:0:
424,203,124975,2,0,L|323:234,1,94.499997116089,0|8,1:0|0:0,0:0:0:0:
335,240,125198,1,8,0:0:0:0:
330,252,125272,6,0,B|236:276|204:198|204:198,1,141.749995674133,2|0,1:0|0:0,0:0:0:0:
207,205,125569,2,0,P|220:151|227:112,1,94.499997116089,8|0,0:0|0:0,0:0:0:0:
302,161,125866,1,2,1:0:0:0:
119,242,126014,1,8,0:0:0:0:
284,347,126163,2,0,P|331:363|377:389,1,94.499997116089,0|8,1:0|0:0,0:0:0:0:
370,384,126386,1,8,0:0:0:0:
370,384,126460,5,2,1:0:0:0:
188,197,126608,1,8,0:0:0:0:
412,111,126757,1,0,1:0:0:0:
344,283,126906,5,10,0:0:0:0:
344,283,126980,1,8,0:0:0:0:
344,283,127054,2,0,B|321:232|320:184,1,94.499997116089,2|8,1:2|0:0,0:0:0:0:
42,35,127352,5,4,0:3:0:0:
152,126,127500,1,4,0:3:0:0:
308,87,127649,1,4,1:0:0:0:
308,87,127945,6,0,P|293:44|285:0,1,90,8|0,0:0|1:0,0:0:0:0:
163,228,128242,2,0,P|183:273|192:322,1,90,8|0,0:0|1:0,0:0:0:0:
386,155,128539,2,0,P|394:108|410:63,1,90,8|0,0:0|1:0,0:0:0:0:
143,23,128836,1,4,0:3:0:0:
490,121,129282,5,0,1:0:0:0:
490,121,129356,1,0,1:0:0:0:
490,121,129430,2,0,P|500:155|514:185,1,63,8|0,0:0|0:0,0:0:0:0:
511,180,130024,6,0,B|494:227|438:246|395:224,1,135.000005149842,2|0,1:2|0:0,0:0:0:0:
228,273,130470,2,0,B|245:320|301:339|344:317,1,135.000005149842,2|0,1:2|0:0,0:0:0:0:
411,383,130915,2,0,P|422:334|434:314,1,67.5000025749208,8|0,0:1|0:0,0:0:0:0:
260,165,131212,6,0,P|293:184|349:188,1,67.5000025749208,2|0,1:2|0:0,0:0:0:0:
478,141,131509,1,0,0:0:0:0:
478,141,131658,1,0,1:0:0:0:
427,198,131807,2,0,B|356:140|398:62|398:62,1,135.000005149842,2|8,0:2|0:1,0:0:0:0:
201,0,132401,6,0,B|191:49|128:76|71:42,1,135.000005149842,2|0,1:2|0:0,0:0:0:0:
0,6,132846,2,0,B|48:24|64:80|32:138,1,135.000005149842,2|0,1:2|0:0,0:0:0:0:
121,212,133292,2,0,B|115:176|115:176|132:135,1,67.5000025749208,8|0,0:1|0:0,0:0:0:0:
251,78,133589,5,2,1:2:0:0:
251,78,133737,1,0,0:0:0:0:
309,0,133886,2,0,B|326:32|326:32|328:81,1,67.5000025749208,0|0,0:0|1:0,0:0:0:0:
386,159,134183,2,0,P|423:169|462:185,1,67.5000025749208,2|0,0:2|0:0,0:0:0:0:
512,115,134480,2,0,P|475:105|436:89,1,67.5000025749208,8|0,0:1|0:0,0:0:0:0:
278,183,134777,6,0,B|262:227|291:283|354:281,1,135.000005149842,2|0,1:2|0:0,0:0:0:0:
196,252,135222,2,0,B|149:243|99:282|112:343,1,135.000005149842,2|0,1:2|0:0,0:0:0:0:
258,384,135668,2,0,B|262:350|262:350|242:301,1,67.5000025749208,8|0,0:1|0:0,0:0:0:0:
385,165,135965,6,0,B|381:199|381:199|401:248,1,67.5000025749208,2|0,1:2|0:0,0:0:0:0:
322,260,136262,1,0,0:0:0:0:
322,260,136410,1,0,1:0:0:0:
479,270,136559,2,0,B|426:259|387:285|369:333,1,135.000005149842,2|8,0:2|0:1,0:0:0:0:
124,220,137153,6,0,B|83:142|139:96|139:96,1,135.000005149842,2|0,1:2|0:0,0:0:0:0:
258,0,137599,2,0,B|255:-1|319:45|291:126,1,135.000005149842,2|0,1:2|0:0,0:0:0:0:
350,183,138044,2,0,P|317:197|279:201,1,67.5000025749208,8|0,0:1|0:0,0:0:0:0:
199,383,138341,6,0,P|196:345|181:312,1,67.5000025749208,2|0,1:2|0:0,0:0:0:0:
116,362,138638,2,0,L|45:387,1,67.5000025749208,0|0,0:0|1:0,0:0:0:0:
150,233,138935,2,0,B|178:277|224:298|274:281,1,135.000005149842,2|8,0:2|0:1,0:0:0:0:
376,375,139381,5,0,0:0:0:0:
427,319,139529,2,0,L|408:245,1,67.5,2|0,1:1|1:0,0:0:0:0:
448,167,140123,2,0,B|428:216|371:242|310:214,1,144,2|8,0:0|0:1,0:0:0:0:
242,86,140569,5,0,0:0:0:0:
242,86,140717,2,0,B|231:122|231:122|239:163,1,72,2|0,1:2|0:0,0:0:0:0:
145,300,141014,2,0,B|156:263|156:263|146:223,1,72,0|0,0:0|1:0,0:0:0:0:
26,97,141311,2,0,B|54:145|113:165|176:139,1,144,2|8,0:0|0:1,0:0:0:0:
291,65,141757,5,0,0:0:0:0:
360,0,141906,2,0,P|368:48|383:74,1,72,2|0,1:2|0:0,0:0:0:0:
218,190,142203,2,0,P|231:159|236:115,1,72,0|0,0:0|1:0,0:0:0:0:
345,170,142500,2,0,B|370:218|429:236|483:201,1,144,2|8,0:2|0:1,0:0:0:0:
340,276,142945,5,0,0:0:0:0:
248,240,143094,2,0,P|259:275|267:326,1,72,2|0,1:2|0:0,0:0:0:0:
432,377,143391,2,0,P|396:370|362:359,1,72,0|0,0:0|1:0,0:0:0:0:
150,290,143688,1,2,0:2:0:0:
150,290,143985,5,8,0:1:0:0:
101,144,144133,1,8,0:1:0:0:
185,205,144282,2,0,P|218:214|256:221,1,67.5,2|0,1:1|1:0,0:0:0:0:
369,275,144876,2,0,B|294:214|357:128|357:128,1,144,2|8,0:0|0:1,0:0:0:0:
417,180,145321,5,0,0:0:0:0:
284,299,145470,2,0,P|252:311|207:320,1,72,2|0,1:2|0:0,0:0:0:0:
165,255,145767,2,0,P|197:243|242:234,1,72,0|0,0:0|1:0,0:0:0:0:
120,324,146064,2,0,B|113:368|48:403|-3:371,1,144,2|8,0:2|0:1,0:0:0:0:
79,255,146509,5,0,0:0:0:0:
199,358,146658,2,0,P|229:374|275:382,1,72,2|0,1:2|0:0,0:0:0:0:
323,318,146955,2,0,P|293:302|247:294,1,72,0|0,0:0|1:0,0:0:0:0:
215,174,147252,2,0,B|154:87|239:37|239:37,1,144,2|8,0:2|0:1,0:0:0:0:
154,6,147698,5,0,0:0:0:0:
284,98,147846,1,2,1:2:0:0:
135,196,147995,1,8,0:0:0:0:
135,196,148143,2,0,P|84:212|31:226,1,108,8|8,0:0|0:3,0:0:0:0:
27,233,148440,5,8,0:3:0:0:
135,274,148589,1,8,0:3:0:0:
235,307,148737,1,4,0:3:0:0:
326,344,148886,1,4,0:3:0:0:
401,369,149034,1,0,1:0:0:0:
256,192,149108,12,0,150222,0:0:0:0:
285,19,163292,5,0,1:0:0:0:
285,19,163589,2,0,P|331:41|351:46,1,58.4999973220826,2|0,0:3|0:0,0:0:0:0:
204,95,163886,5,8,0:0:0:0:
204,95,164183,2,0,P|162:113|128:119,1,67.5000025749208,2|0,0:3|0:0,0:0:0:0:
354,200,164480,5,0,1:0:0:0:
354,200,164777,2,0,P|400:222|428:231,1,76.5000014591217,2|0,0:3|0:0,0:0:0:0:
175,335,165074,5,8,0:0:0:0:
175,335,165371,2,0,P|130:354|76:365,1,85.4999977169037,2|0,0:3|0:0,0:0:0:0:
44,282,165668,5,8,0:0:0:0:
172,245,165816,1,8,0:0:0:0:
44,282,165965,5,8,0:0:0:0:
258,327,166113,1,8,0:0:0:0:
44,282,166262,5,8,0:0:0:0:
287,190,166410,1,8,0:0:0:0:
44,282,166559,5,8,0:0:0:0:
361,382,166708,1,8,0:0:0:0:
115,132,166856,5,8,0:0:0:0:
128,119,166930,1,8,0:0:0:0:
146,128,167005,2,0,P|152:161|166:188,1,45,8|8,0:0|0:0,0:0:0:0:
247,296,167153,5,8,0:0:0:0:
287,324,167227,1,8,0:0:0:0:
335,303,167302,2,0,P|346:260|355:239,1,45,8|8,0:0|0:0,0:0:0:0:
265,43,167450,1,8,0:0:0:0:
470,211,168044,6,0,B|543:156|510:78|510:78,1,141.749995674133,6|0,1:0|0:0,0:0:0:0:
512,85,168341,2,0,P|454:72|410:51,1,94.499997116089,8|0,0:0|0:0,0:0:0:0:
249,56,168638,5,2,1:2:0:0:
256,62,168712,1,2,0:2:0:0:
394,150,168861,1,2,0:2:0:0:
399,143,168935,1,10,0:2:0:0:
485,1,169084,1,2,0:2:0:0:
288,158,169232,6,0,B|160:130|131:247|131:247,1,188.999994232178,0|8,1:0|0:0,0:0:0:0:
1,349,169678,1,0,0:0:0:0:
88,384,169826,2,0,P|81:335|58:285,1,94.499997116089,2|0,1:0|0:0,0:0:0:0:
0,134,170123,2,0,P|42:149|112:154,1,94.499997116089,8|0,0:0|3:0,0:0:0:0:
98,163,170346,1,0,3:0:0:0:
106,156,170420,6,0,B|170:135|191:39|117:-18,1,188.999994232178,2|8,1:0|0:0,0:0:0:0:
71,50,170866,1,0,0:0:0:0:
211,222,171014,2,0,P|263:235|312:258,1,94.499997116089,2|0,1:2|0:0,0:0:0:0:
372,181,171237,1,2,0:0:0:0:
372,181,171311,2,0,P|320:168|271:145,1,94.499997116089,10|0,0:0|0:0,0:0:0:0:
13,333,171608,6,0,L|123:310,1,94.499997116089,0|0,1:1|0:0,0:0:0:0:
215,384,171906,1,8,0:0:0:0:
258,356,171980,1,8,0:0:0:0:
274,306,172054,1,8,0:0:0:0:
253,259,172128,1,8,0:0:0:0:
215,231,172203,2,0,B|166:258|110:239|82:183,1,141.749995674133,2|0,1:0|0:0,0:0:0:0:
91,198,172500,2,0,P|105:164|113:141,1,47.2499985580445,8|0,0:0|0:0,0:0:0:0:
4,105,172648,5,8,0:0:0:0:
4,105,172722,1,8,0:0:0:0:
4,105,172797,2,0,B|70:143|144:119|167:50,1,188.999994232178,2|8,1:0|0:0,0:0:0:0:
228,16,173242,1,0,0:0:0:0:
318,104,173391,5,2,1:2:0:0:
323,111,173465,1,2,0:2:0:0:
179,213,173613,1,2,0:2:0:0:
190,219,173688,1,10,0:2:0:0:
354,284,173836,1,2,0:2:0:0:
481,164,173985,6,0,B|555:57|439:-5|439:-5,1,188.999994232178,2|8,1:0|0:0,0:0:0:0:
448,0,174579,2,0,P|390:31|348:31,1,94.499997116089,0|8,1:0|0:0,0:0:0:0:
148,212,174876,2,0,B|159:163|159:163|139:111,1,94.499997116089,0|8,1:0|0:0,0:0:0:0:
137,114,175099,1,8,0:0:0:0:
149,110,175173,6,0,B|173:151|229:169|274:139,1,141.749995674133,2|0,1:0|0:0,0:0:0:0:
272,140,175470,2,0,P|280:74|287:41,1,94.499997116089,8|0,0:0|0:0,0:0:0:0:
360,92,175767,1,2,1:0:0:0:
200,196,175915,1,8,0:0:0:0:
336,334,176064,1,0,1:0:0:0:
440,226,176212,5,8,0:0:0:0:
440,226,176287,1,8,0:0:0:0:
440,226,176361,2,0,P|389:240|345:245,1,94.499997116089,2|8,1:0|0:0,0:0:0:0:
99,366,176658,2,0,P|145:371|191:384,1,94.499997116089,0|8,1:0|0:2,0:0:0:0:
234,368,176881,1,8,0:2:0:0:
264,332,176955,1,8,1:2:0:0:
268,286,177029,1,8,0:2:0:0:
247,245,177103,1,4,0:3:0:0:
16,227,177252,5,4,0:3:0:0:
58,251,177326,1,4,0:3:0:0:
105,250,177400,1,0,1:0:0:0:
144,225,177474,1,0,1:0:0:0:
170,179,177549,2,0,B|109:111|161:39,1,141.749995674133,6|0,1:0|0:0,0:0:0:0:
154,49,177846,2,0,P|199:62|245:72,1,94.499997116089,8|0,0:0|0:0,0:0:0:0:
507,72,178143,5,2,1:2:0:0:
512,65,178217,1,2,0:2:0:0:
365,138,178366,1,2,0:2:0:0:
358,132,178440,1,10,0:2:0:0:
289,2,178589,1,2,0:2:0:0:
463,162,178737,6,0,B|545:217|478:303|478:303,1,141.749995674133,0|0,1:0|0:0,0:0:0:0:
488,286,179034,2,0,P|435:297|387:318,1,94.499997116089,8|0,0:0|0:0,0:0:0:0:
267,384,179331,1,2,1:0:0:0:
267,384,179406,2,0,P|284:334|285:287,1,94.499997116089,8|0,0:0|0:0,0:0:0:0:
204,331,179628,2,0,L|144:348,1,47.2499985580445,8|0,0:0|0:0,0:0:0:0:
0,179,179851,5,8,0:0:0:0:
5,186,179925,2,0,B|49:305|160:253|160:253,1,188.999994232178,2|8,1:0|0:0,0:0:0:0:
204,331,180371,1,0,0:0:0:0:
304,252,180519,5,2,1:2:0:0:
312,245,180594,1,2,0:2:0:0:
125,152,180742,1,2,0:2:0:0:
118,144,180816,1,10,0:2:0:0:
302,46,180965,1,2,0:2:0:0:
226,182,181113,6,0,P|231:133|217:81,1,94.499997116089,0|0,1:0|0:0,0:0:0:0:
65,292,181410,1,8,0:0:0:0:
108,275,181484,1,8,0:0:0:0:
154,281,181558,1,8,0:0:0:0:
192,309,181632,1,8,0:0:0:0:
212,350,181708,2,0,B|252:389|325:362|336:304,1,141.749995674133,2|0,1:0|0:0,0:0:0:0:
330,321,182005,2,0,P|309:271|293:217,1,94.499997116089,8|8,0:0|0:0,0:0:0:0:
344,162,182227,5,8,0:0:0:0:
353,157,182302,2,0,B|410:128|498:172|496:244,1,188.999994232178,2|8,1:0|0:0,0:0:0:0:
389,231,182747,1,0,0:0:0:0:
238,110,182896,5,2,1:2:0:0:
244,101,182970,1,2,0:2:0:0:
323,0,183118,1,2,0:2:0:0:
332,4,183193,1,10,0:2:0:0:
451,45,183341,1,2,0:2:0:0:
209,239,183490,6,0,B|97:163|167:58|167:58,1,188.999994232178,2|8,1:0|0:0,0:0:0:0:
158,74,184084,1,0,1:0:0:0:
4,177,184232,1,8,0:0:0:0:
0,0,184381,1,0,1:0:0:0:
121,188,184529,5,8,0:0:0:0:
121,188,184604,1,8,0:0:0:0:
121,188,184678,2,0,B|141:231|196:249|258:212,1,141.749995674133,2|0,1:0|0:0,0:0:0:0:
243,219,184975,2,0,P|236:166|215:119,1,94.499997116089,8|0,0:0|0:0,0:0:0:0:
330,198,185272,1,2,1:0:0:0:
220,384,185420,1,8,0:0:0:0:
88,276,185569,2,0,P|133:290|182:298,1,94.499997116089,0|8,1:0|0:0,0:0:0:0:
179,298,185792,5,8,0:0:0:0:
179,298,185866,1,2,1:0:0:0:
15,192,186014,1,8,0:0:0:0:
0,384,186163,1,0,1:0:0:0:
136,179,186311,5,10,0:0:0:0:
145,171,186385,1,8,0:0:0:0:
152,163,186459,1,2,1:2:0:0:
157,155,186534,2,0,B|212:73|136:12|136:12,1,141.749995674133,8|4,0:0|0:3,0:0:0:0:
255,253,186906,5,4,0:3:0:0:
255,253,186980,1,4,0:3:0:0:
255,253,187054,2,0,P|304:246|353:225,1,94.4999971160889,4|0,1:0|0:0,0:0:0:0:
345,229,187648,5,8,0:0:0:0:
95,384,187797,1,8,0:0:0:0:
19,146,188242,5,0,1:0:0:0:
19,146,188539,1,8,0:0:0:0:
205,76,188688,1,0,1:0:0:0:
24,41,188836,5,8,0:0:0:0:
193,182,188985,1,0,1:0:0:0:
129,0,189133,5,8,0:0:0:0:
90,222,189282,1,0,1:0:0:0:
111,113,189430,5,8,0:0:0:0:
111,113,189579,1,8,0:3:0:0:
289,52,189727,6,0,P|288:92|303:139,1,90,8|4,0:3|0:3,0:0:0:0:
179,353,190024,2,2,B|188:303|159:259|159:259,1,94.4999971160889,4|0,0:3|0:0,0:0:0:0:
161,263,190618,6,0,B|177:328|246:360|312:329,1,180,6|8,1:0|0:0,0:0:0:0:
361,271,191064,1,0,0:0:0:0:
448,384,191213,2,0,B|421:337|452:294|452:294,1,90,2|0,1:0|0:0,0:0:0:0:
295,73,191509,2,0,B|308:114|308:114|297:174,1,90,8|2,0:0|3:1,0:0:0:0:
305,167,191732,1,0,3:0:0:0:
300,176,191807,6,0,B|247:167|198:181|171:244,1,135,0|0,1:0|0:0,0:0:0:0:
182,222,192104,1,8,0:0:0:0:
45,95,192252,2,0,L|140:124,1,90,2|0,0:1|1:0,0:0:0:0:
347,342,192549,1,0,0:0:0:0:
354,262,192698,2,0,L|268:286,1,90,8|0,0:0|0:0,0:0:0:0:
140,384,192995,6,0,B|65:331|117:255|117:255,1,135,2|0,1:0|0:0,0:0:0:0:
111,265,193292,2,0,P|66:282|15:290,1,90,8|0,0:0|3:0,0:0:0:0:
24,289,193514,1,0,3:0:0:0:
24,289,193589,1,0,1:0:0:0:
177,195,193737,2,0,P|184:153|200:107,1,90,2|8,0:1|0:0,0:0:0:0:
369,310,194034,5,2,3:1:0:0:
369,310,194109,1,0,3:0:0:0:
369,310,194183,2,0,P|419:325|473:330,1,90,0|0,1:0|0:0,0:0:0:0:
246,335,194480,1,8,0:0:0:0:
379,155,194628,1,0,0:0:0:0:
288,133,194777,2,0,L|316:228,1,90,0|0,1:0|0:0,0:0:0:0:
157,320,195074,5,8,0:0:0:0:
157,320,195148,1,8,0:0:0:0:
157,320,195222,2,0,L|102:343,1,45,8|8,0:0|0:0,0:0:0:0:
47,384,195371,6,0,B|11:346|-20:288|38:224,1,180,2|8,1:0|0:0,0:0:0:0:
27,119,195816,1,0,3:0:0:0:
27,119,195891,1,0,3:0:0:0:
27,119,195965,2,0,P|70:139|144:150,1,90,2|0,1:0|0:0,0:0:0:0:
232,384,196262,2,0,P|236:326|260:277,1,90,8|2,0:0|3:1,0:0:0:0:
257,295,196485,1,0,3:0:0:0:
263,303,196559,6,0,B|298:378|380:347|380:347,1,135,0|0,1:0|0:0,0:0:0:0:
376,348,196856,1,8,0:0:0:0:
466,225,197005,2,0,B|452:267|452:267|462:324,1,90,2|0,0:1|1:0,0:0:0:0:
287,194,197302,6,0,L|330:184,1,45,2|0,0:0|0:0,0:0:0:0:
341,60,197450,1,8,0:0:0:0:
357,103,197524,1,8,0:0:0:0:
393,124,197598,1,8,0:0:0:0:
437,127,197672,1,8,0:0:0:0:
480,96,197747,2,0,P|480:43|496:-1,1,90,2|0,1:0|0:0,0:0:0:0:
330,184,198044,2,0,B|285:165|225:193|218:251,1,135,8|0,0:0|0:0,0:0:0:0:
256,309,198341,1,2,1:0:0:0:
264,316,198415,2,0,L|365:345,1,90,8|0,0:0|0:0,0:0:0:0:
350,340,198638,1,0,1:0:0:0:
144,152,198787,5,12,0:0:0:0:
144,152,198861,1,0,1:0:0:0:
144,152,198936,2,0,B|96:272|-14:211|-14:211,1,180,0|8,1:0|0:0,0:0:0:0:
25,146,199381,1,0,0:0:0:0:
183,266,199529,1,8,0:0:0:0:
183,266,199604,1,8,0:0:0:0:
183,266,199678,2,0,L|244:288,1,45,8|8,0:0|0:0,0:0:0:0:
240,370,199826,5,8,0:0:0:0:
279,383,199900,1,8,0:0:0:0:
325,375,199974,1,8,0:0:0:0:
363,350,200048,1,8,0:0:0:0:
389,313,200123,2,0,B|444:226|360:161|360:161,1,141.749995674133,4|0,1:0|0:0,0:0:0:0:
380,181,200420,5,10,0:0:0:0:
482,216,200569,1,0,1:0:0:0:
321,128,200717,5,10,0:0:0:0:
481,113,200866,1,0,1:0:0:0:
262,78,201014,5,8,0:0:0:0:
491,22,201163,1,2,1:2:0:0:
300,221,201311,6,0,L|208:241,1,94.499997116089,8|0,0:0|1:0,0:0:0:0:
117,0,201608,1,8,0:0:0:0:
0,55,201757,2,0,L|92:75,1,94.499997116089,2|8,1:2|0:0,0:0:0:0:
169,152,202054,1,0,1:0:0:0:
188,42,202203,5,8,0:0:0:0:
51,231,202351,1,0,1:0:0:0:
51,231,202425,1,0,1:0:0:0:
51,231,202500,2,0,P|68:283|76:332,1,94.499997116089,8|0,0:0|1:0,0:0:0:0:
352,384,202797,2,0,P|335:332|327:283,1,94.499997116089,10|0,0:2|1:0,0:0:0:0:
116,133,203094,1,8,0:0:0:0:
116,133,203242,2,0,P|133:185|141:234,1,94.499997116089,2|8,1:2|0:0,0:0:0:0:
408,100,203539,5,0,1:0:0:0:
408,100,203613,1,0,1:0:0:0:
408,100,203688,1,10,0:0:0:0:
329,52,203836,1,0,1:0:0:0:
403,179,203985,5,10,0:0:0:0:
252,111,204133,1,0,1:0:0:0:
409,258,204282,5,10,0:0:0:0:
195,196,204430,1,0,1:0:0:0:
432,339,204579,5,10,0:0:0:0:
144,301,204727,1,0,1:0:0:0:
297,382,204876,6,0,B|287:332|287:332|301:285,1,94.499997116089,4|0,1:0|0:0,0:0:0:0:
133,22,205173,2,0,B|164:63|137:116|137:116,1,94.499997116089,10|0,0:0|1:0,0:0:0:0:
230,63,205470,5,10,0:0:0:0:
49,139,205618,1,0,1:0:0:0:
215,252,205767,2,0,L|310:283,1,94.499997116089,8|2,0:0|1:2,0:0:0:0:
42,384,206064,6,0,P|33:332|9:285,1,94.499997116089,8|0,0:0|1:0,0:0:0:0:
15,294,206287,1,0,1:0:0:0:
15,294,206361,1,8,0:0:0:0:
130,102,206509,2,0,P|136:147|164:207,1,94.499997116089,2|8,1:2|0:0,0:0:0:0:
240,372,206807,1,0,1:0:0:0:
396,321,206955,2,0,L|292:294,1,94.499997116089,8|0,0:0|1:0,0:0:0:0:
253,175,207252,5,12,0:0:0:0:
261,171,207401,1,0,1:0:0:0:
174,131,207549,5,12,0:0:0:0:
336,218,207698,1,0,1:0:0:0:
126,215,207846,5,14,0:0:0:0:
381,144,207995,1,0,1:2:0:0:
83,108,208143,5,12,0:0:0:0:
409,303,208292,2,0,P|416:257|445:205,1,94.499997116089,10|0,0:0|1:0,0:0:0:0:
59,302,208589,5,8,0:0:0:0:
227,358,208737,1,8,0:0:0:0:
335,221,208886,1,0,1:0:0:0:
335,221,208960,1,0,1:0:0:0:
335,221,209034,1,8,0:0:0:0:
110,384,209183,5,8,0:0:0:0:
317,322,209331,1,8,0:0:0:0:
290,115,209480,1,8,0:0:0:0:
