osu file format v14

[General]
AudioFilename: audio.mp3
AudioLeadIn: 0
PreviewTime: 60735
Countdown: 0
SampleSet: Soft
StackLeniency: 0.7
Mode: 2
LetterboxInBreaks: 0
WidescreenStoryboard: 1

[Editor]
DistanceSpacing: 0.8
BeatDivisor: 4
GridSize: 32
TimelineZoom: 1.7

[Metadata]
Title:over and over (TV Size)
TitleUnicode:over and over (TV Size)
Artist:yanaginagi
ArtistUnicode:やなぎなぎ
Creator:Jemzuu
Version:platter
Source:Just Because!
Tags:ajamez milan- tasuke912 crowley ohwow opening sentai filmworks pine jam natsume mio komiya ena izumi eita morikawa hatsuki souma haruto
BeatmapID:2228142
BeatmapSetID:698454

[Difficulty]
HPDrainRate:5
CircleSize:3.4
OverallDifficulty:8
ApproachRate:8
SliderMultiplier:1.6
SliderTickRate:2

[Events]
//Background and Video events
0,0,"23119889_p0.jpg",0,0
//Break Periods
2,1483,3155
2,4105,5123
//Storyboard Layer 0 (Background)
//Storyboard Layer 1 (Fail)
//Storyboard Layer 2 (Pass)
//Storyboard Layer 3 (Foreground)
//Storyboard Layer 4 (Overlay)
//Storyboard Sound Samples

[TimingPoints]
1283,327.868852459016,4,2,2,60,1,0
5873,-100,4,2,1,60,0,0
6364,-100,4,2,1,70,0,0
10791,-100,4,2,1,70,0,0
16037,-100,4,2,1,70,0,0
18660,-100,4,2,1,50,0,0
18987,-100,4,2,1,70,0,0
19638,297.029702970297,4,2,2,40,1,0
19786,312.5,4,2,2,40,1,0
19942,300,4,2,2,40,1,0
20092,359.281437125748,4,2,2,40,1,0
20271,315.789473684211,4,2,2,40,1,0
20428,352.941176470588,4,2,2,40,1,0
20604,333.333333333333,4,2,2,40,1,0
21270,317.460317460317,4,2,2,40,1,0
21428,333.333333333333,4,2,2,40,1,0
22265,327.868852459016,4,2,2,50,1,0
22265,-100,4,2,2,50,0,0
30133,-100,4,2,2,50,0,0
30215,-100,4,2,2,20,0,0
30871,-100,4,2,2,5,0,0
30953,-100,4,2,2,50,0,0
32264,-100,4,2,1,50,0,0
32756,-100,4,2,1,70,0,0
33002,-100,4,2,1,5,0,0
33084,-100,4,2,1,70,0,0
34313,-100,4,2,1,5,0,0
34395,-100,4,2,1,70,0,0
35625,-100,4,2,1,5,0,0
35707,-100,4,2,1,70,0,0
38248,-100,4,2,1,5,0,0
38330,-100,4,2,1,70,0,0
39559,-100,4,2,1,5,0,0
39641,-100,4,2,1,70,0,0
40871,-100,4,2,1,5,0,0
40953,-100,4,2,1,70,0,0
61527,-100,4,2,1,5,0,0
61609,-100,4,2,1,80,0,1
71773,-83.3333333333333,4,2,1,80,0,0
72101,-100,4,2,1,80,0,1
86363,-100,4,2,1,80,0,0
86527,-100,4,2,1,50,0,0
87183,-100,4,2,1,30,0,0
87510,-100,4,2,1,25,0,0
87838,-100,4,2,1,15,0,0
88166,-100,4,2,1,8,0,0
88576,-100,4,2,1,5,0,0

[Colours]
Combo1 : 155,205,255
Combo2 : 255,170,255
Combo3 : 255,255,128

[HitObjects]
489,273,1283,5,2,0:0:0:0:
258,198,3905,5,2,0:0:0:0:
28,203,5873,6,0,L|21:119,2,80,0|8|8,3:0|0:0|0:0,0:0:0:0:
257,181,6364,6,0,P|301:207|236:285,1,160,4|2,3:2|3:2,0:0:0:0:
171,288,6856,1,8,0:0:0:0:
406,173,7020,2,0,P|445:137|364:77,1,160,4|2,3:2|3:2,0:0:0:0:
293,53,7512,1,8,0:0:0:0:
60,72,7676,6,0,P|86:127|188:152,1,160,4|2,3:2|3:2,0:0:0:0:
274,148,8168,1,8,0:0:0:0:
101,234,8332,2,0,P|42:253|11:297,1,80,0|4,3:0|3:3,0:0:0:0:
73,303,8578,1,4,3:3:0:0:
120,312,8660,1,0,3:0:0:0:
366,338,8823,5,8,0:0:0:0:
185,351,9151,5,14,0:0:0:0:
324,249,9479,1,8,0:0:0:0:
500,224,9807,2,0,L|486:132,1,80,10|0,0:0|3:2,0:0:0:0:
325,137,10135,2,0,L|311:51,1,80,10|0,0:0|3:2,0:0:0:0:
494,37,10463,6,0,P|472:79|353:126,1,160,10|10,0:0|0:0,0:0:0:0:
183,167,11119,1,10,0:0:0:0:
239,239,11282,1,0,3:2:0:0:
325,258,11446,1,10,0:0:0:0:
33,337,11774,6,0,L|46:165,1,160,10|10,0:0|0:0,0:0:0:0:
290,107,12430,2,0,L|202:95,1,80,10|0,0:0|3:2,0:0:0:0:
43,35,12758,2,0,L|131:21,1,80,10|0,0:0|3:2,0:0:0:0:
306,23,13086,6,0,P|364:44|343:135,1,160,10|10,0:0|0:0,0:0:0:0:
270,151,13578,1,0,0:0:0:0:
181,162,13742,2,0,L|170:260,1,80,10|0,0:0|3:2,0:0:0:0:
343,294,14069,2,0,L|428:302,1,80,10|0,0:0|3:2,0:0:0:0:
176,357,14397,6,0,P|92:344|77:255,1,160,14|10,0:0|0:0,0:0:0:0:
154,236,14889,1,0,0:0:0:0:
332,228,15053,2,0,L|351:120,1,80,10|0,0:0|3:2,0:0:0:0:
240,129,15381,2,0,L|258:42,1,80,10|0,0:0|3:2,0:0:0:0:
447,26,15709,5,10,0:0:0:0:
396,40,15818,1,0,0:0:0:0:
373,88,15927,1,0,0:0:0:0:
398,137,16036,1,10,0:0:0:0:
461,145,16146,1,0,0:0:0:0:
402,171,16255,1,0,0:0:0:0:
332,228,16364,2,0,L|230:208,1,80,10|0,0:0|0:0,0:0:0:0:
434,270,16692,2,0,L|456:353,1,80,10|0,0:0|0:0,0:0:0:0:
202,367,17020,6,0,P|235:322|348:286,1,160,14|0,0:0|3:0,0:0:0:0:
158,239,17512,2,0,P|87:228|48:141,1,160,0|0,3:0|3:0,0:0:0:0:
207,103,18004,2,0,L|302:97,1,80,0|0,3:0|3:0,0:0:0:0:
49,48,18332,6,0,P|28:86|116:149,1,160,12|8,0:0|0:0,0:0:0:0:
189,161,18823,1,8,0:0:0:0:
357,194,18987,1,8,0:0:0:0:
391,211,19068,1,8,0:0:0:0:
404,248,19150,1,8,0:0:0:0:
388,283,19232,1,8,0:0:0:0:
352,298,19314,1,8,0:0:0:0:
109,330,19479,5,10,0:0:0:0:
256,192,19638,12,2,21428,0:0:0:0:
457,361,22265,6,0,L|473:198,1,160,0|0,0:0|0:0,0:0:0:0:
368,220,22756,2,0,L|346:60,1,160,0|0,0:0|0:0,0:0:0:0:
90,33,23576,1,0,0:0:0:0:
228,74,23904,1,0,0:0:0:0:
292,206,24232,1,0,0:0:0:0:
209,324,24560,1,0,0:0:0:0:
47,252,24887,6,0,P|82:206|185:173,1,160,0|0,0:0|0:0,0:0:0:0:
264,173,25379,2,0,L|89:133,1,160,0|0,0:0|0:0,0:0:0:0:
26,82,25871,2,0,L|116:54,1,80,0|0,0:0|0:0,0:0:0:0:
187,72,26199,5,0,0:0:0:0:
111,88,26362,1,0,0:0:0:0:
72,155,26526,1,0,0:0:0:0:
98,229,26690,1,0,0:0:0:0:
170,258,26854,1,0,0:0:0:0:
346,267,27183,1,0,0:0:0:0:
65,358,27510,6,0,P|30:273|170:106,1,320,0|0,0:0|0:0,0:0:0:0:
423,47,28822,2,0,P|293:11|186:143,1,320,0|0,0:0|0:0,0:0:0:0:
174,198,29642,2,0,L|187:279,1,80,0|0,0:0|0:0,0:0:0:0:
486,352,30133,6,0,P|496:280|247:115,1,400,0|0,0:0|0:0,0:0:0:0:
178,71,31117,2,0,L|280:44,1,80,0|0,0:0|0:0,0:0:0:0:
447,51,31609,2,0,L|346:33,1,80,0|0,0:0|0:0,0:0:0:0:
192,130,31937,2,0,P|164:162|246:235,1,160,0|0,0:0|3:0,0:0:0:0:
308,256,32428,1,8,0:0:0:0:
16,321,32756,6,0,P|28:262|132:217,1,160,6|10,3:2|0:0,0:0:0:0:
194,248,33248,2,0,L|213:82,1,160,0|0,0:0|3:2,0:0:0:0:
121,66,33740,1,10,0:2:0:0:
412,48,34068,6,0,P|391:106|296:144,1,160,2|10,3:2|0:2,0:0:0:0:
214,154,34560,2,0,P|205:217|262:308,1,160,0|0,0:0|3:2,0:0:0:0:
342,323,35051,2,0,L|428:310,1,80,10|0,0:2|0:2,0:0:0:0:
236,225,35379,6,0,L|58:212,1,160,2|10,3:2|0:2,0:0:0:0:
172,171,35871,2,0,L|358:132,1,160,0|0,0:0|3:2,0:0:0:0:
238,123,36363,2,0,L|145:106,1,80,10|0,0:2|0:0,0:0:0:0:
338,261,36691,2,0,L|495:230,2,160,2|10|2,3:2|0:2|3:2,0:0:0:0:
405,316,37510,1,0,3:2:0:0:
490,335,37674,1,10,0:2:0:0:
194,365,38002,6,0,L|170:185,1,160,2|10,3:2|0:2,0:0:0:0:
340,146,38658,2,0,L|432:149,2,80,2|0|10,3:2|3:0|0:2,0:0:0:0:
54,33,39314,2,0,P|105:100|192:109,1,160,2|10,3:2|0:2,0:0:0:0:
351,82,39969,2,0,L|438:65,2,80,2|0|10,3:2|3:2|0:2,0:0:0:0:
52,174,40625,6,0,L|239:188,1,160,2|10,3:2|0:2,0:0:0:0:
39,293,41281,2,0,L|19:378,2,80,2|0|10,3:2|3:0|0:2,0:0:0:0:
335,295,41937,1,2,3:2:0:0:
250,288,42101,2,0,P|214:263|270:171,1,160,8|0,0:0|3:0,0:0:0:0:
413,197,42592,2,0,L|434:102,1,80,10|0,0:2|3:0,0:0:0:0:
253,70,42920,2,0,L|154:61,1,80,10|0,0:2|0:0,0:0:0:0:
405,34,43248,5,6,3:2:0:0:
490,75,43412,2,0,P|490:123|382:179,1,160,0|0,0:0|3:0,0:0:0:0:
314,191,43904,2,0,L|306:287,1,80,10|0,2:2|2:0,0:0:0:0:
40,341,44396,2,0,L|205:356,2,160,0|8|0,3:0|2:0|3:0,0:0:0:0:
214,259,45215,2,0,P|233:215|147:156,1,160,10|2,0:2|2:2,0:0:0:0:
74,155,45707,1,0,2:0:0:0:
311,76,45871,6,0,L|403:77,2,80,6|0|2,3:2|0:0|3:2,0:0:0:0:
150,29,46527,2,0,L|55:26,2,80,10|0|2,0:2|0:0|0:2,0:0:0:0:
313,111,47019,2,0,L|319:205,1,80,0|2,3:0|0:2,0:0:0:0:
480,237,47346,2,0,L|486:331,1,80,8|2,0:0|0:2,0:0:0:0:
307,355,47674,1,0,3:0:0:0:
223,335,47838,2,0,L|407:304,1,160,10|2,0:2|0:2,0:0:0:0:
79,279,48494,5,6,3:2:0:0:
30,220,48657,1,0,0:0:0:0:
61,151,48821,1,2,3:2:0:0:
137,148,48985,1,0,3:0:0:0:
312,87,49150,2,0,L|396:76,2,80,10|0|2,0:2|0:0|0:2,0:0:0:0:
134,76,49642,6,0,P|117:127|220:178,1,160,0|0,3:0|3:0,0:0:0:0:
272,219,50133,2,0,L|358:217,1,80,2|0,0:2|3:0,0:0:0:0:
186,312,50461,2,0,L|90:298,1,80,10|0,0:2|3:0,0:0:0:0:
288,362,50789,2,0,L|385:345,1,80,10|0,0:2|0:0,0:0:0:0:
127,153,51117,6,0,L|296:124,2,160,6|10|2,3:2|0:2|3:2,0:0:0:0:
45,141,51937,1,0,3:0:0:0:
116,91,52101,1,10,0:2:0:0:
206,78,52264,1,0,0:0:0:0:
387,111,52428,2,0,P|425:182|395:260,1,160,2|10,3:2|0:2,0:0:0:0:
304,326,52920,2,0,P|279:238|334:178,1,160,0|0,0:0|3:0,0:0:0:0:
468,71,53412,2,0,L|363:62,1,80,10|0,0:2|0:0,0:0:0:0:
153,198,53740,6,0,L|67:207,2,80,12|0|0,0:2|3:0|3:2,0:0:0:0:
329,208,54232,2,0,P|358:246|270:317,1,160,12|0,0:0|3:0,0:0:0:0:
65,334,54724,5,12,0:2:0:0:
236,245,55051,2,0,L|328:224,1,80,8|0,0:0|3:0,0:0:0:0:
137,162,55379,2,0,L|53:153,1,80,8|0,0:0|3:0,0:0:0:0:
167,86,55707,5,4,0:3:0:0:
197,110,55788,1,4,0:3:0:0:
203,149,55870,1,0,3:0:0:0:
182,182,55952,1,0,3:0:0:0:
145,193,56034,1,12,0:0:0:0:
51,230,56199,1,0,0:0:0:0:
295,284,56363,6,0,L|400:299,2,80,12|0|0,0:0|3:0|3:0,0:0:0:0:
132,336,56855,2,0,L|37:344,2,80,12|0|0,0:0|3:0|3:0,0:0:0:0:
374,363,57346,6,0,P|440:344|465:234,1,160,12|8,0:0|0:0,0:0:0:0:
439,236,57756,1,8,0:0:0:0:
394,224,57838,1,0,3:0:0:0:
225,228,58002,2,0,P|190:178|279:133,1,160,8|4,0:0|0:3,0:0:0:0:
341,123,58494,1,0,3:0:0:0:
110,86,58658,1,12,0:0:0:0:
263,69,58986,5,14,0:0:0:0:
339,84,59149,1,10,0:0:0:0:
373,153,59313,1,10,0:0:0:0:
338,222,59477,1,10,0:0:0:0:
262,235,59641,1,10,0:0:0:0:
81,319,59805,2,0,L|172:332,1,80,10|10,0:0|0:0,0:0:0:0:
403,346,60133,5,14,0:0:0:0:
256,192,60297,12,8,61281,0:0:0:0:
488,218,61609,6,0,P|466:169|355:117,1,160,6|10,3:2|0:0,0:0:0:0:
281,135,62101,2,0,L|269:218,1,80,0|2,0:0|3:2,0:0:0:0:
439,261,62428,2,0,L|455:346,1,80,0|10,3:0|0:2,0:0:0:0:
275,344,62756,2,0,L|85:315,1,160,0|0,3:0|3:0,0:0:0:0:
192,314,63247,1,10,0:2:0:0:
224,245,63411,1,0,0:0:0:0:
178,184,63576,2,0,L|70:180,1,80,2|0,3:2|3:0,0:0:0:0:
277,115,63904,2,0,L|379:106,1,80,10|2,0:2|0:0,0:0:0:0:
115,47,64232,6,0,P|75:80|160:129,1,160,2|10,3:2|0:2,0:0:0:0:
295,201,64724,2,0,P|333:234|275:306,1,160,0|0,0:0|3:0,0:0:0:0:
196,317,65215,1,10,0:2:0:0:
21,309,65379,2,0,P|37:261|143:210,1,160,0|0,3:0|3:0,0:0:0:0:
298,201,65871,2,0,P|273:146|173:107,1,160,10|2,0:2|3:2,0:0:0:0:
114,131,66362,1,0,3:0:0:0:
104,207,66526,1,10,0:2:0:0:
167,249,66690,1,0,0:0:0:0:
432,67,66855,6,0,P|472:115|386:172,1,160,6|10,3:2|0:2,0:0:0:0:
239,200,67346,2,0,L|224:299,1,80,0|2,0:0|3:2,0:0:0:0:
328,269,67674,2,0,L|344:353,1,80,0|10,3:0|0:2,0:0:0:0:
154,360,68002,6,0,L|256:356,1,80,0|0,3:0|0:0,0:0:0:0:
279,331,68275,1,0,0:0:0:0:
295,280,68384,1,0,0:0:0:0:
262,224,68493,1,10,0:2:0:0:
196,202,68603,1,0,0:0:0:0:
127,205,68713,1,0,0:0:0:0:
55,258,68822,2,0,L|34:170,1,80,2|0,3:2|0:0,0:0:0:0:
202,120,69150,2,0,L|226:29,1,80,10|0,0:2|0:0,0:0:0:0:
459,196,69478,6,0,L|293:221,2,160,6|10|4,3:2|0:2|0:3,0:0:0:0:
374,167,70297,1,0,3:0:0:0:
200,309,70461,2,0,L|183:201,1,80,10|0,0:2|0:0,0:0:0:0:
427,343,70789,6,0,L|334:335,1,80,6|0,3:2|0:0,0:0:0:0:
115,145,71117,2,0,L|26:142,2,80,14|0|2,0:2|0:0|3:2,0:0:0:0:
286,274,71609,2,0,L|238:291,1,40,0|0,3:0|3:0,0:0:0:0:
198,292,71773,2,0,L|181:169,1,95.9999970703126,10|0,2:0|0:3,0:0:0:0:
426,197,72101,6,0,P|461:151|380:98,1,160,6|10,3:2|0:2,0:0:0:0:
310,96,72592,2,0,L|295:194,1,80,0|2,0:0|3:2,0:0:0:0:
466,233,72920,2,0,L|482:325,1,80,0|10,3:0|0:2,0:0:0:0:
299,353,73248,2,0,P|328:314|447:277,1,160,0|0,3:0|3:0,0:0:0:0:
257,218,73740,2,0,L|94:186,2,160,10|2|10,0:2|3:2|0:2,0:0:0:0:
15,330,74724,6,0,P|35:273|123:233,1,160,2|10,3:2|0:2,0:0:0:0:
216,193,75215,2,0,L|32:156,1,160,0|0,0:0|3:0,0:0:0:0:
151,112,75707,1,10,0:2:0:0:
325,120,75871,6,0,P|350:181|280:243,1,160,0|0,3:0|3:0,0:0:0:0:
217,217,76362,1,10,0:2:0:0:
187,145,76526,1,2,0:0:0:0:
219,75,76690,1,2,3:2:0:0:
294,52,76854,1,0,3:0:0:0:
474,138,77019,2,0,L|388:124,1,80,10|2,0:2|0:0,0:0:0:0:
167,188,77346,6,0,P|133:238|214:288,1,160,6|10,3:2|0:2,0:0:0:0:
366,360,77838,2,0,P|400:323|319:268,1,160,0|0,0:0|3:0,0:0:0:0:
251,270,78330,1,10,0:2:0:0:
23,139,78494,6,0,L|196:117,1,160,4|0,3:2|3:0,0:0:0:0:
94,79,78986,1,10,0:2:0:0:
376,64,79314,2,0,L|263:58,1,80,2|8,3:2|0:0,0:0:0:0:
257,68,79559,1,8,0:0:0:0:
235,100,79641,1,8,0:0:0:0:
241,138,79723,1,0,3:0:0:0:
272,162,79805,1,0,3:0:0:0:
500,273,79969,6,0,L|334:306,2,160,4|10|10,3:2|0:0|0:0,0:0:0:0:
314,348,80953,1,10,0:0:0:0:
27,321,81281,2,0,L|38:230,1,80,10|0,0:0|3:2,0:0:0:0:
204,223,81609,2,0,L|218:120,1,80,10|0,0:0|3:2,0:0:0:0:
387,76,81937,2,0,L|283:71,1,80,10|0,0:0|3:2,0:0:0:0:
129,327,82264,2,0,L|223:315,1,80,14|0,0:0|0:0,0:0:0:0:
455,105,82592,6,0,P|474:145|388:209,1,160,6|10,3:2|0:0,0:0:0:0:
293,190,83084,2,0,L|307:382,1,160,0|0,3:0|3:0,0:0:0:0:
463,322,83576,2,0,L|376:300,1,80,10|0,0:0|3:0,0:0:0:0:
147,208,83904,6,0,L|240:189,1,80,6|8,3:2|0:0,0:0:0:0:
263,168,84150,1,8,0:0:0:0:
226,156,84232,1,10,0:0:0:0:
54,160,84396,2,0,L|26:257,2,80,0|10|0,3:0|0:0|3:0,0:0:0:0:
232,64,84887,2,0,L|325:57,1,80,4|8,0:3|0:0,0:0:0:0:
77,83,85215,6,0,P|30:118|112:162,1,160,6|10,3:2|0:0,0:0:0:0:
172,189,85707,1,0,0:0:0:0:
347,231,85871,2,0,L|271:277,1,80,10|0,0:0|3:0,0:0:0:0:
189,290,86199,1,10,0:0:0:0:
443,353,86363,5,4,3:2:0:0:
256,192,86527,12,0,88576,0:0:0:0:
