osu file format v14

[General]
AudioFilename: audio.mp3
AudioLeadIn: 0
PreviewTime: 60735
Countdown: 0
SampleSet: Soft
StackLeniency: 0.7
Mode: 2
LetterboxInBreaks: 0
WidescreenStoryboard: 1

[Editor]
DistanceSpacing: 0.8
BeatDivisor: 8
GridSize: 32
TimelineZoom: 2.799999

[Metadata]
Title:over and over (TV Size)
TitleUnicode:over and over (TV Size)
Artist:yanaginagi
ArtistUnicode:やなぎなぎ
Creator:Jemzuu
Version:over and overdose
Source:Just Because!
Tags:ajamez milan- tasuke912 crowley ohwow opening sentai filmworks pine jam natsume mio komiya ena izumi eita morikawa hatsuki souma haruto
BeatmapID:1479307
BeatmapSetID:698454

[Difficulty]
HPDrainRate:7
CircleSize:4
OverallDifficulty:9.3
ApproachRate:9.3
SliderMultiplier:1.9
SliderTickRate:2

[Events]
//Background and Video events
0,0,"23119889_p0.jpg",0,0
//Break Periods
//Storyboard Layer 0 (Background)
//Storyboard Layer 1 (Fail)
//Storyboard Layer 2 (Pass)
//Storyboard Layer 3 (Foreground)
//Storyboard Layer 4 (Overlay)
//Storyboard Sound Samples

[TimingPoints]
1283,327.868852459016,4,2,2,60,1,0
5873,-100,4,2,1,60,0,0
6364,-100,4,2,1,70,0,0
10791,-100,4,2,1,70,0,0
16037,-100,4,2,1,70,0,0
18660,-100,4,2,1,50,0,0
18987,-100,4,2,1,70,0,0
19638,297.029702970297,4,2,2,40,1,0
19786,312.5,4,2,2,40,1,0
19942,300,4,2,2,40,1,0
20092,359.281437125748,4,2,2,40,1,0
20271,315.789473684211,4,2,2,40,1,0
20428,352.941176470588,4,2,2,40,1,0
20604,333.333333333333,4,2,2,40,1,0
21270,317.460317460317,4,2,2,40,1,0
21428,333.333333333333,4,2,2,40,1,0
22265,327.868852459016,4,2,2,50,1,0
22265,-111.111111111111,4,2,2,50,0,0
30133,-100,4,2,2,50,0,0
30215,-100,4,2,2,20,0,0
30953,-100,4,2,2,50,0,0
32264,-100,4,2,1,50,0,0
32756,-100,4,2,1,70,0,0
33084,-100,4,2,1,70,0,0
34395,-100,4,2,1,70,0,0
35707,-100,4,2,1,70,0,0
38330,-100,4,2,1,70,0,0
39641,-100,4,2,1,70,0,0
40953,-100,4,2,1,70,0,0
61609,-90.9090909090909,4,2,1,80,0,1
71773,-83.3333333333333,4,2,1,80,0,0
72101,-90.9090909090909,4,2,1,80,0,1
86363,-100,4,2,1,80,0,0
86527,-100,4,2,1,50,0,0
87183,-100,4,2,1,30,0,0
87510,-100,4,2,1,25,0,0
87838,-100,4,2,1,15,0,0
88166,-100,4,2,1,8,0,0
88576,-100,4,2,1,5,0,0

[Colours]
Combo1 : 155,205,255
Combo2 : 255,170,255
Combo3 : 255,255,128

[HitObjects]
207,373,1119,6,0,L|255:359,1,47.5
447,340,1283,6,0,P|474:279|374:192,1,190,2|0,0:0|0:0,0:0:0:0:
253,222,1774,2,0,P|226:161|326:74,1,190,0|0,0:0|0:0,0:0:0:0:
30,39,2430,2,0,L|42:238,1,190,0|0,0:0|0:0,0:0:0:0:
174,161,2922,2,0,L|191:278,1,95,0|0,0:0|0:0,0:0:0:0:
307,200,3250,2,0,L|326:316,1,95,0|0,0:0|0:0,0:0:0:0:
431,258,3578,2,0,L|450:370,1,95,0|0,0:0|0:0,0:0:0:0:
396,361,3823,1,0,0:0:0:0:
204,355,3905,6,0,P|109:339|94:241,1,190,2|0,0:0|0:0,0:0:0:0:
231,174,4397,2,0,L|436:138,1,190,0|0,0:0|0:0,0:0:0:0:
339,82,4889,1,0,0:0:0:0:
234,66,5053,1,0,0:0:0:0:
488,76,5381,1,0,0:0:0:0:
350,109,5545,1,0,0:0:0:0:
487,56,5709,1,0,0:0:0:0:
159,193,5873,6,0,L|260:246,1,95,0|8,3:0|0:0,0:0:0:0:
481,317,6201,1,8,0:0:0:0:
212,355,6364,6,0,P|124:332|133:257,1,142.5,4|0,3:2|0:0,0:0:0:0:
155,254,6692,1,2,3:2:0:0:
292,186,6856,1,8,0:0:0:0:
31,177,7020,6,0,P|90:117|180:106,1,142.5,4|0,3:2|0:0,0:0:0:0:
195,101,7348,1,2,3:2:0:0:
40,49,7512,1,8,0:0:0:0:
344,9,7676,6,0,L|161:-3,1,142.5,4|0,3:2|0:0,0:0:0:0:
142,50,8004,2,0,L|205:55,1,47.5,2|0,3:2|0:0,0:0:0:0:
380,168,8168,2,0,L|452:178,1,47.5,8|8,0:0|0:0,0:0:0:0:
221,222,8332,5,0,3:0:0:0:
196,260,8413,1,0,3:0:0:0:
214,301,8495,1,4,3:3:0:0:
259,309,8577,1,4,3:3:0:0:
460,352,8660,2,0,L|372:344,1,47.5,0|0,3:0|3:0,0:0:0:0:
176,369,8823,2,0,P|94:355|79:270,1,142.5,8|0,0:0|0:0,0:0:0:0:
286,203,9151,6,0,L|402:182,1,95,14|0,0:0|0:0,0:0:0:0:
189,112,9479,2,0,L|318:95,1,95,8|0,0:0|0:0,0:0:0:0:
432,65,9807,1,10,0:0:0:0:
189,112,9971,2,0,L|210:221,1,95,0|10,3:2|0:0,0:0:0:0:
375,279,10299,1,0,3:2:0:0:
86,344,10463,6,0,P|32:312|122:245,1,190,10|10,0:0|0:0,0:0:0:0:
206,205,10955,1,0,0:0:0:0:
457,311,11119,2,0,L|479:177,1,95,10|0,0:0|3:2,0:0:0:0:
224,106,11446,2,0,L|336:90,1,95,10|0,0:0|3:2,0:0:0:0:
52,318,11774,6,0,L|247:294,1,190,10|10,0:0|0:0,0:0:0:0:
121,255,12266,1,0,0:0:0:0:
386,320,12430,2,0,L|400:191,1,95,10|0,0:0|3:2,0:0:0:0:
164,172,12758,2,0,L|152:60,1,95,10|0,0:0|3:2,0:0:0:0:
433,40,13086,6,0,L|239:28,1,190,10|10,0:0|0:0,0:0:0:0:
474,130,13578,2,0,L|490:233,1,95,0|10,0:0|0:0,0:0:0:0:
240,258,13905,2,0,L|224:365,1,95,0|10,3:2|0:0,0:0:0:0:
486,363,14233,1,0,3:2:0:0:
239,257,14397,5,14,0:0:0:0:
180,188,14560,1,0,0:0:0:0:
216,105,14724,1,10,0:0:0:0:
306,101,14888,1,0,0:0:0:0:
128,34,15053,2,0,L|109:152,1,95,10|0,0:0|3:2,0:0:0:0:
286,185,15381,2,0,L|307:298,1,95,10|0,0:0|3:2,0:0:0:0:
249,301,15627,1,0,0:0:0:0:
34,335,15709,6,0,L|79:261,1,63.3333333333333,10|0,0:0|0:0,0:0:0:0:
141,257,15927,1,0,0:0:0:0:
353,133,16037,2,0,L|299:72,1,63.3333333333333,10|0,0:0|0:0,0:0:0:0:
223,69,16255,1,0,0:0:0:0:
432,27,16364,5,10,0:0:0:0:
352,53,16474,1,0,0:0:0:0:
442,111,16583,1,0,0:0:0:0:
225,163,16692,1,10,0:0:0:0:
145,200,16802,1,0,0:0:0:0:
254,248,16911,1,0,0:0:0:0:
21,337,17020,5,14,0:0:0:0:
142,366,17184,2,0,L|154:308,1,47.5,0|0,3:0|0:0,0:0:0:0:
78,302,17348,2,0,L|66:250,1,47.5,0|0,3:0|3:0,0:0:0:0:
281,233,17512,1,0,3:0:0:0:
315,202,17593,1,0,3:0:0:0:
309,157,17675,1,0,3:0:0:0:
270,135,17757,1,0,3:0:0:0:
77,85,17840,2,0,L|-1:75,1,47.5,0|0,3:0|3:0,0:0:0:0:
242,26,18004,2,0,L|325:10,1,47.5,0|0,3:0|3:0,0:0:0:0:
75,162,18168,2,0,L|154:166,1,47.5,0|0,3:0|3:0,0:0:0:0:
371,311,18332,6,0,P|329:264|227:254,1,142.5,12|0,0:0|0:0,0:0:0:0:
192,206,18660,2,0,L|267:191,1,47.5,8|8,0:0|0:0,0:0:0:0:
426,135,18823,2,0,L|385:90,1,47.5,8|8,0:0|0:0,0:0:0:0:
216,103,18987,2,0,L|177:62,1,47.5,8|8,0:0|0:0,0:0:0:0:
417,33,19151,2,0,L|360:4,1,47.5,8|8,0:0|0:0,0:0:0:0:
161,41,19315,2,0,L|100:37,1,47.5,8|8,0:0|0:0,0:0:0:0:
353,167,19479,5,10,0:0:0:0:
295,216,19638,1,0,0:0:0:0:
224,241,19786,1,0,0:0:0:0:
387,233,19942,5,2,0:0:0:0:
309,287,20092,1,0,0:0:0:0:
225,308,20271,1,0,0:0:0:0:
394,304,20428,5,2,0:0:0:0:
298,333,20604,1,0,0:0:0:0:
199,342,20770,1,0,0:0:0:0:
390,351,20937,5,2,0:0:0:0:
283,367,21104,1,0,0:0:0:0:
170,366,21270,1,0,0:0:0:0:
353,167,21428,5,2,0:0:0:0:
47,104,22265,6,0,L|27:195,2,85.4999973907472,0|0|0,0:0|0:0|0:0,0:0:0:0:
208,185,22756,2,0,P|181:238|67:271,1,170.999994781494,0|0,0:0|0:0,0:0:0:0:
343,348,23412,1,0,0:0:0:0:
450,363,23576,2,0,L|475:184,1,170.999994781494,0|0,0:0|0:0,0:0:0:0:
367,169,24068,1,0,0:0:0:0:
186,211,24232,2,0,L|167:113,1,85.4999973907472,0|0,0:0|0:0,0:0:0:0:
303,86,24560,2,0,L|323:-1,1,85.4999973907472,0|0,0:0|0:0,0:0:0:0:
117,26,24887,6,0,P|70:40|36:152,1,170.999994781494,0|0,0:0|0:0,0:0:0:0:
209,288,25379,2,0,L|28:305,1,170.999994781494,0|0,0:0|0:0,0:0:0:0:
135,218,25871,1,0,0:0:0:0:
255,192,26035,1,0,0:0:0:0:
399,357,26199,5,0,0:0:0:0:
447,331,26308,1,2,0:0:0:0:
448,277,26417,1,2,0:0:0:0:
402,248,26526,1,2,0:0:0:0:
303,191,26690,1,0,0:0:0:0:
268,117,26854,1,0,0:0:0:0:
307,44,27018,1,0,0:0:0:0:
470,22,27183,2,0,L|356:13,1,85.4999973907472,0|0,0:0|0:0,0:0:0:0:
197,64,27510,6,0,L|170:241,1,170.999994781494,0|0,0:0|0:0,0:0:0:0:
472,364,28166,2,0,L|444:189,1,170.999994781494,0|0,0:0|0:0,0:0:0:0:
334,163,28658,1,0,0:0:0:0:
165,94,28822,2,0,L|348:70,1,170.999994781494,0|0,0:0|0:0,0:0:0:0:
36,226,29478,2,0,L|25:318,2,85.4999973907472,0|0|0,0:0|0:0|0:0,0:0:0:0:
373,308,30133,6,0,P|254:302|363:81,1,475,0|0,0:0|0:0,0:0:0:0:
465,80,31117,1,0,0:0:0:0:
351,36,31281,1,0,0:0:0:0:
75,78,31609,1,0,0:0:0:0:
187,151,31773,1,0,0:0:0:0:
54,195,31937,1,0,0:0:0:0:
316,322,32264,1,0,3:0:0:0:
142,369,32428,2,0,P|63:360|35:296,1,142.5,8|0,0:0|0:0,0:0:0:0:
274,221,32756,6,0,L|470:205,1,190,6|10,3:2|0:0,0:0:0:0:
301,119,33248,2,0,L|171:117,2,95,0|2|0,0:0|3:2|3:2,0:0:0:0:
472,44,33740,2,0,L|346:34,1,95,10|0,0:2|0:0,0:0:0:0:
124,76,34068,6,0,P|103:151|199:198,1,190,2|10,3:2|0:2,0:0:0:0:
45,230,34560,2,0,L|32:339,1,95,0|2,0:0|3:2,0:0:0:0:
201,355,34887,2,0,L|179:244,1,95,0|10,3:2|0:2,0:0:0:0:
44,206,35215,1,0,0:2:0:0:
309,232,35379,6,0,P|399:198|401:77,1,190,2|10,3:2|0:2,0:0:0:0:
246,56,35871,2,0,L|232:164,1,95,0|2,0:0|3:2,0:0:0:0:
377,200,36199,1,0,3:2:0:0:
199,243,36363,2,0,L|95:260,1,95,10|0,0:2|0:0,0:0:0:0:
386,298,36691,6,0,P|354:246|217:217,1,190,2|10,3:2|0:2,0:0:0:0:
379,164,37183,1,0,0:0:0:0:
236,100,37346,2,0,L|113:79,1,95,2|0,3:2|3:2,0:0:0:0:
399,36,37674,2,0,L|279:14,1,95,10|0,0:2|0:2,0:0:0:0:
35,254,38002,6,0,L|138:248,1,95,2|0,3:2|0:0,0:0:0:0:
292,329,38330,2,0,P|310:268|197:196,1,190,10|2,0:2|3:2,0:0:0:0:
106,146,38822,1,0,3:0:0:0:
224,75,38986,1,10,0:2:0:0:
355,72,39150,1,0,0:2:0:0:
108,311,39314,6,0,L|-8:301,1,95,2|0,3:2|0:0,0:0:0:0:
186,363,39642,2,0,L|393:342,1,190,10|2,0:2|3:2,0:0:0:0:
257,306,40133,1,0,3:2:0:0:
433,261,40297,2,0,L|450:156,1,95,10|0,0:2|0:2,0:0:0:0:
172,108,40625,6,0,L|285:93,1,95,2|0,3:2|0:0,0:0:0:0:
424,71,40953,2,0,P|387:28|251:2,1,190,10|2,0:2|3:2,0:0:0:0:
366,111,41445,1,0,3:0:0:0:
493,145,41609,1,10,0:2:0:0:
257,328,41773,5,0,0:0:0:0:
392,280,41937,1,2,3:2:0:0:
211,235,42101,2,0,P|135:232|61:139,1,190,8|0,0:0|3:0,0:0:0:0:
365,323,42592,2,0,L|388:211,1,95,10|0,0:2|3:0,0:0:0:0:
63,150,42920,2,0,L|41:41,1,95,10|0,0:2|0:0,0:0:0:0:
341,35,43248,5,6,3:2:0:0:
186,99,43412,2,0,L|313:113,1,95,0|2,0:0|3:2,0:0:0:0:
436,122,43740,1,0,3:0:0:0:
202,229,43904,1,10,2:2:0:0:
358,315,44068,2,0,L|246:332,1,95,0|2,2:0|0:2,0:0:0:0:
29,350,44396,6,0,L|37:251,1,95,0|2,3:0|0:2,0:0:0:0:
202,229,44724,2,0,L|213:121,1,95,8|2,2:0|0:2,0:0:0:0:
468,88,45051,1,0,3:0:0:0:
326,44,45215,2,0,L|203:30,1,95,10|0,0:2|2:0,0:0:0:0:
354,152,45543,1,2,2:2:0:0:
491,191,45707,1,0,2:0:0:0:
210,341,45871,5,6,3:2:0:0:
300,328,46034,1,0,0:0:0:0:
338,245,46198,1,2,3:2:0:0:
289,169,46362,1,0,3:0:0:0:
133,151,46527,1,10,0:2:0:0:
312,96,46691,2,0,L|310:-6,1,95,0|2,0:0|0:2,0:0:0:0:
45,45,47019,6,0,L|154:28,1,95,0|2,3:0|0:2,0:0:0:0:
405,300,47346,2,0,L|294:293,1,95,8|2,0:0|0:2,0:0:0:0:
25,350,47674,1,0,3:0:0:0:
180,349,47838,2,0,L|201:246,1,95,10|0,0:2|0:0,0:0:0:0:
374,213,48166,2,0,L|405:92,1,95,2|0,0:2|3:0,0:0:0:0:
144,22,48494,5,6,3:2:0:0:
97,99,48657,1,0,0:0:0:0:
143,178,48821,1,2,3:2:0:0:
233,176,48985,1,0,3:0:0:0:
67,304,49150,2,0,L|190:284,1,95,10|0,0:2|0:0,0:0:0:0:
19,222,49478,1,2,0:2:0:0:
290,351,49642,6,0,L|311:251,1,95,0|2,3:0|0:2,0:0:0:0:
137,202,49969,2,0,L|119:93,1,95,0|2,3:0|0:2,0:0:0:0:
381,75,50297,1,0,3:0:0:0:
234,37,50461,2,0,L|115:23,1,95,10|0,0:2|3:0,0:0:0:0:
429,191,50789,2,0,P|449:258|360:299,1,142.5,10|0,0:2|0:0,0:0:0:0:
153,338,51117,6,0,L|48:324,1,95,6|0,3:2|0:0,0:0:0:0:
227,267,51445,1,10,0:2:0:0:
96,228,51609,1,0,0:0:0:0:
346,169,51773,2,0,L|483:145,1,95,2|0,3:2|3:0,0:0:0:0:
171,75,52101,2,0,L|282:58,1,95,10|0,0:2|0:0,0:0:0:0:
497,241,52428,6,0,L|279:253,1,190,2|10,3:2|0:2,0:0:0:0:
468,356,52920,2,0,L|488:253,1,95,0|2,0:0|3:2,0:0:0:0:
241,170,53248,1,0,3:0:0:0:
491,92,53412,2,0,P|478:25|397:-19,1,142.5,10|0,0:2|0:0,0:0:0:0:
194,263,53740,5,12,0:2:0:0:
291,282,53904,1,0,3:0:0:0:
22,353,54068,1,0,3:2:0:0:
323,185,54232,5,12,0:0:0:0:
195,162,54396,1,0,3:2:0:0:
464,201,54560,1,0,3:0:0:0:
163,75,54724,6,0,L|287:56,1,95,12|0,0:2|3:0,0:0:0:0:
407,74,55051,1,8,0:0:0:0:
438,112,55132,1,8,0:0:0:0:
424,160,55214,1,0,3:0:0:0:
378,181,55296,1,0,3:0:0:0:
185,225,55379,6,0,L|209:280,1,47.5,8|8,0:0|0:0,0:0:0:0:
284,273,55543,2,0,L|312:320,1,47.5,0|0,3:0|3:0,0:0:0:0:
109,340,55707,2,0,L|40:349,1,47.5,4|4,0:3|0:3,0:0:0:0:
263,370,55871,2,0,L|348:384,1,47.5,0|0,3:0|3:0,0:0:0:0:
88,256,56035,2,0,P|31:219|86:138,1,142.5,12|0,0:0|0:0,0:0:0:0:
318,263,56363,5,12,0:0:0:0:
221,282,56527,1,0,3:0:0:0:
490,353,56691,1,0,3:0:0:0:
184,186,56855,5,12,0:0:0:0:
312,163,57019,1,0,3:0:0:0:
48,201,57183,1,0,3:0:0:0:
349,75,57347,6,0,L|225:56,1,95,12|0,0:0|3:0,0:0:0:0:
117,75,57674,2,0,L|192:68,1,47.5,8|8,0:0|0:0,0:0:0:0:
335,158,57838,2,0,L|270:163,1,47.5,0|0,3:0|3:0,0:0:0:0:
49,213,58002,1,8,0:0:0:0:
23,251,58083,1,8,0:0:0:0:
37,294,58165,1,0,3:0:0:0:
80,310,58247,1,0,3:0:0:0:
275,358,58330,2,0,L|331:357,1,47.5,4|4,0:3|0:3,0:0:0:0:
127,315,58494,2,0,L|47:305,1,47.5,0|0,3:0|0:0,0:0:0:0:
336,257,58658,6,0,L|500:237,1,142.5,12|0,0:0|0:0,0:0:0:0:
264,167,58986,5,14,0:0:0:0:
123,132,59150,1,10,0:0:0:0:
254,74,59314,1,10,0:0:0:0:
408,58,59478,1,10,0:0:0:0:
161,22,59642,1,10,0:0:0:0:
326,6,59805,1,10,0:0:0:0:
30,132,59969,1,10,0:0:0:0:
336,257,60133,1,14,0:0:0:0:
256,192,60215,12,8,61281,0:0:0:0:
428,273,61609,6,0,P|454:202|332:135,1,209.000006378174,6|10,3:2|0:0,0:0:0:0:
110,61,62101,2,0,L|222:38,1,104.500003189087,0|2,0:0|3:2,0:0:0:0:
453,343,62428,2,0,L|328:325,1,104.500003189087,0|10,3:0|0:2,0:0:0:0:
87,228,62756,2,0,L|307:188,1,209.000006378174,0|0,3:0|3:0,0:0:0:0:
131,148,63248,6,0,L|108:43,1,104.500003189087,10|0,0:2|0:0,0:0:0:0:
285,80,63576,2,0,L|312:-35,1,104.500003189087,2|0,3:2|3:0,0:0:0:0:
139,30,63904,1,10,0:2:0:0:
122,78,63985,1,0,0:0:0:0:
148,121,64067,1,2,0:0:0:0:
198,129,64149,1,2,0:0:0:0:
19,291,64232,6,0,L|43:183,1,104.500003189087,2|0,3:2|0:0,0:0:0:0:
169,140,64560,1,10,0:2:0:0:
427,135,64724,1,0,0:0:0:0:
303,95,64887,1,2,3:2:0:0:
447,48,65051,1,0,3:0:0:0:
203,26,65215,1,10,0:2:0:0:
463,213,65379,6,0,L|443:328,1,104.500003189087,0|0,3:0|0:0,0:0:0:0:
319,349,65707,1,0,3:0:0:0:
73,270,65871,2,0,L|183:259,1,104.500003189087,10|0,0:2|0:0,0:0:0:0:
426,186,66199,1,2,3:2:0:0:
176,138,66363,1,0,3:0:0:0:
317,102,66527,1,10,0:2:0:0:
48,66,66691,1,0,0:0:0:0:
319,292,66855,6,0,L|100:258,1,209.000006378174,6|10,3:2|0:2,0:0:0:0:
265,215,67346,2,0,L|282:105,1,104.500003189087,0|2,0:0|3:2,0:0:0:0:
112,82,67674,2,0,L|92:-30,1,104.500003189087,0|10,3:0|0:2,0:0:0:0:
370,16,68002,2,0,P|425:50|341:142,1,209.000006378174,0|0,3:0|3:0,0:0:0:0:
301,144,68412,1,0,0:0:0:0:
471,219,68494,6,0,L|408:274,1,69.6666687927247,10|0,0:2|0:0,0:0:0:0:
333,265,68713,1,0,0:0:0:0:
435,381,68822,2,0,L|355:342,1,69.6666687927247,2|0,3:2|0:0,0:0:0:0:
280,335,69040,1,0,0:0:0:0:
51,349,69150,2,0,P|26:285|99:231,1,156.750004783631,10|0,0:2|0:0,0:0:0:0:
311,151,69478,6,0,L|207:131,1,104.500003189087,6|0,3:2|0:0,0:0:0:0:
338,60,69805,1,10,0:2:0:0:
173,53,69969,1,4,3:0:0:0:
228,26,70050,1,4,3:0:0:0:
287,22,70132,1,4,3:0:0:0:
34,158,70297,1,0,3:0:0:0:
280,284,70461,1,10,0:2:0:0:
150,312,70625,1,0,0:0:0:0:
417,16,70789,6,0,P|392:87|312:113,1,156.750004783631,6|0,3:2|0:0,0:0:0:0:
90,219,71117,2,0,P|124:155|226:137,1,156.750004783631,14|0,0:2|0:0,0:0:0:0:
425,232,71445,1,2,3:2:0:0:
278,293,71609,2,0,L|210:288,1,52.2500015945435,0|0,3:0|3:0,0:0:0:0:
425,350,71773,2,0,L|484:340,1,56.9999982604981,10|0,2:0|0:0,0:0:0:0:
212,369,71937,2,0,L|139:360,1,56.9999982604981,0|0,3:0|3:0,3:0:0:0:
425,232,72101,6,0,P|465:170|364:99,1,209.000006378174,6|10,3:2|0:2,0:0:0:0:
216,173,72592,2,0,L|224:50,1,104.500003189087,0|2,0:0|3:2,0:0:0:0:
370,15,72920,1,0,3:0:0:0:
109,235,73084,1,10,0:2:0:0:
381,345,73248,6,0,L|150:348,1,209.000006378174,0|0,3:0|3:0,0:0:0:0:
354,286,73740,2,0,L|379:172,1,104.500003189087,10|0,0:2|0:0,0:0:0:0:
205,176,74068,2,0,L|214:53,1,104.500003189087,2|0,3:2|3:0,0:0:0:0:
37,122,74396,2,0,L|25:2,1,104.500003189087,10|0,0:2|0:0,0:0:0:0:
288,257,74724,5,2,3:2:0:0:
166,313,74887,1,0,0:0:0:0:
32,332,75051,1,10,0:2:0:0:
296,160,75215,1,0,0:0:0:0:
168,127,75379,1,2,3:2:0:0:
301,66,75543,1,0,3:0:0:0:
448,58,75707,1,10,0:2:0:0:
182,294,75871,6,0,L|48:289,2,104.500003189087,0|0|0,3:0|0:0|3:0,0:0:0:0:
244,314,76281,1,0,0:0:0:0:
430,337,76363,1,10,0:2:0:0:
375,333,76444,1,0,0:0:0:0:
348,285,76526,1,0,0:0:0:0:
374,237,76608,1,0,0:0:0:0:
424,218,76691,1,2,3:2:0:0:
479,221,76772,1,0,0:0:0:0:
426,183,76854,5,0,3:0:0:0:
362,174,76936,1,0,0:0:0:0:
139,151,77019,2,0,L|197:112,1,52.2500015945435,10|0,0:2|0:0,0:0:0:0:
412,29,77183,2,0,L|341:18,1,52.2500015945435,2|0,0:0|0:0,0:0:0:0:
84,56,77346,6,0,L|131:164,1,104.500003189087,6|0,3:2|0:0,0:0:0:0:
282,223,77674,1,10,0:2:0:0:
26,338,77838,2,0,L|166:353,1,104.500003189087,0|2,0:0|3:2,0:0:0:0:
382,299,78166,1,0,3:0:0:0:
127,232,78330,1,10,0:2:0:0:
416,143,78494,6,0,L|203:85,1,209.000006378174,4|0,3:2|3:0,0:0:0:0:
385,41,78986,2,0,L|509:36,1,104.500003189087,10|0,0:2|0:0,0:0:0:0:
330,149,79314,2,0,L|258:149,1,52.2500015945435,2|0,3:2|0:0,0:0:0:0:
334,185,79478,2,0,L|402:199,1,52.2500015945435,8|8,0:0|0:0,0:0:0:0:
185,334,79642,2,0,L|119:345,1,52.2500015945435,8|0,0:0|3:0,0:0:0:0:
375,239,79805,2,0,L|450:253,1,52.2500015945435,0|0,3:0|3:0,0:0:0:0:
150,229,79969,6,0,L|16:217,1,104.500003189087,4|0,3:2|0:0,0:0:0:0:
196,115,80297,2,0,L|315:112,1,104.500003189087,10|0,0:0|3:2,0:0:0:0:
16,46,80625,2,0,L|140:36,1,104.500003189087,10|0,0:0|3:2,0:0:0:0:
378,35,80953,1,10,0:0:0:0:
233,20,81117,1,0,3:2:0:0:
492,172,81281,6,0,L|498:289,1,104.500003189087,10|0,0:0|3:2,0:0:0:0:
180,234,81609,2,0,L|167:363,1,104.500003189087,10|0,0:0|3:2,0:0:0:0:
424,342,81937,1,10,0:0:0:0:
147,366,82101,1,0,3:2:0:0:
453,318,82264,2,0,P|486:274|394:213,1,156.750004783631,14|0,0:0|0:0,0:0:0:0:
149,187,82592,6,0,L|225:101,1,104.500003189087,6|0,3:2|0:0,0:0:0:0:
360,87,82920,1,10,0:0:0:0:
109,247,83084,2,0,L|217:208,1,104.500003189087,0|10,3:0|0:0,0:0:0:0:
363,237,83412,1,0,3:0:0:0:
83,311,83576,2,0,L|212:301,1,104.500003189087,10|0,0:0|3:0,0:0:0:0:
454,353,83904,5,6,3:2:0:0:
307,357,84068,1,8,0:0:0:0:
255,352,84149,1,8,0:0:0:0:
203,348,84231,1,10,0:0:0:0:
491,239,84396,6,0,L|383:224,1,104.500003189087,0|10,3:0|0:0,0:0:0:0:
238,257,84724,1,0,3:0:0:0:
211,204,84805,1,0,3:0:0:0:
234,149,84887,1,4,0:3:0:0:
291,132,84969,1,4,0:3:0:0:
80,102,85051,2,0,L|13:95,1,52.2500015945435,8|8,0:0|0:0,0:0:0:0:
316,219,85215,6,0,L|444:228,1,104.500003189087,6|0,3:2|0:0,0:0:0:0:
137,335,85543,2,0,L|9:350,1,104.500003189087,10|0,0:0|0:0,0:0:0:0:
307,328,85871,1,10,0:0:0:0:
159,256,86035,1,0,3:0:0:0:
423,223,86199,1,10,0:0:0:0:
38,147,86363,5,4,3:2:0:0:
256,192,86445,12,0,88576,0:0:0:0:
