osu file format v14

[General]
AudioFilename: audio.mp3
AudioLeadIn: 0
PreviewTime: 60735
Countdown: 0
SampleSet: Soft
StackLeniency: 0.7
Mode: 2
LetterboxInBreaks: 0
WidescreenStoryboard: 1

[Editor]
DistanceSpacing: 0.8
BeatDivisor: 4
GridSize: 32
TimelineZoom: 1.7

[Metadata]
Title:over and over (TV Size)
TitleUnicode:over and over (TV Size)
Artist:yanaginagi
ArtistUnicode:やなぎなぎ
Creator:Jemzuu
Version:cup
Source:Just Because!
Tags:ajamez milan- tasuke912 crowley ohwow opening sentai filmworks pine jam natsume mio komiya ena izumi eita morikawa hatsuki souma haruto
BeatmapID:1479306
BeatmapSetID:698454

[Difficulty]
HPDrainRate:3
CircleSize:2.8
OverallDifficulty:6
ApproachRate:6
SliderMultiplier:1.2
SliderTickRate:1

[Events]
//Background and Video events
0,0,"23119889_p0.jpg",0,0
//Break Periods
2,1483,2855
2,4105,4823
//Storyboard Layer 0 (Background)
//Storyboard Layer 1 (Fail)
//Storyboard Layer 2 (Pass)
//Storyboard Layer 3 (Foreground)
//Storyboard Layer 4 (Overlay)
//Storyboard Sound Samples

[TimingPoints]
1283,327.868852459016,4,2,2,60,1,0
5873,-100,4,2,1,60,0,0
6364,-100,4,2,1,70,0,0
18660,-100,4,2,1,50,0,0
18987,-100,4,2,1,70,0,0
19638,297.029702970297,4,2,2,40,1,0
19786,312.5,4,2,2,40,1,0
19942,300,4,2,2,40,1,0
20092,359.281437125748,4,2,2,40,1,0
20271,315.789473684211,4,2,2,40,1,0
20428,352.941176470588,4,2,2,40,1,0
20604,333.333333333333,4,2,2,40,1,0
21270,317.460317460317,4,2,2,40,1,0
21428,333.333333333333,4,2,2,40,1,0
22265,327.868852459016,4,2,2,50,1,0
22265,-125,4,2,2,50,0,0
30133,-142.857142857143,4,2,2,50,0,0
30953,-125,4,2,2,50,0,0
32264,-125,4,2,1,50,0,0
32756,-100,4,2,1,70,0,0
33002,-100,4,2,1,5,0,0
33084,-100,4,2,1,70,0,0
34313,-100,4,2,1,5,0,0
34395,-100,4,2,1,70,0,0
35625,-100,4,2,1,5,0,0
35707,-100,4,2,1,70,0,0
38248,-100,4,2,1,5,0,0
38330,-100,4,2,1,70,0,0
39559,-100,4,2,1,5,0,0
39641,-100,4,2,1,70,0,0
40871,-100,4,2,1,5,0,0
40953,-100,4,2,1,70,0,0
61527,-100,4,2,1,5,0,0
61609,-90.9090909090909,4,2,1,80,0,1
71773,-71.4285714285714,4,2,1,80,0,0
72101,-90.9090909090909,4,2,1,80,0,1
86363,-100,4,2,1,80,0,0
86527,-100,4,2,1,50,0,0
87183,-100,4,2,1,30,0,0
87510,-100,4,2,1,25,0,0
87838,-100,4,2,1,15,0,0
88166,-100,4,2,1,8,0,0
88576,-100,4,2,1,5,0,0

[Colours]
Combo1 : 155,205,255
Combo2 : 255,170,255
Combo3 : 255,255,128

[HitObjects]
257,200,1283,5,2,0:0:0:0:
490,200,3905,5,2,0:0:0:0:
90,257,5873,6,0,L|20:266,2,60,0|8|8,3:0|0:0|0:0,0:0:0:0:
162,291,6364,6,0,L|179:158,1,120,4|2,3:2|3:2,0:0:0:0:
319,166,7020,6,0,L|341:32,1,120,4|2,3:2|3:2,0:0:0:0:
483,264,7676,6,0,L|350:278,1,120,4|2,3:2|3:2,0:0:0:0:
299,306,8168,1,8,0:0:0:0:
361,335,8332,1,0,3:0:0:0:
494,186,8660,2,0,L|418:180,1,60,0|8,3:0|0:0,0:0:0:0:
276,50,9151,5,14,0:0:0:0:
381,97,9479,1,8,0:0:0:0:
417,209,9807,1,10,0:0:0:0:
347,307,10135,1,10,0:0:0:0:
229,324,10463,6,0,L|218:188,1,120,10|10,0:0|0:0,0:0:0:0:
85,190,11119,2,0,L|64:59,1,120,10|10,0:0|0:0,0:0:0:0:
200,55,11774,6,0,L|329:68,2,120,10|10|10,0:0|0:0|0:0,0:0:0:0:
68,92,12758,1,10,0:0:0:0:
211,187,13086,6,0,L|348:204,1,120,10|10,0:0|0:0,0:0:0:0:
463,332,13742,2,0,L|324:346,1,120,10|10,0:0|0:0,0:0:0:0:
192,348,14397,6,0,L|170:215,1,120,14|10,0:0|0:0,0:0:0:0:
214,195,14889,1,0,0:0:0:0:
270,178,15053,1,10,0:0:0:0:
148,111,15381,1,10,0:0:0:0:
12,118,15709,6,0,L|28:256,1,120,10|10,0:0|0:0,0:0:0:0:
169,225,16364,2,0,L|190:356,1,120,10|10,0:0|0:0,0:0:0:0:
336,348,17020,6,0,P|282:354|197:272,2,180,14|0|0,0:0|3:0|3:0,0:0:0:0:
490,183,18332,6,0,L|364:170,1,120,12|8,0:0|0:0,0:0:0:0:
253,122,18987,1,8,0:0:0:0:
383,73,19315,1,8,0:0:0:0:
256,192,19638,12,0,21428,0:0:0:0:
401,53,22265,6,0,P|421:100|396:148,1,96,0|0,0:0|0:0,0:0:0:0:
354,159,22756,1,0,0:0:0:0:
126,253,23576,1,0,0:0:0:0:
224,308,23904,6,0,L|333:319,2,96,0|0|0,0:0|0:0|0:0,0:0:0:0:
114,347,24887,6,0,P|72:342|133:234,1,240,0|0,0:0|0:0,0:0:0:0:
177,233,25871,1,0,0:0:0:0:
298,223,26199,6,0,L|459:189,2,144,0|0|0,0:0|0:0|0:0,0:0:0:0:
185,281,27510,6,0,L|161:77,1,192,0|0,0:0|0:0,0:0:0:0:
392,161,28822,2,0,L|383:366,1,192,0|0,0:0|0:0,0:0:0:0:
180,354,30133,6,0,P|121:359|93:233,1,209.999993591309,0|0,0:0|0:0,0:0:0:0:
131,195,31117,1,0,0:0:0:0:
190,179,31281,1,0,0:0:0:0:
316,163,31609,6,0,L|331:110,2,48,0|0|0,0:0|0:0|0:0,0:0:0:0:
180,138,32264,2,0,L|168:91,1,48,0|8,3:0|0:0,0:0:0:0:
8,42,32756,6,0,L|141:23,1,120,6|10,3:2|0:0,0:0:0:0:
255,100,33412,2,0,L|271:228,1,120,2|10,3:2|0:2,0:0:0:0:
410,328,34068,6,0,L|435:205,1,120,2|10,3:2|0:2,0:0:0:0:
296,149,34724,2,0,L|170:127,1,120,2|10,3:2|0:2,0:0:0:0:
321,49,35379,6,0,L|450:38,2,120,2|10|2,3:2|0:2|3:2,0:0:0:0:
267,82,36199,1,0,3:2:0:0:
319,118,36363,1,10,0:2:0:0:
458,165,36691,6,0,P|483:211|458:280,1,120,2|10,3:2|0:2,0:0:0:0:
338,316,37346,1,2,3:2:0:0:
461,368,37674,1,10,0:2:0:0:
323,371,38002,6,0,L|192:363,1,120,2|10,3:2|0:2,0:0:0:0:
69,289,38658,1,2,3:2:0:0:
177,238,38986,1,10,0:2:0:0:
316,219,39314,6,0,L|444:202,1,120,2|10,3:2|0:2,0:0:0:0:
315,113,39969,1,2,3:2:0:0:
255,105,40132,1,0,3:2:0:0:
195,98,40296,1,10,0:2:0:0:
56,148,40625,6,0,P|46:211|88:276,1,120,2|10,3:2|0:2,0:0:0:0:
195,311,41281,1,2,3:2:0:0:
71,356,41609,1,10,0:2:0:0:
218,357,41937,6,0,L|235:284,1,60,2|8,3:2|0:0,0:0:0:0:
425,217,42592,1,10,0:2:0:0:
294,174,42920,1,10,0:2:0:0:
434,105,43248,6,0,P|479:113|481:233,1,180,6|0,3:2|3:0,0:0:0:0:
424,256,43904,1,10,2:2:0:0:
238,288,44396,6,0,L|111:264,2,120,0|8|0,3:0|2:0|3:0,0:0:0:0:
299,285,45215,1,10,0:2:0:0:
163,357,45543,2,0,L|92:370,1,60,2|0,2:2|2:0,0:0:0:0:
42,367,45871,6,0,L|28:236,1,120,6|2,3:2|3:2,0:0:0:0:
144,212,46527,2,0,L|155:145,1,60,10|0,0:2|0:0,0:0:0:0:
299,93,47019,6,0,L|174:75,1,120,0|8,3:0|0:0,0:0:0:0:
318,3,47674,2,0,L|390:-6,1,60,0|10,3:0|0:2,0:0:0:0:
253,157,48166,1,2,0:2:0:0:
403,171,48494,6,0,L|417:317,1,120,6|2,3:2|3:2,0:0:0:0:
287,366,49150,2,0,L|272:228,1,120,10|2,0:2|0:2,0:0:0:0:
332,222,49642,5,0,3:0:0:0:
463,161,49969,1,0,3:0:0:0:
333,121,50297,2,0,L|260:108,1,60,0|10,3:0|0:2,0:0:0:0:
402,45,50789,1,10,0:2:0:0:
253,19,51117,6,0,L|128:35,2,120,6|10|2,3:2|0:2|3:2,0:0:0:0:
136,139,52101,2,0,L|55:168,2,60,10|0|2,0:2|0:0|3:2,0:0:0:0:
259,190,52756,2,0,L|269:261,1,60,10|0,0:2|0:0,0:0:0:0:
392,298,53248,2,0,L|382:375,1,60,0|10,3:0|0:2,0:0:0:0:
226,261,53740,5,12,0:2:0:0:
400,180,54232,5,12,0:0:0:0:
230,100,54724,5,12,0:2:0:0:
106,85,55051,2,0,L|94:226,1,120,8|8,0:0|0:0,0:0:0:0:
229,204,55707,2,0,L|245:339,1,120,4|12,0:3|0:0,0:0:0:0:
404,347,56363,5,12,0:0:0:0:
230,266,56855,5,12,0:0:0:0:
400,186,57347,5,12,0:0:0:0:
276,292,57674,2,0,L|143:313,1,120,8|8,0:0|0:0,0:0:0:0:
18,212,58330,2,0,L|144:188,1,120,4|12,0:3|0:0,0:0:0:0:
286,73,58986,5,14,0:0:0:0:
163,37,59314,1,10,0:0:0:0:
39,107,59642,1,10,0:0:0:0:
19,161,59805,1,10,0:0:0:0:
47,212,59969,1,10,0:0:0:0:
103,225,60133,5,14,0:0:0:0:
256,192,60461,12,8,61281,0:0:0:0:
308,258,61609,6,0,P|324:209|255:147,1,132.00000402832,6|10,3:2|0:0,0:0:0:0:
222,136,62101,1,0,0:0:0:0:
95,104,62428,1,0,3:0:0:0:
239,29,62756,6,0,P|319:11|394:15,1,132.00000402832,0|0,3:0|3:0,0:0:0:0:
437,48,63248,2,0,L|460:182,1,132.00000402832,10|2,0:2|3:2,0:0:0:0:
334,254,63904,1,10,0:2:0:0:
192,357,64232,6,0,P|175:318|216:243,1,132.00000402832,2|10,3:2|0:2,0:0:0:0:
277,226,64724,1,0,0:0:0:0:
100,181,65215,6,0,L|37:154,1,66.0000020141602,10|0,0:2|3:0,0:0:0:0:
171,104,65707,2,0,L|182:31,1,66.0000020141602,0|10,3:0|0:2,0:0:0:0:
322,52,66199,2,0,L|183:47,1,132.00000402832,2|10,3:2|0:2,0:0:0:0:
31,180,66855,6,0,P|60:210|163:205,1,132.00000402832,6|10,3:2|0:2,0:0:0:0:
199,193,67346,1,0,0:0:0:0:
73,322,67674,1,0,3:0:0:0:
214,357,68002,6,0,L|241:228,1,132.00000402832,0|0,3:0|3:0,0:0:0:0:
301,213,68494,1,10,0:2:0:0:
432,176,68822,1,2,3:2:0:0:
310,106,69150,1,10,0:2:0:0:
159,82,69478,6,0,L|135:229,1,132.00000402832,6|10,3:2|0:2,0:0:0:0:
277,205,70133,2,0,L|306:349,1,132.00000402832,4|10,0:3|0:2,0:0:0:0:
462,156,70789,6,0,L|328:127,2,132.00000402832,6|14|2,3:2|0:2|3:2,0:0:0:0:
427,194,71609,1,0,3:0:0:0:
377,214,71773,1,10,2:0:0:0:
237,245,72101,6,0,L|98:218,1,132.00000402832,6|10,3:2|0:2,0:0:0:0:
39,274,72592,2,0,P|22:199|58:142,1,132.00000402832,0|0,0:0|3:0,0:0:0:0:
193,21,73248,6,0,P|248:48|183:143,1,198.000006042481,0|10,3:0|0:2,0:0:0:0:
69,187,74068,1,2,3:2:0:0:
201,270,74396,1,10,0:2:0:0:
338,331,74724,6,0,L|354:188,1,132.00000402832,2|10,3:2|0:2,0:0:0:0:
283,176,75215,1,0,0:0:0:0:
465,157,75707,6,0,L|475:83,1,66.0000020141602,10|0,0:2|3:0,0:0:0:0:
340,25,76199,2,0,L|329:119,1,66.0000020141602,0|10,3:0|0:2,0:0:0:0:
199,166,76691,1,2,3:2:0:0:
325,249,77019,1,10,0:2:0:0:
172,288,77346,6,0,L|41:260,1,132.00000402832,6|10,3:2|0:2,0:0:0:0:
66,213,77838,1,0,0:0:0:0:
218,175,78166,2,0,L|186:108,1,66.0000020141602,0|10,3:0|0:2,0:0:0:0:
137,83,78494,6,0,P|58:67|29:18,1,132.00000402832,4|0,3:2|3:0,0:0:0:0:
96,20,78986,1,10,0:2:0:0:
243,75,79314,2,0,L|262:212,1,132.00000402832,2|8,3:2|0:0,0:0:0:0:
419,302,79969,6,0,L|276:337,3,132.00000402832,4|10|10|10,3:2|0:0|0:0|0:0,0:0:0:0:
147,359,81281,2,0,L|132:215,1,132.00000402832,10|10,0:0|0:0,0:0:0:0:
280,211,81937,2,0,L|418:182,1,132.00000402832,10|14,0:0|0:0,0:0:0:0:
250,107,82592,6,0,L|109:71,3,132.00000402832,6|10|10|10,3:2|0:0|0:0|0:0,0:0:0:0:
250,249,83904,2,0,L|315:260,1,66.0000020141602,6|8,3:2|0:0,0:0:0:0:
458,335,84396,6,0,L|471:189,1,132.00000402832,0|0,3:0|3:0,0:0:0:0:
403,171,84887,1,4,0:3:0:0:
251,121,85215,6,0,P|308:74|395:66,1,132.00000402832,6|10,3:2|0:0,0:0:0:0:
492,142,85871,2,0,L|419:153,1,66.0000020141602,10|0,0:0|3:0,0:0:0:0:
264,232,86363,5,4,3:2:0:0:
256,192,86691,12,0,88576,0:0:0:0:
