osu file format v14

[General]
AudioFilename: audio.mp3
AudioLeadIn: 0
PreviewTime: 60735
Countdown: 1
SampleSet: Soft
StackLeniency: 0.4
Mode: 0
LetterboxInBreaks: 0
WidescreenStoryboard: 1

[Editor]
Bookmarks: 1145,6226,9013,19505,22128,32620,43112,53604,61472,71964,79833
DistanceSpacing: 1.1
BeatDivisor: 4
GridSize: 16
TimelineZoom: 1.3

[Metadata]
Title:over and over
TitleUnicode:over and over
Artist:yanaginagi
ArtistUnicode:やなぎなぎ
Creator:Ohwow
Version:Insane!
Source:Just Because!
Tags:opening sentai filmworks pine jam natsume mio komiya ena izumi eita morikawa hatsuki souma haruto
BeatmapID:1451898
BeatmapSetID:685935

[Difficulty]
HPDrainRate:5
CircleSize:4
OverallDifficulty:8
ApproachRate:9
SliderMultiplier:1.7
SliderTickRate:1

[Events]
//Background and Video events
0,0,"bg.png",0,0
Video,0,"video.avi"
//Break Periods
2,1345,3167
2,3967,5135
//Storyboard Layer 0 (Background)
//Storyboard Layer 1 (Fail)
//Storyboard Layer 2 (Pass)
//Storyboard Layer 3 (Foreground)
//Storyboard Sound Samples

[TimingPoints]
1145,327.868852459016,4,2,2,60,1,0
5735,-100,4,2,1,60,0,0
6226,-100,4,2,1,70,0,0
10571,-100,4,2,1,5,0,0
10653,-100,4,2,1,70,0,0
15817,-100,4,2,1,5,0,0
15899,-100,4,2,1,70,0,0
18522,-100,4,2,1,50,0,0
18849,-100,4,2,1,70,0,0
19500,297.029702970297,4,2,2,40,1,0
19648,312.5,4,2,2,40,1,0
19804,300,4,2,2,40,1,0
19954,359.281437125748,4,2,2,40,1,0
20133,315.789473684211,4,2,2,40,1,0
20290,352.941176470588,4,2,2,40,1,0
20466,333.333333333333,4,2,2,40,1,0
21132,317.460317460317,4,2,2,40,1,0
21290,333.333333333333,4,2,2,40,1,0
22127,327.868852459016,4,2,2,50,1,0
22127,-125,4,2,2,50,0,0
29913,-125,4,2,2,5,0,0
29995,-125,4,2,2,50,0,0
32126,-125,4,2,1,50,0,0
32618,-100,4,2,1,70,0,0
32864,-100,4,2,1,5,0,0
32946,-100,4,2,1,70,0,0
34175,-100,4,2,1,5,0,0
34257,-100,4,2,1,70,0,0
35487,-100,4,2,1,5,0,0
35569,-100,4,2,1,70,0,0
38110,-100,4,2,1,5,0,0
38192,-100,4,2,1,70,0,0
39421,-100,4,2,1,5,0,0
39503,-100,4,2,1,70,0,0
40733,-100,4,2,1,5,0,0
40815,-100,4,2,1,70,0,0
56142,-100,4,2,1,5,0,0
56224,-100,4,2,1,70,0,0
60815,-125,4,2,1,70,0,0
61389,-125,4,2,1,5,0,0
61471,-90.9090909090909,4,2,1,80,0,1
71635,-71.4285714285714,4,2,1,80,0,1
71963,-90.9090909090909,4,2,1,80,0,1
86225,-100,4,2,1,80,0,0
87373,-100,4,2,1,5,0,0

[Colours]
Combo1 : 234,197,128
Combo2 : 249,115,155
Combo3 : 250,141,105
Combo4 : 107,107,184

[HitObjects]
444,348,1145,5,0,0:0:0:0:
432,330,3767,5,0,0:0:0:0:
420,312,5735,5,0,3:0:0:0:
311,235,5899,1,8,0:0:0:0:
298,367,6063,1,8,0:0:0:0:
218,204,6226,6,0,P|270:145|381:166,1,170,4|2,3:2|3:2,0:0:0:0:
301,343,6718,1,8,0:0:0:0:
104,344,6882,6,0,B|134:290|134:290|115:183,1,170,4|2,3:2|3:2,0:0:0:0:
8,85,7374,1,8,0:0:0:0:
216,68,7538,6,0,B|264:71|296:45|296:45|329:19|376:30,1,170,4|2,3:2|3:2,0:0:0:0:
425,125,8030,1,8,0:0:0:0:
430,145,8112,1,8,0:0:0:0:
435,165,8194,6,0,L|506:172,1,42.5,0|0,3:0|3:0,0:0:0:0:
373,241,8358,2,0,L|302:248,1,42.5,4|4,3:3|3:3,0:0:0:0:
263,147,8522,2,0,L|192:140,1,42.5,0|0,3:0|3:0,0:0:0:0:
159,264,8685,1,8,0:0:0:0:
142,285,9013,6,0,L|130:200,1,85,14|0,0:0|0:0,0:0:0:0:
21,123,9341,2,0,L|32:207,1,85,8|0,0:0|0:0,0:0:0:0:
215,189,9669,2,0,L|130:201,1,85,10|0,0:0|3:2,0:0:0:0:
21,123,9997,2,0,L|106:111,1,85,10|0,0:0|3:2,0:0:0:0:
261,39,10325,6,0,P|337:32|392:83,1,127.5,10|0,0:0|0:0,0:0:0:0:
395,96,10653,2,0,P|385:138|383:180,1,85,10|0,0:0|0:0,0:0:0:0:
293,176,10981,2,0,P|305:216|325:254,1,85,10|0,0:0|3:2,0:0:0:0:
244,295,11308,2,0,P|275:323|310:346,1,85,10|0,0:0|3:2,0:0:0:0:
452,306,11636,6,0,P|399:288|308:352,1,170,10|10,0:0|0:0,0:0:0:0:
197,370,12128,1,0,0:0:0:0:
147,261,12292,2,0,L|141:162,1,85,10|0,0:0|3:2,0:0:0:0:
35,225,12620,2,0,L|40:309,1,85,10|0,0:0|3:2,0:0:0:0:
44,103,12948,6,0,P|105:48|187:63,1,170,10|10,0:0|0:0,0:0:0:0:
267,153,13440,1,0,0:0:0:0:
393,48,13604,2,0,L|294:54,1,85,10|0,0:0|3:2,0:0:0:0:
382,142,13931,2,0,L|466:136,1,85,10|0,0:0|3:2,0:0:0:0:
302,252,14259,6,0,L|216:245,1,85,14|0,0:0|0:0,0:0:0:0:
131,141,14587,2,0,L|215:146,1,85,10|0,0:0|0:0,0:0:0:0:
211,330,14915,2,0,L|217:244,1,85,10|0,0:0|3:2,0:0:0:0:
131,141,15243,2,0,L|124:226,1,85,10|0,0:0|3:2,0:0:0:0:
159,384,15571,6,0,P|216:356|285:359,1,127.5,10|0,0:0|0:0,0:0:0:0:
320,367,15899,2,0,P|337:320|337:263,1,85,10|0,0:0|0:0,0:0:0:0:
430,301,16226,2,0,P|421:251|392:202,1,85,10|0,0:0|3:2,0:0:0:0:
492,188,16554,2,0,P|459:149|410:121,1,85,10|0,0:0|3:2,0:0:0:0:
308,150,16882,6,0,L|234:158,3,42.5,14|0|0|0,0:0|0:0|3:0|0:0,0:0:0:0:
248,64,17210,2,0,L|174:56,3,42.5,0|0|0|0,3:0|3:0|3:0|3:0,0:0:0:0:
177,166,17538,2,0,L|169:240,3,42.5,0|0|0|0,3:0|3:0|3:0|3:0,0:0:0:0:
117,48,17866,2,0,L|112:5,3,42.5,0|0|0|0,3:0|3:0|3:0|3:0,0:0:0:0:
71,177,18194,6,0,L|84:303,1,127.5,12|0,0:0|0:0,0:0:0:0:
88,346,18522,2,0,L|14:354,3,42.5,8|8|8|8,0:0|0:0|0:0|0:0,0:0:0:0:
175,339,18849,5,8,0:0:0:0:
203,358,18931,1,8,0:0:0:0:
237,368,19013,1,8,0:0:0:0:
272,365,19095,1,8,0:0:0:0:
304,350,19177,1,8,0:0:0:0:
329,326,19259,1,8,0:0:0:0:
343,293,19341,2,0,P|346:272|356:253,1,42.5,8|8,0:0|0:0,0:0:0:0:
450,211,19500,5,0,0:0:0:0:
404,148,19648,1,0,0:0:0:0:
326,156,19804,1,0,0:0:0:0:
455,200,19954,5,0,0:0:0:0:
409,137,20133,1,0,0:0:0:0:
331,145,20290,1,0,0:0:0:0:
460,189,20466,5,0,0:0:0:0:
414,126,20632,1,0,0:0:0:0:
336,134,20799,1,0,0:0:0:0:
465,178,20966,5,0,0:0:0:0:
419,115,21132,1,0,0:0:0:0:
341,123,21290,1,0,0:0:0:0:
424,104,22127,6,0,L|273:84,1,136
161,140,22618,2,0,P|189:160|222:167,1,68
185,27,22946,2,0,P|118:25|71:72,1,136
101,233,23438,6,0,L|82:373,1,136,0|0,0:0|0:0,0:0:0:0:
195,319,23930,2,0,P|227:308|267:308,1,68
362,362,24258,2,0,P|423:308|409:242,1,136,0|0,0:0|0:0,0:0:0:0:
322,141,24749,6,0,B|367:163|367:163|472:145,1,136,0|0,0:0|0:0,0:0:0:0:
334,41,25241,2,0,P|264:53|227:116,1,136,0|0,0:0|0:0,0:0:0:0:
250,213,25733,2,0,B|183:201,1,68
77,178,26061,5,0,0:0:0:0:
67,153,26717,2,0,L|-5:160,2,68
148,78,27208,6,0,L|215:71,1,68
138,53,27536,2,0,L|273:39,1,136,0|0,0:0|0:0,0:0:0:0:
405,121,28028,2,0,P|340:125|304:180,1,136,0|0,0:0|0:0,0:0:0:0:
407,244,28520,6,0,L|481:239,1,68
399,217,28848,2,0,L|388:364,1,136
286,331,29340,2,0,L|189:347,1,68,0|0,0:0|0:0,0:0:0:0:
183,217,29667,2,0,L|289:234,1,102,0|0,0:0|0:0,0:0:0:0:
320,240,29995,5,0,0:0:0:0:
320,240,30815,5,0,0:0:0:0:
270,135,30979,1,0,0:0:0:0:
204,230,31143,1,0,0:0:0:0:
181,222,31471,5,0,0:0:0:0:
287,118,31635,1,0,0:0:0:0:
325,263,31799,1,0,0:0:0:0:
330,286,32126,5,0,3:0:0:0:
181,222,32290,2,0,P|145:219|105:225,1,68,8|0,0:0|0:0,0:0:0:0:
6,327,32618,6,0,P|74:320|134:369,1,127.5,6|0,3:2|0:0,0:0:0:0:
139,384,32946,1,10,0:0:0:0:
261,251,33110,2,0,L|177:263,1,85,0|2,0:0|3:2,0:0:0:0:
343,358,33438,1,0,3:2:0:0:
408,229,33602,2,0,L|419:144,1,85,10|0,0:2|0:0,0:0:0:0:
298,37,33930,6,0,P|314:92|272:156,1,127.5,2|0,3:2|0:0,0:0:0:0:
242,151,34258,1,10,0:2:0:0:
387,27,34422,2,0,L|492:20,1,85,0|2,0:0|3:2,0:0:0:0:
418,144,34749,1,0,3:2:0:0:
423,264,34913,2,0,L|435:180,1,85,10|0,0:2|0:2,0:0:0:0:
505,325,35241,6,0,P|454:288|389:289,1,127.5,2|0,3:2|0:0,0:0:0:0:
361,313,35569,1,10,0:2:0:0:
242,151,35733,2,0,L|326:163,1,85,0|2,0:0|3:2,0:0:0:0:
162,228,36061,1,0,3:2:0:0:
107,110,36225,2,0,P|64:103|25:114,1,85,10|0,0:2|0:0,0:0:0:0:
58,281,36553,6,0,L|70:197,1,85,2|0,3:2|0:0,0:0:0:0:
195,63,36881,2,0,L|206:147,1,85,10|0,0:2|0:0,0:0:0:0:
289,281,37208,1,2,3:2:0:0:
305,175,37372,1,0,3:2:0:0:
168,255,37536,1,10,0:2:0:0:
184,361,37700,1,0,0:2:0:0:
26,253,37864,6,0,P|77:218|138:231,1,127.5,2|0,3:2|0:0,0:0:0:0:
168,255,38192,2,0,L|176:158,1,85,10|0,0:2|0:0,0:0:0:0:
96,32,38520,2,0,L|89:116,1,85,2|0,3:2|3:0,0:0:0:0:
255,71,38848,1,10,0:2:0:0:
300,201,39012,1,0,0:2:0:0:
486,105,39176,6,0,P|435:70|374:83,1,127.5,2|0,3:2|0:0,0:0:0:0:
344,107,39504,2,0,L|336:10,1,85,10|0,0:2|0:0,0:0:0:0:
288,225,39831,1,2,3:2:0:0:
249,115,39995,1,0,3:2:0:0:
415,191,40159,1,10,0:2:0:0:
376,301,40323,1,0,0:2:0:0:
186,219,40487,6,0,P|174:276|173:363,1,127.5,2|0,3:2|0:0,0:0:0:0:
153,378,40815,2,0,P|111:387|71:375,1,85,10|0,0:2|0:0,0:0:0:0:
84,253,41143,1,2,3:2:0:0:
269,300,41307,1,0,3:0:0:0:
222,132,41471,2,0,L|127:141,1,85,10|0,0:2|0:0,0:0:0:0:
200,230,41799,5,2,3:2:0:0:
89,70,41963,1,8,0:0:0:0:
72,42,42290,1,0,3:0:0:0:
16,202,42454,5,10,0:2:0:0:
216,28,42782,1,10,0:2:0:0:
238,274,43110,5,6,3:2:0:0:
231,189,43274,2,0,L|240:307,1,85,0|2,0:0|3:2,0:0:0:0:
243,357,43602,1,0,3:0:0:0:
154,279,43766,1,10,2:2:0:0:
322,267,43930,2,0,L|237:273,1,85,0|2,2:0|0:2,0:0:0:0:
73,345,44258,6,0,L|158:351,1,85,0|2,3:0|0:2,0:0:0:0:
327,364,44586,2,0,L|243:357,1,85,8|2,2:0|0:2,0:0:0:0:
373,261,44913,1,0,3:0:0:0:
412,368,45077,2,0,L|497:374,2,85,10|0|2,0:2|2:0|2:2,0:0:0:0:
364,234,45569,1,0,2:0:0:0:
499,170,45733,5,6,3:2:0:0:
492,254,45897,2,0,L|501:136,1,85,0|2,0:0|3:2,0:0:0:0:
504,84,46225,1,0,3:0:0:0:
336,72,46389,1,10,0:2:0:0:
421,78,46553,2,0,L|336:72,1,85,0|2,0:0|0:2,0:0:0:0:
152,152,46881,6,0,L|237:146,1,85,0|2,3:0|0:2,0:0:0:0:
223,22,47208,2,0,L|138:28,1,85,8|2,0:0|0:2,0:0:0:0:
336,72,47536,1,0,3:0:0:0:
324,240,47700,2,0,L|330:155,1,85,10|0,0:2|0:0,0:0:0:0:
151,151,48028,2,0,L|157:236,1,85,2|0,0:2|3:0,0:0:0:0:
138,27,48356,5,6,3:2:0:0:
151,151,48520,1,0,0:0:0:0:
223,22,48684,1,2,3:2:0:0:
53,32,48848,1,0,3:0:0:0:
223,22,49012,2,0,L|308:16,2,85,10|0|2,0:2|0:0|0:2,0:0:0:0:
13,108,49504,6,0,B|50:150|50:150|58:263,2,170,0|0|0,3:0|3:0|3:0,0:0:0:0:
159,167,50323,2,0,L|153:252,1,85,10|0,0:2|3:0,0:0:0:0:
241,105,50651,1,10,0:2:0:0:
216,81,50979,6,0,L|326:66,1,85,6|0,3:2|0:0,0:0:0:0:
442,152,51307,2,0,L|358:163,1,85,10|0,0:2|0:0,0:0:0:0:
459,62,51635,1,2,3:2:0:0:
512,211,51799,1,0,3:0:0:0:
346,245,51963,2,0,P|343:202|358:163,1,85,10|0,0:2|0:0,0:0:0:0:
204,0,52290,6,0,P|219:39|216:81,1,85,2|0,3:2|0:0,0:0:0:0:
124,186,52618,1,10,0:2:0:0:
42,56,52782,2,0,L|126:52,1,85,0|2,0:0|3:2,0:0:0:0:
140,212,53110,1,0,3:0:0:0:
333,162,53274,2,0,L|249:157,1,85,10|0,0:2|0:0,0:0:0:0:
28,143,53602,5,12,0:2:0:0:
116,309,53766,1,0,3:0:0:0:
124,288,53930,1,0,3:2:0:0:
340,204,54094,5,12,0:0:0:0:
252,370,54258,1,0,3:2:0:0:
244,349,54422,1,0,3:0:0:0:
26,227,54586,6,0,L|36:311,1,85,12|0,3:2|3:0,3:0:0:0:
129,376,54913,2,0,L|188:379,3,42.5,8|8|0|0,0:0|0:0|3:0|3:0,0:0:0:0:
256,268,55241,2,0,L|197:271,3,42.5,8|8|0|0,0:0|0:0|3:0|3:0,0:0:0:0:
126,163,55569,5,4,0:3:0:0:
144,137,55651,1,4,0:3:0:0:
172,121,55733,1,0,3:0:0:0:
203,117,55815,1,0,3:0:0:0:
233,126,55897,2,0,B|267:145|267:145|374:129,1,127.5,12|0,0:0|0:0,0:0:0:0:
453,112,56225,5,12,0:0:0:0:
277,27,56389,1,0,3:0:0:0:
297,23,56553,1,0,3:0:0:0:
432,118,56717,5,12,0:0:0:0:
263,217,56881,1,0,3:0:0:0:
283,221,57045,1,0,3:0:0:0:
460,35,57208,6,0,P|418:30|379:47,1,85,12|0,0:0|3:0,0:0:0:0:
357,168,57536,2,0,L|359:210,3,42.5,8|8|0|0,0:0|0:0|3:0|3:0,0:0:0:0:
252,90,57864,2,0,L|254:47,3,42.5,8|8|0|0,0:0|0:0|3:0|3:0,0:0:0:0:
165,206,58192,5,4,0:3:0:0:
152,222,58274,1,4,0:3:0:0:
138,238,58356,2,0,L|95:235,1,42.5,0|0,3:0|0:0,0:0:0:0:
41,125,58520,1,12,0:0:0:0:
63,101,58848,5,14,0:0:0:0:
113,334,59012,1,10,0:0:0:0:
165,206,59176,1,10,0:0:0:0:
11,229,59340,1,10,0:0:0:0:
220,308,59504,5,10,0:0:0:0:
312,173,59667,1,10,0:0:0:0:
331,359,59831,1,10,0:0:0:0:
201,122,59995,1,14,0:0:0:0:
93,96,60815,5,0,0:0:0:0:
47,231,60979,1,0,3:0:0:0:
47,231,61061,1,0,3:0:0:0:
46,231,61143,2,0,P|93:213|141:226,1,102,8|0,0:0|0:0,0:0:0:0:
199,282,61471,6,0,B|222:299|244:307|244:307|281:290|329:283,1,140.25000428009,6|0,3:2|0:0,0:0:0:0:
372,280,61799,1,10,0:0:0:0:
282,102,61963,2,0,P|263:144|266:190,1,93.5000028533936,0|2,0:0|3:2,0:0:0:0:
446,340,62290,2,0,P|464:297|461:251,1,93.5000028533936,0|10,3:0|0:2,0:0:0:0:
465,67,62618,6,0,P|444:151|354:161,1,187.000005706787,0|0,3:0|3:0,0:0:0:0:
278,69,63110,2,0,P|228:80|184:75,1,93.5000028533936,10|0,0:2|0:0,0:0:0:0:
176,270,63438,2,0,P|191:221|217:185,1,93.5000028533936,2|0,3:2|3:0,0:0:0:0:
52,81,63766,2,0,P|86:118|104:158,1,93.5000028533936,10|0,0:2|0:0,0:0:0:0:
249,299,64094,6,0,P|191:289|116:340,1,140.25000428009,2|0,3:2|0:0,0:0:0:0:
106,367,64422,1,10,0:2:0:0:
350,334,64586,2,0,P|354:287|342:242,1,93.5000028533936,0|2,0:0|3:2,0:0:0:0:
244,167,64913,1,0,3:0:0:0:
359,119,65077,1,10,0:2:0:0:
249,299,65241,6,0,P|148:275|42:272,1,187.000005706787,0|0,3:0|3:0,0:0:0:0:
188,79,65733,2,0,P|245:77|289:65,1,93.5000028533936,10|0,0:2|0:0,0:0:0:0:
61,31,66061,1,2,3:2:0:0:
81,157,66225,1,0,3:0:0:0:
278,93,66389,1,10,0:2:0:0:
261,231,66553,1,0,0:0:0:0:
508,59,66717,6,0,P|439:55|370:41,1,140.25000428009,6|0,3:2|0:0,0:0:0:0:
329,27,67045,1,10,0:2:0:0:
208,160,67208,2,0,P|226:202|231:248,1,93.5000028533936,0|2,0:0|3:2,0:0:0:0:
380,219,67536,2,0,P|384:172|402:129,1,93.5000028533936,0|10,3:0|0:2,0:0:0:0:
261,338,67864,6,0,P|177:326|138:230,1,187.000005706787,0|0,3:0|3:0,0:0:0:0:
163,73,68356,2,0,P|210:75|255:61,1,93.5000028533936,10|0,0:2|0:0,0:0:0:0:
418,175,68684,2,0,P|371:176|326:162,1,93.5000028533936,2|0,3:2|3:0,0:0:0:0:
231,250,69012,1,10,0:2:0:0:
207,271,69340,6,0,L|356:259,1,140.25000428009,6|0,3:2|0:0,0:0:0:0:
389,256,69667,1,10,0:2:0:0:
263,133,69831,1,4,0:3:0:0:
257,155,69913,1,4,0:3:0:0:
252,177,69995,1,4,0:3:0:0:
385,127,70159,1,0,3:0:0:0:
452,323,70323,1,10,0:2:0:0:
467,342,70651,6,0,P|424:324|379:315,1,93.5000028533936,6|0,3:2|3:0,0:0:0:0:
158,227,70979,2,0,P|201:208|246:199,1,93.5000028533936,14|0,0:2|3:0,0:0:0:0:
352,6,71307,1,2,3:2:0:0:
321,23,71389,1,0,3:0:0:0:
287,31,71471,1,0,3:0:0:0:
252,29,71553,1,0,3:0:0:0:
221,17,71635,6,0,P|199:92|106:86,1,178.499994552612,10|0,2:0|0:0,0:0:0:0:
35,21,71963,6,0,B|17:53|12:83|12:83|26:117|21:155,1,140.25000428009,6|0,3:2|0:0,0:0:0:0:
14,197,72290,1,10,0:2:0:0:
194,137,72454,2,0,P|240:134|282:152,1,93.5000028533936,0|2,0:0|3:2,0:0:0:0:
73,278,72782,2,0,P|31:297|-15:294,1,93.5000028533936,0|10,3:0|0:2,0:0:0:0:
198,373,73110,6,0,P|241:293|333:319,1,187.000005706787,0|0,3:0|3:0,0:0:0:0:
389,125,73602,2,0,P|343:124|300:141,1,93.5000028533936,10|0,0:2|0:0,0:0:0:0:
425,290,73930,2,0,P|449:250|456:204,1,93.5000028533936,2|0,3:2|3:0,0:0:0:0:
266,239,74258,2,0,P|287:280|324:308,1,93.5000028533936,10|0,0:2|0:0,0:0:0:0:
213,68,74586,6,0,P|146:91|77:95,1,140.25000428009,2|0,3:2|0:0,0:0:0:0:
34,89,74913,1,10,0:2:0:0:
16,232,75077,2,0,P|58:213|104:208,1,93.5000028533936,0|2,0:0|3:2,0:0:0:0:
242,154,75405,1,0,3:0:0:0:
233,314,75569,1,10,0:2:0:0:
330,119,75733,6,0,P|251:59|165:98,1,187.000005706787,0|0,3:0|3:0,0:0:0:0:
364,211,76225,2,0,P|410:206|452:187,1,93.5000028533936,10|0,0:2|0:0,0:0:0:0:
508,86,76553,1,2,3:2:0:0:
330,119,76717,1,0,3:0:0:0:
454,283,76881,1,10,0:2:0:0:
232,314,77045,1,0,0:0:0:0:
364,211,77208,6,0,P|319:197|272:199,1,93.5000028533936,6|0,3:2|0:0,0:0:0:0:
114,360,77536,1,10,0:2:0:0:
323,326,77700,2,0,P|278:311|232:314,1,93.5000028533936,0|2,0:0|3:2,0:0:0:0:
76,255,78028,1,0,3:0:0:0:
76,255,78192,1,10,0:2:0:0:
7,56,78356,6,0,B|51:90|51:90|203:66,1,187.000005706787,4|0,3:2|3:0,0:0:0:0:
391,150,78848,2,0,B|298:135,1,93.5000028533936,10|0,0:2|0:0,0:0:0:0:
187,177,79176,1,2,3:2:0:0:
318,9,79340,1,8,0:0:0:0:
324,31,79422,1,8,0:0:0:0:
330,53,79504,2,0,B|376:60,1,46.7500014266968,0|0,3:0|3:0,0:0:0:0:
512,155,79667,2,0,B|465:162,1,46.7500014266968,0|0,3:0|3:0,0:0:0:0:
276,235,79831,6,0,P|343:242|379:299,1,140.25000428009,4|0,3:2|0:0,0:0:0:0:
376,342,80159,2,0,L|469:334,1,93.5000028533936,10|0,0:0|3:2,0:0:0:0:
195,340,80487,2,0,L|288:332,1,93.5000028533936,10|0,0:0|3:2,0:0:0:0:
14,338,80815,2,0,L|107:330,1,93.5000028533936,10|0,0:0|3:2,0:0:0:0:
70,142,81143,6,0,L|62:235,1,93.5000028533936,10|0,0:0|3:2,0:0:0:0:
183,40,81471,2,0,L|191:134,1,93.5000028533936,10|0,0:0|3:2,0:0:0:0:
442,242,81799,6,0,L|450:149,1,93.5000028533936,10|0,0:0|3:2,0:0:0:0:
329,344,82126,2,0,L|321:250,1,93.5000028533936,14|0,0:0|3:2,0:0:0:0:
494,58,82454,6,0,L|400:66,1,93.5000028533936,6|0,3:2|0:0,0:0:0:0:
190,133,82782,2,0,L|284:141,1,93.5000028533936,10|0,0:0|3:0,0:0:0:0:
511,193,83110,2,0,L|417:201,1,93.5000028533936,10|0,0:0|3:0,0:0:0:0:
207,268,83438,2,0,L|301:276,1,93.5000028533936,10|0,0:0|3:0,0:0:0:0:
512,366,83766,6,0,P|470:344|424:346,1,93.5000028533936,6|8,3:2|0:0,0:0:0:0:
414,356,84012,1,8,0:0:0:0:
404,366,84094,1,10,0:0:0:0:
300,275,84258,1,0,3:0:0:0:
413,156,84422,2,0,L|423:248,1,93.5000028533936,10|0,0:0|3:0,0:0:0:0:
229,205,84749,1,4,0:3:0:0:
195,193,84831,1,4,0:3:0:0:
161,196,84913,1,8,0:0:0:0:
129,211,84995,1,8,0:0:0:0:
106,237,85077,6,0,L|4:232,1,93.5000028533936,6|0,3:2|0:0,0:0:0:0:
138,104,85405,1,10,0:0:0:0:
184,288,85569,1,0,0:0:0:0:
375,222,85733,1,10,0:0:0:0:
229,180,85897,1,0,3:0:0:0:
355,339,86061,5,10,0:0:0:0:
491,207,86225,1,4,3:2:0:0:
256,192,87372,12,0,89012,0:0:0:0:
