osu file format v14

[General]
AudioFilename: audio.mp3
AudioLeadIn: 0
PreviewTime: 60735
Countdown: 1
SampleSet: Soft
StackLeniency: 0.4
Mode: 0
LetterboxInBreaks: 0
WidescreenStoryboard: 1

[Editor]
Bookmarks: 1145,6226,9013,19505,22128,32620,43112,53604,61472,71964,79833
DistanceSpacing: 1.3
BeatDivisor: 4
GridSize: 32
TimelineZoom: 1.3

[Metadata]
Title:over and over
TitleUnicode:over and over
Artist:yanaginagi
ArtistUnicode:やなぎなぎ
Creator:Ohwow
Version:Hard!
Source:Just Because!
Tags:opening sentai filmworks pine jam natsume mio komiya ena izumi eita morikawa hatsuki souma haruto
BeatmapID:1451897
BeatmapSetID:685935

[Difficulty]
HPDrainRate:5
CircleSize:3.8
OverallDifficulty:6
ApproachRate:7.5
SliderMultiplier:1.5
SliderTickRate:1

[Events]
//Background and Video events
0,0,"bg.png",0,0
Video,0,"video.avi"
//Break Periods
2,1345,2942
2,3967,4910
2,19540,21302
//Storyboard Layer 0 (Background)
//Storyboard Layer 1 (Fail)
//Storyboard Layer 2 (Pass)
//Storyboard Layer 3 (Foreground)
//Storyboard Sound Samples

[TimingPoints]
1145,327.868852459016,4,2,2,60,1,0
5735,-100,4,2,1,60,0,0
6226,-100,4,2,1,70,0,0
19500,297.029702970297,4,2,2,40,1,0
19648,312.5,4,2,2,40,1,0
19804,300,4,2,2,40,1,0
19954,359.281437125748,4,2,2,40,1,0
20133,315.789473684211,4,2,2,40,1,0
20290,352.941176470588,4,2,2,40,1,0
20466,333.333333333333,4,2,2,40,1,0
21132,317.460317460317,4,2,2,40,1,0
21290,333.333333333333,4,2,2,40,1,0
22127,327.868852459016,4,2,2,50,1,0
22127,-125,4,2,2,50,0,0
32126,-125,4,2,1,50,0,0
32618,-100,4,2,1,70,0,0
61471,-90.9090909090909,4,2,1,80,0,1
86225,-100,4,2,1,80,0,0
87372,-100,4,2,1,5,0,0

[Colours]
Combo1 : 234,197,128
Combo2 : 249,115,155
Combo3 : 250,141,105
Combo4 : 107,107,184

[HitObjects]
8,361,1145,5,0,0:0:0:0:
19,343,3767,5,0,0:0:0:0:
30,325,5735,5,0,3:0:0:0:
100,367,5899,2,0,L|183:362,1,75,8|8,0:0|0:0,0:0:0:0:
266,310,6226,6,0,P|328:357|418:333,1,150,4|2,3:2|3:2,0:0:0:0:
456,292,6718,1,8,0:0:0:0:
372,229,6882,2,0,B|348:192|348:192|364:80,1,150,4|2,3:2|3:2,0:0:0:0:
378,5,7374,1,8,0:0:0:0:
278,39,7538,6,0,B|238:38|206:56|206:56|177:35|135:29,1,150,4|2,3:2|3:2,0:0:0:0:
53,28,8030,1,8,0:0:0:0:
48,38,8112,1,8,0:0:0:0:
44,48,8194,2,0,B|59:88|46:127|46:127|76:153|109:152,1,150,0|0,3:0|3:0,0:0:0:0:
218,149,8685,1,8,0:0:0:0:
218,149,9013,6,0,L|228:245,1,75,14|0,0:0|0:0,0:0:0:0:
288,278,9341,2,0,L|362:270,1,75,8|0,0:0|0:0,0:0:0:0:
417,208,9669,2,0,L|409:134,1,75,10|0,0:0|3:2,0:0:0:0:
347,79,9997,2,0,L|273:87,1,75,10|0,0:0|3:2,0:0:0:0:
192,43,10325,6,0,L|118:35,1,75,10|0,0:0|0:0,0:0:0:0:
63,98,10653,2,0,L|71:172,1,75,10|0,0:0|0:0,0:0:0:0:
151,151,10981,2,0,L|139:224,1,75,10|0,0:0|3:2,0:0:0:0:
222,224,11308,2,0,L|191:292,1,75,10|0,0:0|3:2,0:0:0:0:
105,353,11636,6,0,P|150:332|267:353,1,150,10|10,0:0|0:0,0:0:0:0:
320,380,12128,1,0,0:0:0:0:
330,298,12292,2,0,L|339:212,1,75,10|0,0:0|3:2,0:0:0:0:
418,243,12620,2,0,L|410:317,1,75,10|0,0:0|3:2,0:0:0:0:
494,268,12948,6,0,P|480:190|397:164,1,150,10|10,0:0|0:0,0:0:0:0:
342,185,13440,1,0,0:0:0:0:
273,139,13604,2,0,L|187:130,1,75,10|0,0:0|3:2,0:0:0:0:
182,212,13931,2,0,L|256:219,1,75,10|0,0:0|3:2,0:0:0:0:
307,311,14259,6,0,L|157:326,1,150,14|10,0:0|0:0,0:0:0:0:
84,365,14751,1,0,0:0:0:0:
35,297,14915,2,0,L|30:203,1,75,10|0,0:0|3:2,0:0:0:0:
75,151,15243,2,0,L|169:146,1,75,10|0,0:0|3:2,0:0:0:0:
221,191,15571,6,0,L|226:285,1,75,10|0,0:0|0:0,0:0:0:0:
232,348,15899,2,0,L|306:352,1,75,10|0,0:0|0:0,0:0:0:0:
300,271,16226,2,0,L|369:295,1,75,10|0,0:0|3:2,0:0:0:0:
383,213,16554,2,0,L|444:255,1,75,10|0,0:0|3:2,0:0:0:0:
469,150,16882,6,0,P|393:174|308:133,1,150,14|0,0:0|3:0,0:0:0:0:
278,85,17374,1,0,3:0:0:0:
214,138,17538,2,0,L|158:149,3,37.5,0|0|0|0,3:0|3:0|3:0|3:0,0:0:0:0:
140,125,17866,2,0,L|84:114,3,37.5,0|0|0|0,3:0|3:0|3:0|3:0,0:0:0:0:
62,83,18194,6,0,L|59:225,1,112.5,12|0,0:0|0:0,0:0:0:0:
32,240,18522,2,0,L|21:275,3,37.5,8|8|8|8,0:0|0:0|0:0|0:0,0:0:0:0:
68,301,18849,2,0,L|77:336,3,37.5,8|8|8|8,0:0|0:0|0:0|0:0,0:0:0:0:
129,336,19177,2,0,L|154:362,2,37.5,8|8|8,0:0|0:0|0:0,0:0:0:0:
56,321,22127,6,0,P|108:294|167:301,1,120
236,338,22618,2,0,L|295:330,1,60
362,288,22946,2,0,B|383:252|383:252|374:174,1,120
421,96,23438,6,0,P|363:84|310:110,1,120
289,185,23930,2,0,L|296:245,1,60
362,288,24258,2,0,L|243:274,1,120
166,321,24749,6,0,L|151:200,1,120
90,153,25241,2,0,P|147:165|200:139,1,120
255,82,25733,2,0,P|280:97|309:102,1,60
400,93,26061,5,0,0:0:0:0:
422,92,26717,2,0,L|484:87,2,60
428,170,27208,6,0,L|432:229,1,60
354,223,27536,2,0,L|230:213,1,120
188,150,28028,2,0,P|132:127|72:146,1,120
128,217,28520,6,0,L|124:276,1,60
157,348,28848,2,0,P|212:327|271:336,1,120
342,370,29340,2,0,L|407:359,1,60
379,285,29667,2,0,L|438:274,1,60
459,186,29995,6,0,B|341:206|341:206|224:137,1,240
201,75,30815,2,0,P|177:92|163:119,1,60
157,197,31143,1,0,0:0:0:0:
158,221,31471,5,0,0:0:0:0:
88,259,31635,1,0,0:0:0:0:
22,300,31799,1,0,0:0:0:0:
162,370,32126,1,0,3:0:0:0:
210,309,32290,2,0,P|243:296|290:295,1,60,8|0,0:0|0:0,0:0:0:0:
348,360,32618,6,0,L|422:358,1,75,6|0,3:2|0:0,0:0:0:0:
505,352,32946,1,10,0:0:0:0:
511,269,33110,2,0,P|486:210|381:194,1,150,0|0,0:0|3:2,0:0:0:0:
329,209,33602,2,0,P|281:215|231:203,1,75,10|0,0:2|0:0,0:0:0:0:
170,150,33930,6,0,L|161:224,1,75,2|0,3:2|0:0,0:0:0:0:
151,306,34258,1,10,0:2:0:0:
69,315,34422,2,0,P|19:257|36:189,1,150,0|0,0:0|3:2,0:0:0:0:
93,132,34913,2,0,L|101:57,1,75,10|0,0:2|0:2,0:0:0:0:
201,24,35241,6,0,B|244:51|244:51|355:41,1,150,2|10,3:2|0:2,0:0:0:0:
425,32,35733,2,0,L|422:133,1,75,0|2,0:0|3:2,0:0:0:0:
420,189,36061,1,0,3:2:0:0:
338,159,36225,2,0,L|341:260,1,75,10|0,0:2|0:0,0:0:0:0:
272,315,36553,6,0,P|343:274|422:294,1,150,2|10,3:2|0:2,0:0:0:0:
472,336,37045,1,0,0:0:0:0:
509,262,37208,2,0,L|511:187,2,75,2|0|10,3:2|3:2|0:2,0:0:0:0:
472,336,37700,1,0,0:2:0:0:
391,269,37864,6,0,L|316:266,1,75,2|0,3:2|0:0,0:0:0:0:
232,268,38192,2,0,P|201:287|181:318,1,75,10|0,0:2|0:0,0:0:0:0:
100,357,38520,2,0,P|104:292|87:188,1,150,2|10,3:2|0:2,0:0:0:0:
65,130,39012,1,0,0:2:0:0:
125,44,39176,6,0,P|161:44|191:66,1,75,2|0,3:2|0:0,0:0:0:0:
222,143,39504,2,0,L|331:135,1,75,10|0,0:2|0:0,0:0:0:0:
361,189,39831,2,0,L|435:194,2,75,2|0|10,3:2|3:2|0:2,0:0:0:0:
301,246,40323,1,0,0:2:0:0:
197,226,40487,6,0,P|163:239|140:268,1,75,2|0,3:2|0:0,0:0:0:0:
170,346,40815,2,0,L|244:351,1,75,10|0,0:2|0:0,0:0:0:0:
322,323,41143,1,2,3:2:0:0:
322,323,41307,1,0,3:0:0:0:
400,348,41471,2,0,L|474:342,1,75,10|0,0:2|0:0,0:0:0:0:
498,263,41799,5,2,3:2:0:0:
420,234,41963,2,0,P|392:192|447:91,1,150,8|0,0:0|3:0,0:0:0:0:
497,70,42454,1,10,0:2:0:0:
340,16,42782,1,10,0:2:0:0:
310,178,43110,5,6,3:2:0:0:
310,178,43274,2,0,L|217:171,1,75,0|2,0:0|3:2,0:0:0:0:
166,125,43602,1,0,3:0:0:0:
159,206,43766,2,0,L|152:299,2,75,10|0|2,2:2|2:0|0:2,0:0:0:0:
87,164,44258,6,0,L|92:89,1,75,0|2,3:0|0:2,0:0:0:0:
19,50,44586,2,0,L|13:124,1,75,8|2,2:0|0:2,0:0:0:0:
4,207,44913,1,0,3:0:0:0:
74,249,45077,2,0,P|95:292|94:343,1,75,10|0,0:2|2:0,0:0:0:0:
174,350,45405,2,0,P|217:329|268:330,1,75,2|0,2:2|2:0,0:0:0:0:
350,353,45733,5,6,3:2:0:0:
350,353,45897,2,0,L|345:272,1,75,0|2,0:0|3:2,0:0:0:0:
339,195,46225,1,0,3:0:0:0:
256,202,46389,2,0,L|182:207,2,75,10|0|2,0:2|0:0|0:2,0:0:0:0:
285,124,46881,6,0,L|366:119,1,75,0|2,3:0|0:2,0:0:0:0:
389,41,47208,2,0,L|315:46,1,75,8|2,0:0|0:2,0:0:0:0:
236,15,47536,1,0,3:0:0:0:
174,69,47700,2,0,L|179:143,1,75,10|0,0:2|0:0,0:0:0:0:
244,196,48028,1,2,0:2:0:0:
389,41,48356,6,0,P|426:35|463:40,1,75,6|0,3:2|0:0,0:0:0:0:
467,122,48684,2,0,P|429:127|392:122,1,75,2|0,3:2|3:0,0:0:0:0:
311,106,49012,1,10,0:2:0:0:
337,184,49176,2,0,P|341:221|336:258,1,75,0|2,0:0|0:2,0:0:0:0:
246,312,49504,6,0,P|302:292|405:322,2,150,0|0|0,3:0|3:0|3:0,0:0:0:0:
175,355,50323,2,0,L|93:350,1,75,10|0,0:2|3:0,0:0:0:0:
52,276,50651,2,0,L|134:271,1,75,10|0,0:2|0:0,0:0:0:0:
217,215,50979,6,0,B|237:166|237:166|216:62,1,150,6|10,3:2|0:2,0:0:0:0:
161,10,51471,1,0,0:0:0:0:
138,89,51635,2,0,B|152:162,1,75,2|0,3:2|3:0,0:0:0:0:
217,215,51963,2,0,B|290:200,1,75,10|0,0:2|0:0,0:0:0:0:
314,97,52290,6,0,P|359:37|442:44,1,150,2|10,3:2|0:2,0:0:0:0:
471,107,52782,2,0,P|462:155|465:190,1,75,0|2,0:0|3:2,0:0:0:0:
512,247,53110,1,0,3:0:0:0:
457,308,53274,2,0,P|419:308|383:300,1,75,10|0,0:2|0:0,0:0:0:0:
286,258,53602,6,0,L|289:332,1,75,12|0,0:2|3:0,0:0:0:0:
289,332,53930,1,0,3:2:0:0:
206,295,54094,2,0,L|209:369,1,75,12|0,0:0|3:2,0:0:0:0:
209,369,54422,1,0,3:0:0:0:
103,357,54586,2,0,L|99:282,1,75,12|0,0:2|3:0,0:0:0:0:
143,211,54913,6,0,L|197:198,3,37.5,8|8|0|0,0:0|0:0|3:0|3:0,0:0:0:0:
176,160,55241,2,0,L|224:133,3,37.5,8|8|0|0,0:0|0:0|3:0|3:0,0:0:0:0:
194,102,55569,2,0,L|234:63,3,37.5,4|4|0|0,0:3|0:3|3:0|3:0,0:0:0:0:
202,38,55897,1,12,0:0:0:0:
341,126,56225,6,0,L|415:123,1,75,12|0,0:0|3:0,0:0:0:0:
415,123,56553,1,0,3:0:0:0:
378,206,56717,2,0,L|452:203,1,75,12|0,0:0|3:0,0:0:0:0:
452,203,57045,1,0,3:0:0:0:
418,303,57208,2,0,L|343:306,1,75,12|0,0:0|3:0,0:0:0:0:
267,340,57536,6,0,L|219:368,3,37.5,8|8|0|0,0:0|0:0|3:0|3:0,0:0:0:0:
207,326,57864,2,0,L|153:340,3,37.5,8|8|0|0,0:0|0:0|3:0|3:0,0:0:0:0:
153,298,58192,2,0,L|97:298,3,37.5,4|4|0|0,0:3|0:3|3:0|0:0,0:0:0:0:
102,258,58520,1,12,0:0:0:0:
256,192,58848,5,14,0:0:0:0:
256,192,59012,12,10,59995,0:0:0:0:
52,81,61471,6,0,P|85:134|146:144,1,123.75000377655,6|0,3:2|0:0,0:0:0:0:
184,127,61799,1,10,0:0:0:0:
241,57,61963,2,0,P|280:47|321:48,1,82.5000025177003,0|2,0:0|3:2,0:0:0:0:
407,81,62290,2,0,P|405:122|415:161,1,82.5000025177003,0|10,3:0|0:2,0:0:0:0:
492,248,62618,6,0,B|451:281|451:281|403:263|339:258,1,165.000005035401,0|0,3:0|3:0,0:0:0:0:
247,265,63110,2,0,P|207:276|176:303,1,82.5000025177003,10|0,0:2|0:0,0:0:0:0:
93,265,63438,2,0,P|102:225|94:184,1,82.5000025177003,2|0,3:2|3:0,0:0:0:0:
170,131,63766,2,0,P|199:158|238:172,1,82.5000025177003,10|0,0:2|0:0,0:0:0:0:
221,46,64094,6,0,P|172:30|129:40,1,82.5000025177003,2|0,3:2|0:0,0:0:0:0:
73,95,64422,1,10,0:2:0:0:
94,184,64586,2,0,P|102:225|93:265,1,82.5000025177003,0|2,0:0|3:2,0:0:0:0:
57,348,64913,1,0,3:0:0:0:
141,384,65077,1,10,0:2:0:0:
187,285,65241,6,0,P|262:284|311:355,1,165.000005035401,0|0,3:0|3:0,0:0:0:0:
401,351,65733,2,0,L|493:341,1,82.5000025177003,10|0,0:2|0:0,0:0:0:0:
506,253,66061,2,0,P|466:241|425:245,1,82.5000025177003,2|0,3:2|3:0,0:0:0:0:
381,157,66389,2,0,P|421:161|463:148,1,82.5000025177003,10|0,0:2|0:0,0:0:0:0:
462,40,66717,6,0,B|432:49|408:69|408:69|383:57|347:56,1,123.75000377655,6|0,3:2|0:0,0:0:0:0:
301,54,67045,1,10,0:2:0:0:
249,128,67208,2,0,P|240:171|248:223,1,82.5000025177003,0|2,0:0|3:2,0:0:0:0:
157,239,67536,2,0,P|132:201|90:171,1,82.5000025177003,0|10,3:0|0:2,0:0:0:0:
65,67,67864,6,0,P|131:19|213:16,1,165.000005035401,0|0,3:0|3:0,0:0:0:0:
301,54,68356,2,0,P|344:62|396:55,1,82.5000025177003,10|0,0:2|0:0,0:0:0:0:
427,137,68684,2,0,P|397:170|378:218,1,82.5000025177003,2|0,3:2|3:0,0:0:0:0:
292,204,69012,2,0,P|277:161|245:121,1,82.5000025177003,10|0,0:2|0:0,0:0:0:0:
143,160,69340,6,0,P|205:210|204:301,1,165.000005035401,6|10,3:2|0:2,0:0:0:0:
151,361,69831,1,4,0:3:0:0:
148,368,69913,1,4,0:3:0:0:
145,375,69995,2,0,L|44:371,1,82.5000025177003,4|0,0:3|3:0,0:0:0:0:
33,285,70323,2,0,L|134:281,1,82.5000025177003,10|0,0:2|0:0,0:0:0:0:
237,273,70651,6,0,L|264:362,1,82.5000025177003,6|0,3:2|3:0,0:0:0:0:
410,271,70979,2,0,L|386:349,1,82.5000025177003,14|0,0:2|3:0,0:0:0:0:
322,237,71307,1,2,3:2:0:0:
381,147,71471,1,0,3:0:0:0:
382,139,71553,1,0,3:0:0:0:
383,131,71635,2,0,L|259:133,1,123.75000377655,10|0,2:0|0:0,0:0:0:0:
213,139,71963,6,0,P|204:212|153:243,1,123.75000377655,6|0,3:2|0:0,0:0:0:0:
123,243,72290,1,10,0:2:0:0:
60,176,72454,2,0,P|71:137|72:95,1,82.5000025177003,0|2,0:0|3:2,0:0:0:0:
128,23,72782,2,0,P|167:11|209:11,1,82.5000025177003,0|10,3:0|0:2,0:0:0:0:
303,78,73110,6,0,B|362:82|403:53|403:53|404:88|420:119,1,165.000005035401,0|0,3:0|3:0,0:0:0:0:
426,201,73602,2,0,L|341:194,1,82.5000025177003,10|0,0:2|0:0,0:0:0:0:
458,303,73930,2,0,L|504:235,1,82.5000025177003,2|0,3:2|3:0,0:0:0:0:
354,280,74258,2,0,L|390:357,1,82.5000025177003,10|0,0:2|0:0,0:0:0:0:
272,367,74586,6,0,P|243:339|205:325,1,82.5000025177003,2|0,3:2|0:0,0:0:0:0:
118,354,74913,1,10,0:2:0:0:
60,284,75077,2,0,L|53:191,1,82.5000025177003,0|2,0:0|3:2,0:0:0:0:
21,118,75405,1,0,3:0:0:0:
99,81,75569,1,10,0:2:0:0:
162,177,75733,6,0,B|208:195|264:166|264:166|326:177,1,165.000005035401,0|0,3:0|3:0,0:0:0:0:
371,99,76225,2,0,B|289:84,1,82.5000025177003,10|0,0:2|0:0,0:0:0:0:
198,93,76553,1,2,3:2:0:0:
162,177,76717,2,0,P|122:185|72:175,1,82.5000025177003,0|10,3:0|0:2,0:0:0:0:
17,113,77045,1,0,0:0:0:0:
0,228,77208,6,0,L|12:322,1,82.5000025177003,6|0,3:2|0:0,0:0:0:0:
92,349,77536,1,10,0:2:0:0:
146,276,77700,2,0,P|184:264|246:270,1,82.5000025177003,0|2,0:0|3:2,0:0:0:0:
291,328,78028,2,0,P|332:328|371:316,1,82.5000025177003,0|10,3:0|0:2,0:0:0:0:
475,264,78356,6,0,B|469:228|441:199|441:199|438:154|469:113,1,165.000005035401,4|0,3:2|3:0,0:0:0:0:
400,53,78848,2,0,L|305:38,1,82.5000025177003,10|0,0:2|0:0,0:0:0:0:
232,70,79176,2,0,P|220:123|237:174,1,82.5000025177003,2|8,3:2|0:0,0:0:0:0:
229,157,79422,1,8,0:0:0:0:
234,162,79504,1,8,0:0:0:0:
323,176,79667,1,0,3:0:0:0:
263,274,79831,6,0,L|180:266,1,82.5000025177003,4|0,3:2|0:0,0:0:0:0:
89,257,80159,2,0,L|82:174,1,82.5000025177003,10|0,0:0|3:2,0:0:0:0:
149,60,80487,2,0,L|155:142,1,82.5000025177003,10|0,0:0|3:2,0:0:0:0:
240,244,80815,2,0,L|233:161,1,82.5000025177003,10|0,0:0|3:2,0:0:0:0:
312,45,81143,6,0,L|394:51,1,82.5000025177003,10|0,0:0|3:2,0:0:0:0:
500,130,81471,2,0,L|417:123,1,82.5000025177003,10|0,0:0|3:2,0:0:0:0:
288,198,81799,2,0,L|370:190,1,82.5000025177003,10|0,0:0|3:2,0:0:0:0:
485,255,82126,2,0,L|402:262,1,82.5000025177003,14|0,0:0|3:2,0:0:0:0:
304,351,82454,6,0,P|267:336|226:337,1,82.5000025177003,6|0,3:2|0:0,0:0:0:0:
97,373,82782,2,0,P|112:335|111:294,1,82.5000025177003,10|0,0:0|3:0,0:0:0:0:
75,166,83110,2,0,P|113:181|154:180,1,82.5000025177003,10|0,0:0|3:0,0:0:0:0:
282,144,83438,2,0,P|267:181|268:222,1,82.5000025177003,10|0,0:0|3:0,0:0:0:0:
385,161,83766,6,0,P|386:120|371:82,1,82.5000025177003,6|8,3:2|0:0,0:0:0:0:
365,76,84012,1,8,0:0:0:0:
357,71,84094,1,10,0:0:0:0:
272,37,84258,1,0,3:0:0:0:
203,96,84422,2,0,L|118:87,1,82.5000025177003,10|0,0:0|3:0,0:0:0:0:
83,170,84749,2,0,L|165:178,1,82.5000025177003,4|8,0:3|0:0,0:0:0:0:
282,144,85077,6,0,P|267:181|268:222,1,82.5000025177003,6|0,3:2|0:0,0:0:0:0:
284,312,85405,1,10,0:0:0:0:
365,272,85569,1,0,0:0:0:0:
430,334,85733,2,0,L|524:325,2,82.5000025177003,10|0|10,0:0|3:0|0:0,0:0:0:0:
300,349,86225,5,4,3:2:0:0:
256,192,87372,12,0,89012,0:0:0:0:
