osu file format v14

[General]
AudioFilename: audio.mp3
AudioLeadIn: 0
PreviewTime: 60735
Countdown: 1
SampleSet: Soft
StackLeniency: 0.4
Mode: 0
LetterboxInBreaks: 0
WidescreenStoryboard: 0

[Editor]
Bookmarks: 1145,6226,9013,19505,22128,32620,43112,53604,61472,71964,79833
DistanceSpacing: 1
BeatDivisor: 2
GridSize: 32
TimelineZoom: 1.1

[Metadata]
Title:over and over
TitleUnicode:over and over
Artist:yanaginagi
ArtistUnicode:やなぎなぎ
Creator:Ohwow
Version:Easy!
Source:Just Because!
Tags:opening sentai filmworks pine jam natsume mio komiya ena izumi eita morikawa hatsuki souma haruto
BeatmapID:1451895
BeatmapSetID:685935

[Difficulty]
HPDrainRate:2
CircleSize:3
OverallDifficulty:2
ApproachRate:3
SliderMultiplier:0.9
SliderTickRate:1

[Events]
//Background and Video events
0,0,"bg.png",0,0
Video,0,"video.avi"
//Break Periods
2,1345,2327
2,3967,4786
2,19541,20687
//Storyboard Layer 0 (Background)
//Storyboard Layer 1 (Fail)
//Storyboard Layer 2 (Pass)
//Storyboard Layer 3 (Foreground)
//Storyboard Sound Samples

[TimingPoints]
1145,327.868852459016,4,2,2,60,1,0
6226,-100,4,2,1,70,0,0
19500,297.029702970297,4,2,2,40,1,0
19648,312.5,4,2,2,40,1,0
19804,300,4,2,2,40,1,0
19954,359.281437125748,4,2,2,40,1,0
20133,315.789473684211,4,2,2,40,1,0
20290,352.941176470588,4,2,2,40,1,0
20466,333.333333333333,4,2,2,40,1,0
21132,317.460317460317,4,2,2,40,1,0
21290,333.333333333333,4,2,2,40,1,0
22127,327.868852459016,4,2,2,50,1,0
22127,-100,4,2,2,50,0,0
32126,-100,4,2,1,50,0,0
32620,-100,4,2,1,70,0,0
61471,-100,4,2,1,80,0,1
86225,-100,4,2,1,80,0,0
87372,-100,4,2,1,5,0,0

[Colours]
Combo1 : 234,197,128
Combo2 : 249,115,155
Combo3 : 250,141,105
Combo4 : 107,107,184

[HitObjects]
352,33,1145,5,0,0:0:0:0:
361,44,3767,5,0,0:0:0:0:
370,55,6226,6,0,L|471:49,1,90,4|2,3:2|3:2,0:0:0:0:
488,135,6882,2,0,L|398:140,1,90,4|2,3:2|3:2,0:0:0:0:
394,230,7538,2,0,L|495:224,1,90,4|2,3:2|3:2,0:0:0:0:
512,310,8194,2,0,B|422:315|422:315|369:347,1,135,0|8,3:0|0:0,0:0:0:0:
298,368,9013,6,0,P|258:347|213:346,1,90,14|8,0:0|0:0,0:0:0:0:
128,377,9669,2,0,P|83:376|43:355,1,90,10|10,0:0|0:0,0:0:0:0:
15,270,10325,1,10,0:0:0:0:
62,193,10653,2,0,L|47:89,2,90,10|10|10,0:0|0:0|0:0,0:0:0:0:
134,246,11636,6,0,L|223:233,1,90,10|10,0:0|0:0,0:0:0:0:
264,152,12292,2,0,L|174:139,1,90,10|10,0:0|0:0,0:0:0:0:
84,139,12948,2,0,P|100:88|138:56,1,90,10|10,0:0|0:0,0:0:0:0:
214,49,13604,2,0,P|257:58|300:46,1,90,10|10,0:0|0:0,0:0:0:0:
389,36,14259,6,0,L|383:134,1,90,14|10,0:0|0:0,0:0:0:0:
298,155,14915,2,0,L|304:253,1,90,10|10,0:0|0:0,0:0:0:0:
364,311,15571,1,10,0:0:0:0:
424,244,15899,2,0,P|468:239|511:251,2,90,10|10|10,0:0|0:0|0:0,0:0:0:0:
364,311,16882,6,0,B|304:344|246:312|246:312|182:268|98:305,1,270,14|0,0:0|3:0,0:0:0:0:
49,231,18194,2,0,B|94:178|64:99|64:99|131:35|226:62,1,315,12|8,0:0|0:0,0:0:0:0:
8,121,22127,6,0,P|36:186|179:173,1,225,0|0,0:0|0:0,0:0:0:0:
207,50,23438,2,0,B|276:44|333:80|333:80|384:79|436:51,1,225,0|0,0:0|0:0,0:0:0:0:
502,166,24749,6,0,L|490:311,1,135,0|0,0:0|0:0,0:0:0:0:
356,315,25733,1,0,0:0:0:0:
302,242,26061,2,0,B|237:214|171:239|171:239|98:265|48:207,1,270,0|0,0:0|0:0,0:0:0:0:
82,124,27372,6,0,L|266:120,1,180
406,228,28684,2,0,L|226:224,1,180
46,234,29995,6,0,P|89:330|204:323,1,225
246,253,31143,2,0,L|229:140,2,90
318,307,32126,2,0,L|375:304,1,45,0|8,3:0|0:0,0:0:0:0:
444,342,32618,6,0,P|451:298|438:255,1,90,6|10,3:2|0:0,0:0:0:0:
358,213,33274,2,0,P|344:170|351:126,1,90,2|10,3:2|0:2,0:0:0:0:
391,45,33930,2,0,L|297:38,1,90,2|10,3:2|0:2,0:0:0:0:
257,117,34586,2,0,L|163:124,1,90,2|10,3:2|0:2,0:0:0:0:
99,183,35241,6,0,P|55:175|13:190,2,90,2|10|2,3:2|0:2|3:2,0:0:0:0:
159,251,36225,1,10,0:2:0:0:
227,191,36553,2,0,P|271:199|313:184,1,90,2|10,3:2|0:2,0:0:0:0:
307,94,37208,1,2,3:2:0:0:
218,75,37536,1,10,0:2:0:0:
133,106,37864,6,0,L|126:1,1,90,2|10,3:2|0:2,0:0:0:0:
37,25,38520,2,0,L|42:114,1,90,2|10,3:2|0:2,0:0:0:0:
16,201,39176,2,0,L|105:195,1,90,2|10,3:2|0:2,0:0:0:0:
147,275,39831,1,2,3:2:0:0:
57,279,40159,1,10,0:2:0:0:
27,366,40487,6,0,L|206:354,1,180,2|2,3:2|3:2,0:0:0:0:
263,284,41471,1,10,0:2:0:0:
212,209,41799,1,2,3:2:0:0:
374,132,42454,2,0,L|463:137,1,90,10|10,0:2|0:2,0:0:0:0:
503,219,43110,6,0,P|482:301|398:318,1,180,6|10,3:2|2:2,0:0:0:0:
277,259,44258,2,0,L|187:264,2,90,0|8|0,3:0|2:0|3:0,0:0:0:0:
340,139,45405,1,2,2:2:0:0:
272,79,45733,6,0,P|188:95|167:178,1,180,6|10,3:2|0:2,0:0:0:0:
277,259,46881,2,0,L|366:264,2,90,0|8|0,3:0|0:0|3:0,0:0:0:0:
162,330,48028,1,2,0:2:0:0:
82,287,48356,6,0,B|54:233|54:233|81:96,1,180,6|10,3:2|0:2,0:0:0:0:
210,138,49504,2,0,P|257:143|296:131,1,90,0|0,3:0|3:0,0:0:0:0:
357,63,50159,2,0,P|400:50|482:107,1,135,0|10,3:0|0:2,0:0:0:0:
469,182,50979,6,0,L|482:289,1,90,6|10,3:2|0:2,0:0:0:0:
421,339,51635,2,0,L|331:328,1,90,2|10,3:2|0:2,0:0:0:0:
241,328,52290,2,0,L|151:339,1,90,2|10,3:2|0:2,0:0:0:0:
92,271,52946,2,0,L|102:181,1,90,2|10,3:2|0:2,0:0:0:0:
171,122,53602,6,0,P|110:91|49:108,1,135,12|12,0:2|0:0,0:0:0:0:
8,236,54586,2,0,L|186:214,1,180,12|8,0:2|0:0,0:0:0:0:
250,151,55569,1,4,0:3:0:0:
314,213,55897,1,12,0:0:0:0:
372,145,56225,6,0,P|433:114|494:131,1,135,12|12,0:0|0:0,0:0:0:0:
447,258,57208,2,0,L|269:280,1,180,12|8,0:0|0:0,0:0:0:0:
210,349,58192,2,0,L|121:338,1,90,4|12,0:3|0:0,0:0:0:0:
88,253,58848,6,0,L|-1:264,2,90,14|10|10,0:0|0:0|0:0,0:0:0:0:
204,183,59995,1,14,0:0:0:0:
211,188,61471,6,0,L|300:191,1,90,6|10,3:2|0:0,0:0:0:0:
373,137,62126,2,0,L|376:47,1,90,2|10,3:2|0:2,0:0:0:0:
286,55,62782,2,0,P|244:69|196:63,1,90,0|10,0:0|0:2,0:0:0:0:
111,43,63438,1,2,3:2:0:0:
22,48,63766,1,10,0:2:0:0:
72,123,64094,6,0,L|78:228,2,90,2|10|2,3:2|0:2|3:2,0:0:0:0:
132,55,65077,1,10,0:2:0:0:
188,126,65405,2,0,L|182:231,1,90,0|10,0:0|0:2,0:0:0:0:
127,286,66061,1,2,3:2:0:0:
178,361,66389,1,10,0:2:0:0:
265,335,66717,6,0,P|316:327|370:339,1,90,6|10,3:2|0:2,0:0:0:0:
432,288,67372,2,0,P|440:237|428:183,1,90,2|10,3:2|0:2,0:0:0:0:
387,121,68028,2,0,L|292:115,1,90,0|10,0:0|0:2,0:0:0:0:
228,173,68684,1,2,3:2:0:0:
222,262,69012,1,10,0:2:0:0:
139,299,69340,6,0,B|130:165|130:165|92:120,1,180,6|4,3:2|0:3,0:0:0:0:
34,68,70323,1,10,0:2:0:0:
120,41,70651,2,0,L|221:9,2,90,6|14|2,3:2|0:2|3:2,0:0:0:0:
34,68,71635,1,10,2:0:0:0:
100,130,71963,6,0,L|103:219,1,90,6|10,3:2|0:2,0:0:0:0:
159,291,72618,2,0,L|248:287,1,90,2|10,3:2|0:2,0:0:0:0:
335,260,73274,2,0,P|349:218|340:174,1,90,0|10,0:0|0:2,0:0:0:0:
325,85,73930,1,2,3:2:0:0:
338,0,74258,1,10,0:2:0:0:
410,54,74586,6,0,L|515:48,2,90,2|10|2,3:2|0:2|3:2,0:0:0:0:
332,100,75569,1,10,0:2:0:0:
259,47,75897,2,0,L|154:41,1,90,0|10,0:0|0:2,0:0:0:0:
101,100,76553,2,0,L|107:205,1,90,2|10,3:2|0:2,0:0:0:0:
157,264,77208,6,0,P|174:304|168:348,1,90,6|10,3:2|0:2,0:0:0:0:
80,320,77864,1,2,3:2:0:0:
105,189,78356,2,0,P|170:173|227:206,1,135,4|10,3:2|0:2,0:0:0:0:
292,269,79176,2,0,L|395:262,1,90,2|8,3:2|0:0,0:0:0:0:
392,352,79831,6,0,L|302:358,1,90,4|10,3:2|0:0,0:0:0:0:
215,332,80487,1,10,0:0:0:0:
135,373,80815,1,10,0:0:0:0:
80,301,81143,2,0,P|67:245|87:201,1,90,10|10,0:0|0:0,0:0:0:0:
155,171,81799,2,0,P|165:127|151:85,1,90,10|14,0:0|0:0,0:0:0:0:
233,46,82454,6,0,B|322:34|322:34|406:75,1,180,6|10,3:2|0:0,0:0:0:0:
481,118,83438,1,10,0:0:0:0:
422,186,83766,2,0,B|410:234|433:281|433:281|421:314|371:332,1,180,6|10,3:2|0:0,0:0:0:0:
281,330,84749,1,4,0:3:0:0:
203,284,85077,6,0,L|97:298,2,90,6|10|10,3:2|0:0|0:0,0:0:0:0:
308,199,86225,1,4,3:2:0:0:
256,192,87372,12,0,89012,0:0:0:0:
