osu file format v14

[General]
AudioFilename: audio.mp3
AudioLeadIn: 0
PreviewTime: 60735
Countdown: 1
SampleSet: Soft
StackLeniency: 0.4
Mode: 0
LetterboxInBreaks: 0
WidescreenStoryboard: 1

[Editor]
Bookmarks: 1145,6226,9013,19505,22128,32620,43112,53604,61472,71964,79833
DistanceSpacing: 0.9
BeatDivisor: 4
GridSize: 32
TimelineZoom: 1.1

[Metadata]
Title:over and over
TitleUnicode:over and over
Artist:yanaginagi
ArtistUnicode:やなぎなぎ
Creator:Ohwow
Version:Normal!
Source:Just Because!
Tags:opening sentai filmworks pine jam natsume mio komiya ena izumi eita morikawa hatsuki souma haruto
BeatmapID:1451899
BeatmapSetID:685935

[Difficulty]
HPDrainRate:4
CircleSize:3.5
OverallDifficulty:4
ApproachRate:5
SliderMultiplier:1.2
SliderTickRate:1

[Events]
//Background and Video events
0,0,"bg.png",0,0
Video,0,"video.avi"
//Break Periods
2,1345,2567
2,19541,20927
//Storyboard Layer 0 (Background)
//Storyboard Layer 1 (Fail)
//Storyboard Layer 2 (Pass)
//Storyboard Layer 3 (Foreground)
//Storyboard Sound Samples

[TimingPoints]
1145,327.868852459016,4,2,2,60,1,0
5735,-100,4,2,1,60,0,0
6226,-100,4,2,1,70,0,0
19500,297.029702970297,4,2,2,40,1,0
19648,312.5,4,2,2,40,1,0
19804,300,4,2,2,40,1,0
19954,359.281437125748,4,2,2,40,1,0
20133,315.789473684211,4,2,2,40,1,0
20290,352.941176470588,4,2,2,40,1,0
20466,333.333333333333,4,2,2,40,1,0
21132,317.460317460317,4,2,2,40,1,0
21290,333.333333333333,4,2,2,40,1,0
22127,327.868852459016,4,2,2,50,1,0
22127,-100,4,2,2,50,0,0
32126,-100,4,2,1,50,0,0
32620,-100,4,2,1,70,0,0
61471,-100,4,2,1,80,0,1
86225,-100,4,2,1,80,0,0
87372,-100,4,2,1,5,0,0

[Colours]
Combo1 : 234,197,128
Combo2 : 249,115,155
Combo3 : 250,141,105
Combo4 : 107,107,184

[HitObjects]
76,53,1145,5,0,0:0:0:0:
70,69,3767,5,0,0:0:0:0:
64,85,5735,2,0,L|1:78,2,60,0|8|8,3:0|0:0|0:0,0:0:0:0:
97,127,6226,6,0,P|157:145|210:127,1,120,4|2,3:2|3:2,0:0:0:0:
316,147,6882,2,0,P|270:189|259:244,1,120,4|2,3:2|3:2,0:0:0:0:
189,326,7538,2,0,P|174:265|132:228,1,120,4|2,3:2|3:2,0:0:0:0:
86,213,8030,1,8,0:0:0:0:
86,213,8194,2,0,L|26:215,2,60,0|4|0,3:0|3:3|3:0,0:0:0:0:
99,160,8685,1,8,0:0:0:0:
205,153,9013,6,0,L|334:147,1,120,14|8,0:0|0:0,0:0:0:0:
370,49,9669,2,0,L|250:54,1,120,10|10,0:0|0:0,0:0:0:0:
145,24,10325,1,10,0:0:0:0:
99,121,10653,2,0,B|103:201|103:201|80:233,2,120,10|10|10,0:0|0:0|0:0,0:0:0:0:
203,95,11636,6,0,L|208:214,1,120,10|10,0:0|0:0,0:0:0:0:
152,307,12292,2,0,P|208:323|265:306,1,120,10|10,0:0|0:0,0:0:0:0:
332,221,12948,2,0,L|337:101,1,120,10|10,0:0|0:0,0:0:0:0:
280,8,13604,2,0,P|336:-8|393:8,1,120,10|10,0:0|0:0,0:0:0:0:
456,96,14259,6,0,L|336:101,1,120,14|10,0:0|0:0,0:0:0:0:
287,197,14915,2,0,L|407:202,1,120,10|10,0:0|0:0,0:0:0:0:
480,281,15571,1,10,0:0:0:0:
392,344,15899,2,0,B|312:348|312:348|276:325,2,120,10|10|10,0:0|0:0|0:0,0:0:0:0:
480,280,16882,6,0,P|448:137|348:245,1,360,14|0,0:0|3:0,0:0:0:0:
275,325,18194,2,0,B|195:294|102:337|102:337|131:192|29:123,1,420,12|8,0:0|0:0,0:0:0:0:
9,275,22127,6,0,P|58:307|116:300,1,120
156,262,22618,2,0,P|205:229|263:236,1,120
373,268,23274,1,0,0:0:0:0:
373,268,23438,2,0,L|379:122,1,120
380,94,23930,2,0,P|320:91|271:58,1,120
179,12,24586,1,0,0:0:0:0:
179,12,24749,6,0,L|184:132,1,120
168,184,25241,2,0,P|118:212|58:201,1,120
29,156,25733,1,0,0:0:0:0:
94,70,26061,1,0,0:0:0:0:
308,47,26717,2,0,L|376:40,2,60
273,90,27208,5,0,0:0:0:0:
283,198,27536,2,0,L|295:318,1,120
342,344,28028,2,0,P|413:330|434:268,1,120
432,238,28520,1,0,0:0:0:0:
482,143,28848,2,0,P|416:156|356:155,1,120
320,122,29340,2,0,L|307:51,2,60
293,228,29995,6,0,P|243:270|159:158,1,240
188,122,30815,2,0,P|198:87|193:37,1,60
179,13,31143,1,0,0:0:0:0:
76,48,31471,2,0,L|4:38,2,60
33,147,32126,2,0,L|24:206,1,60,0|8,3:0|0:0,0:0:0:0:
16,314,32618,6,0,P|68:340|125:328,1,120,6|10,3:2|0:0,0:0:0:0:
162,286,33110,2,0,P|219:273|271:300,1,120,0|0,0:0|3:0,0:0:0:0:
301,346,33602,1,10,0:2:0:0:
408,356,33930,2,0,P|422:298|394:246,1,120,2|10,3:2|0:2,0:0:0:0:
352,213,34422,2,0,P|366:155|338:103,1,120,0|0,0:0|3:2,0:0:0:0:
295,69,34913,1,10,0:2:0:0:
217,144,35241,6,0,L|92:133,1,120,2|10,3:2|0:2,0:0:0:0:
53,166,35733,2,0,L|42:291,1,120,0|0,0:0|3:2,0:0:0:0:
78,326,36225,1,10,0:2:0:0:
168,266,36553,1,2,3:2:0:0:
242,344,36881,1,10,0:2:0:0:
340,298,37208,2,0,L|399:303,2,60,2|0|10,3:2|3:2|0:2,0:0:0:0:
321,252,37700,1,0,0:2:0:0:
321,252,37864,6,0,L|201:262,1,120,2|10,3:2|0:2,0:0:0:0:
94,242,38520,2,0,P|72:182|90:114,1,120,2|10,3:2|0:2,0:0:0:0:
122,92,39012,1,0,0:2:0:0:
122,92,39176,2,0,L|242:82,1,120,2|10,3:2|0:2,0:0:0:0:
348,59,39831,2,0,L|356:0,2,60,2|0|10,3:2|3:2|0:2,0:0:0:0:
381,109,40323,1,0,0:2:0:0:
381,109,40487,6,0,P|404:157|380:225,1,120,2|10,3:2|0:2,0:0:0:0:
282,250,41143,2,0,L|222:245,2,60,2|0|10,3:2|3:0|0:2,0:0:0:0:
364,321,41799,2,0,L|424:326,1,60,2|8,3:2|0:0,0:0:0:0:
483,175,42454,1,10,0:2:0:0:
406,98,42782,1,10,0:2:0:0:
327,172,43110,6,0,B|264:138|264:138|134:154,1,180,6|0,3:2|3:0,0:0:0:0:
108,169,43766,1,10,2:2:0:0:
108,169,43930,1,0,2:0:0:0:
11,217,44258,2,0,B|25:336,2,120,0|8|0,3:0|2:0|3:0,0:0:0:0:
3,163,45077,1,10,0:2:0:0:
71,79,45405,1,2,2:2:0:0:
154,148,45733,6,0,P|119:207|191:294,1,180,6|0,3:2|3:0,0:0:0:0:
233,292,46389,1,10,0:2:0:0:
233,292,46553,1,0,0:0:0:0:
309,216,46881,2,0,P|377:219|438:256,2,120,0|8|0,3:0|0:0|3:0,0:0:0:0:
259,193,47700,1,10,0:2:0:0:
315,100,48028,1,2,0:2:0:0:
236,25,48356,6,0,B|197:60|197:60|63:53,1,180,6|0,3:2|3:0,0:0:0:0:
21,48,49012,1,10,0:2:0:0:
21,48,49176,1,0,0:0:0:0:
34,155,49504,2,0,B|153:161,1,120,0|0,3:0|3:0,0:0:0:0:
260,141,50159,2,0,B|263:81,2,60,0|10|0,3:0|0:2|3:0,0:0:0:0:
257,195,50651,1,10,0:2:0:0:
189,279,50979,6,0,P|243:303|302:293,1,120,6|10,3:2|0:2,0:0:0:0:
400,249,51635,2,0,P|458:238|512:262,1,120,2|10,3:2|0:2,0:0:0:0:
500,370,52290,2,0,P|442:381|388:357,1,120,2|10,3:2|0:2,0:0:0:0:
355,321,52782,1,0,0:0:0:0:
355,321,52946,2,0,P|301:296|242:307,1,120,2|10,3:2|0:2,0:0:0:0:
158,373,53602,6,0,L|144:246,1,120,12|0,0:2|3:2,0:0:0:0:
102,220,54094,2,0,L|88:93,1,120,12|0,0:0|3:0,0:0:0:0:
61,54,54586,1,12,0:2:0:0:
168,36,54913,2,0,P|253:18|188:183,1,360,8|12,0:0|0:0,0:0:0:0:
163,288,56225,6,0,L|290:274,1,120,12|0,0:0|3:0,0:0:0:0:
329,301,56717,2,0,L|456:287,1,120,12|0,0:0|3:0,0:0:0:0:
497,309,57208,1,12,0:0:0:0:
465,205,57536,2,0,B|451:147|475:88|475:88|416:109|355:93,1,240,8|4,0:0|0:3,0:0:0:0:
253,58,58520,1,12,0:0:0:0:
176,134,58848,6,0,P|122:138|57:117,2,120,14|10|10,0:0|0:0|0:0,0:0:0:0:
283,150,59831,1,10,0:0:0:0:
283,150,59995,1,14,0:0:0:0:
295,117,61471,6,0,P|247:150|187:141,1,120,6|10,3:2|0:0,0:0:0:0:
149,105,61963,2,0,L|22:112,1,120,0|0,0:0|3:0,0:0:0:0:
75,209,62618,2,0,P|108:257|109:316,1,120,2|0,3:2|3:0,0:0:0:0:
93,368,63110,1,10,0:2:0:0:
201,374,63438,2,0,P|202:314|236:266,1,120,2|10,3:2|0:2,0:0:0:0:
305,348,64094,6,0,L|444:341,1,120,2|10,3:2|0:2,0:0:0:0:
463,304,64586,2,0,P|446:242|465:166,1,120,0|0,0:0|3:0,0:0:0:0:
485,142,65077,1,10,0:2:0:0:
401,73,65405,2,0,L|405:2,2,60,0|0|10,0:0|3:0|0:2,0:0:0:0:
358,172,66061,1,2,3:2:0:0:
289,88,66389,1,10,0:2:0:0:
215,167,66717,6,0,B|242:211|242:211|235:286,1,120,6|10,3:2|0:2,0:0:0:0:
225,332,67208,2,0,P|159:317|98:338,1,120,0|0,0:0|3:0,0:0:0:0:
9,288,67864,2,0,B|29:250|29:250|18:156,1,120,2|0,3:2|3:0,0:0:0:0:
12,119,68356,1,10,0:2:0:0:
101,59,68684,2,0,P|160:62|218:47,1,120,2|10,3:2|0:2,0:0:0:0:
324,22,69340,6,0,P|380:36|407:88,1,120,6|10,3:2|0:2,0:0:0:0:
376,134,69831,1,4,0:3:0:0:
376,134,69995,2,0,L|383:281,1,120,4|10,0:3|0:2,0:0:0:0:
387,361,70651,2,0,P|450:357|507:386,2,120,6|14|2,3:2|0:2|3:2,0:0:0:0:
292,307,71635,1,10,2:0:0:0:
200,365,71963,6,0,L|68:346,1,120,6|10,3:2|0:2,0:0:0:0:
28,336,72454,2,0,P|59:271|48:215,1,120,0|0,0:0|3:0,0:0:0:0:
110,134,73110,2,0,P|168:135|220:166,1,120,2|0,3:2|3:0,0:0:0:0:
245,214,73602,1,10,0:2:0:0:
321,290,73930,2,0,P|380:288|431:257,1,120,2|10,3:2|0:2,0:0:0:0:
508,181,74586,6,0,P|495:123|496:63,1,120,2|10,3:2|0:2,0:0:0:0:
509,11,75077,1,0,0:0:0:0:
406,44,75405,2,0,L|331:43,1,60,0|10,3:0|0:2,0:0:0:0:
293,28,75733,2,0,L|277:154,1,120,0|0,3:0|3:0,0:0:0:0:
270,200,76225,1,10,0:2:0:0:
168,236,76553,1,2,3:2:0:0:
168,236,76717,2,0,L|175:295,2,60,0|10|0,0:0|0:0|0:0,0:0:0:0:
155,183,77208,6,0,P|99:162|43:181,1,120,6|10,3:2|0:2,0:0:0:0:
7,221,77700,2,0,L|17:82,1,120,0|0,0:0|3:0,0:0:0:0:
32,52,78192,1,10,0:2:0:0:
32,52,78356,6,0,P|88:31|144:50,1,120,6|0,3:2|3:0,0:0:0:0:
158,100,78848,1,10,0:0:0:0:
259,138,79176,2,0,L|394:132,1,120,2|8,3:2|0:0,0:0:0:0:
425,103,79667,1,0,3:0:0:0:
425,103,79831,6,0,P|480:119|507:195,1,120,4|10,3:2|0:0,0:0:0:0:
477,275,80487,1,10,0:0:0:0:
380,226,80815,1,10,0:0:0:0:
328,320,81143,2,0,L|187:312,1,120,10|10,0:0|0:0,0:0:0:0:
138,230,81799,2,0,L|279:222,1,120,10|14,0:0|0:0,0:0:0:0:
325,138,82454,6,0,P|262:114|191:136,1,120,6|10,3:2|0:0,0:0:0:0:
107,151,83110,1,10,0:0:0:0:
79,47,83438,1,10,0:0:0:0:
5,125,83766,2,0,L|13:266,1,120,6|10,3:2|0:0,0:0:0:0:
65,339,84422,1,10,0:0:0:0:
130,252,84749,1,4,0:3:0:0:
222,307,85077,6,0,P|285:283|356:305,1,120,6|10,3:2|0:0,0:0:0:0:
387,322,85569,1,0,0:0:0:0:
387,322,85733,2,0,L|469:303,2,60,10|0|10,0:0|3:0|0:0,0:0:0:0:
360,369,86225,1,4,3:2:0:0:
256,192,87372,12,0,89012,0:0:0:0:
