osu file format v14

[General]
AudioFilename: audio.mp3
AudioLeadIn: 0
PreviewTime: 60735
Countdown: 1
SampleSet: Soft
StackLeniency: 0.4
Mode: 0
LetterboxInBreaks: 0
WidescreenStoryboard: 1

[Editor]
Bookmarks: 1145,6226,9013,19505,22128,32620,43112,53604,61472,71964,79833
DistanceSpacing: 0.8
BeatDivisor: 4
GridSize: 32
TimelineZoom: 2

[Metadata]
Title:over and over
TitleUnicode:over and over
Artist:yanaginagi
ArtistUnicode:やなぎなぎ
Creator:Ohwow
Version:Extra!
Source:Just Because!
Tags:opening sentai filmworks pine jam natsume mio komiya ena izumi eita morikawa hatsuki souma haruto
BeatmapID:1451896
BeatmapSetID:685935

[Difficulty]
HPDrainRate:6
CircleSize:4.2
OverallDifficulty:8.6
ApproachRate:9.2
SliderMultiplier:1.9
SliderTickRate:1

[Events]
//Background and Video events
0,0,"bg.png",0,0
Video,0,"video.avi"
//Break Periods
2,1345,3197
2,3967,5165
//Storyboard Layer 0 (Background)
//Storyboard Layer 1 (Fail)
//Storyboard Layer 2 (Pass)
//Storyboard Layer 3 (Foreground)
//Storyboard Sound Samples

[TimingPoints]
1145,327.868852459016,4,2,2,60,1,0
5735,-100,4,2,1,60,0,0
6226,-100,4,2,1,70,0,0
10571,-100,4,2,1,5,0,0
10653,-100,4,2,1,70,0,0
15817,-100,4,2,1,5,0,0
15899,-100,4,2,1,70,0,0
18522,-100,4,2,1,50,0,0
18849,-100,4,2,1,70,0,0
19500,297.029702970297,4,2,2,40,1,0
19648,312.5,4,2,2,40,1,0
19804,300,4,2,2,40,1,0
19954,359.281437125748,4,2,2,40,1,0
20133,315.789473684211,4,2,2,40,1,0
20290,352.941176470588,4,2,2,40,1,0
20466,333.333333333333,4,2,2,40,1,0
21132,317.460317460317,4,2,2,40,1,0
21290,333.333333333333,4,2,2,40,1,0
22127,327.868852459016,4,2,2,50,1,0
22127,-125,4,2,2,50,0,0
29995,-142.857142857143,4,2,2,50,0,0
30077,-142.857142857143,4,2,2,20,0,0
30733,-142.857142857143,4,2,2,5,0,0
30815,-125,4,2,2,50,0,0
32126,-125,4,2,1,50,0,0
32618,-100,4,2,1,70,0,0
32864,-100,4,2,1,5,0,0
32946,-100,4,2,1,70,0,0
34175,-100,4,2,1,5,0,0
34257,-100,4,2,1,70,0,0
35487,-100,4,2,1,5,0,0
35569,-100,4,2,1,70,0,0
38110,-100,4,2,1,5,0,0
38192,-100,4,2,1,70,0,0
39421,-100,4,2,1,5,0,0
39503,-100,4,2,1,70,0,0
40733,-100,4,2,1,5,0,0
40815,-100,4,2,1,70,0,0
61389,-100,4,2,1,5,0,0
61471,-90.9090909090909,4,2,1,80,0,1
71635,-71.4285714285714,4,2,1,80,0,1
71963,-90.9090909090909,4,2,1,80,0,1
86225,-100,4,2,1,80,0,0
87372,-100,4,2,1,5,0,0

[Colours]
Combo1 : 234,197,128
Combo2 : 249,115,155
Combo3 : 250,141,105
Combo4 : 107,107,184

[HitObjects]
256,192,1145,5,0,0:0:0:0:
256,192,3767,5,0,0:0:0:0:
270,213,5735,5,0,3:0:0:0:
143,98,5899,1,8,0:0:0:0:
107,266,6063,1,8,0:0:0:0:
89,38,6226,6,0,B|134:67|134:67|267:42,1,190,4|2,3:2|3:2,0:0:0:0:
457,104,6718,1,8,0:0:0:0:
291,293,6882,6,0,P|336:221|442:249,1,190,4|2,3:2|3:2,0:0:0:0:
410,381,7374,1,8,0:0:0:0:
234,158,7538,6,0,B|182:138|135:156|135:156|84:176|32:137,1,190,4|2,3:2|3:2,0:0:0:0:
108,22,8030,1,8,0:0:0:0:
108,22,8112,1,8,0:0:0:0:
108,22,8194,6,0,L|101:69,1,47.5,0|0,3:0|3:0,0:0:0:0:
77,267,8358,2,0,P|98:255|121:247,1,47.5,4|4,3:3|3:3,0:0:0:0:
260,315,8522,2,0,P|280:326|303:334,1,47.5,0|0,3:0|3:0,0:0:0:0:
430,227,8685,1,8,0:0:0:0:
416,196,9013,6,0,L|424:310,1,95,14|0,0:0|0:0,0:0:0:0:
236,384,9341,2,0,L|242:289,1,95,8|0,0:0|0:0,0:0:0:0:
310,118,9669,1,10,0:0:0:0:
340,271,9833,1,0,3:2:0:0:
225,138,9997,1,10,0:0:0:0:
411,93,10161,1,0,3:2:0:0:
185,56,10325,6,0,L|176:204,1,142.5,10|0,0:0|0:0,0:0:0:0:
175,236,10653,1,10,0:0:0:0:
324,200,10817,1,0,0:0:0:0:
376,384,10981,1,10,0:0:0:0:
271,274,11144,1,0,3:2:0:0:
404,137,11308,1,10,0:0:0:0:
361,283,11472,1,0,3:2:0:0:
181,137,11636,6,0,L|275:128,1,95,10|0,0:0|0:0,0:0:0:0:
113,256,11964,2,0,L|18:247,1,95,10|0,0:0|0:0,0:0:0:0:
276,128,12292,1,10,0:0:0:0:
302,299,12456,1,0,3:2:0:0:
451,109,12620,1,10,0:0:0:0:
425,280,12784,1,0,3:2:0:0:
310,40,12948,6,0,P|263:34|219:54,1,95,10|0,0:0|0:0,0:0:0:0:
418,196,13276,2,0,P|464:201|509:182,1,95,10|0,0:0|0:0,0:0:0:0:
400,37,13604,1,10,0:0:0:0:
287,212,13767,1,0,3:2:0:0:
451,109,13931,1,10,0:0:0:0:
236,140,14095,1,0,3:2:0:0:
350,357,14259,6,0,L|358:243,1,95,14|0,0:0|0:0,0:0:0:0:
230,46,14587,2,0,L|236:140,1,95,10|0,0:0|0:0,0:0:0:0:
199,258,14915,1,10,0:0:0:0:
361,180,15079,1,0,3:2:0:0:
255,349,15243,1,10,0:0:0:0:
150,177,15407,1,0,3:2:0:0:
48,384,15571,6,0,L|38:241,1,142.5,10|0,0:0|0:0,0:0:0:0:
35,203,15899,1,10,0:0:0:0:
216,248,16063,1,0,0:0:0:0:
108,133,16226,1,10,0:0:0:0:
143,318,16390,1,0,3:2:0:0:
289,178,16554,1,10,0:0:0:0:
317,325,16718,1,0,3:2:0:0:
353,90,16882,6,0,P|310:70|263:72,1,95,14|0,0:0|3:0,0:0:0:0:
210,168,17210,2,0,L|174:211,3,47.5,0|0|0|0,3:0|3:0|3:0|3:0,0:0:0:0:
270,245,17538,2,0,L|260:300,3,47.5,0|0|0|0,3:0|3:0|3:0|3:0,0:0:0:0:
360,281,17866,2,0,L|379:333,3,47.5,0|0|0|0,3:0|3:0|3:0|3:0,0:0:0:0:
459,270,18194,6,0,P|433:214|355:181,1,142.5,12|0,0:0|0:0,0:0:0:0:
338,185,18522,1,8,0:0:0:0:
315,193,18604,1,8,0:0:0:0:
296,206,18685,1,8,0:0:0:0:
280,223,18767,1,8,0:0:0:0:
269,244,18849,5,8,0:0:0:0:
215,256,18931,1,8,0:0:0:0:
162,244,19013,1,8,0:0:0:0:
119,209,19095,1,8,0:0:0:0:
97,159,19177,1,8,0:0:0:0:
100,104,19259,1,8,0:0:0:0:
127,56,19341,2,0,P|152:37|175:29,1,47.5,8|8,0:0|0:0,0:0:0:0:
370,65,19500,5,0,0:0:0:0:
292,101,19648,1,0,0:0:0:0:
214,137,19804,1,0,0:0:0:0:
379,74,19954,5,0,0:0:0:0:
301,110,20133,1,0,0:0:0:0:
223,146,20290,1,0,0:0:0:0:
388,83,20466,5,0,0:0:0:0:
310,119,20632,1,0,0:0:0:0:
232,155,20799,1,0,0:0:0:0:
397,92,20966,5,0,0:0:0:0:
319,128,21132,1,0,0:0:0:0:
241,164,21290,1,0,0:0:0:0:
241,164,22127,6,0,L|263:342,1,152
406,219,22618,2,0,P|370:204|333:204,1,76
173,270,22946,2,0,P|100:270|68:205,1,152
153,34,23438,6,0,B|173:70|173:70|154:187,1,152
0,92,23930,2,0,L|86:84,1,76
220,220,24258,2,0,L|48:204,1,152,0|0,0:0|0:0,0:0:0:0:
3,354,24749,6,0,P|49:313|64:270,1,76,0|0,0:0|0:0,0:0:0:0:
69,206,25077,1,0,0:0:0:0:
144,363,25241,2,0,P|159:328|162:290,1,76,0|0,0:0|0:0,0:0:0:0:
155,179,25569,1,0,0:0:0:0:
262,232,25733,2,0,P|296:247|334:250,1,76,0|0,0:0|0:0,0:0:0:0:
438,172,26061,6,0,P|357:192|341:282,1,152,0|0,0:0|0:0,0:0:0:0:
334,250,26717,2,0,L|338:329,2,76
362,108,27208,2,0,P|325:118|288:112,1,76
172,228,27536,2,0,P|207:163|184:92,1,152
22,102,28028,2,0,L|98:98,1,76
195,3,28356,1,0,0:0:0:0:
288,112,28520,6,0,P|325:118|362:108,1,76
500,205,28848,2,0,P|449:258|377:250,1,152
233,302,29340,2,0,L|308:306,1,76,0|0,0:0|0:0,0:0:0:0:
451,374,29667,2,0,L|375:369,1,76,0|0,0:0|0:0,0:0:0:0:
291,168,29995,6,0,P|409:132|375:250,1,299.249990867615
347,241,30815,1,0,0:0:0:0:
251,263,30979,1,0,0:0:0:0:
198,346,31143,1,0,0:0:0:0:
200,376,31471,5,0,0:0:0:0:
279,257,31635,1,0,0:0:0:0:
212,128,31799,1,0,0:0:0:0:
359,182,32126,5,0,3:0:0:0:
379,32,32290,2,0,L|369:107,1,76,8|0,0:0|0:0,0:0:0:0:
279,257,32618,6,0,P|340:225|415:245,1,142.5,6|0,3:2|0:0,0:0:0:0:
419,277,32946,1,10,0:0:0:0:
215,325,33110,2,0,P|189:285|188:236,1,95,0|2,0:0|3:2,0:0:0:0:
292,115,33438,1,0,3:2:0:0:
117,105,33602,2,0,L|211:110,1,95,10|0,0:2|0:0,0:0:0:0:
31,11,33930,6,0,L|41:189,1,142.5,2|0,3:2|0:0,0:0:0:0:
42,191,34258,1,10,0:2:0:0:
211,110,34422,2,0,L|216:15,1,95,0|2,0:0|3:2,0:0:0:0:
297,202,34749,1,0,3:2:0:0:
154,196,34913,1,10,0:2:0:0:
333,81,35077,1,0,0:2:0:0:
408,288,35241,6,0,P|481:280|512:208,1,142.5,2|0,3:2|0:0,0:0:0:0:
502,187,35569,1,10,0:2:0:0:
410,45,35733,2,0,P|364:57|316:57,1,95,0|2,0:0|3:2,0:0:0:0:
139,58,36061,1,0,3:2:0:0:
231,196,36225,2,0,P|278:196|324:208,1,95,10|0,0:2|0:0,0:0:0:0:
130,270,36553,6,0,L|123:175,1,95,2|0,3:2|0:0,0:0:0:0:
0,290,36881,2,0,L|6:384,1,95,10|0,0:2|0:0,0:0:0:0:
170,266,37208,1,2,3:2:0:0:
37,200,37372,1,0,3:2:0:0:
136,364,37536,1,10,0:2:0:0:
204,168,37700,1,0,0:2:0:0:
272,271,37864,6,0,P|338:244|410:255,1,142.5,2|0,3:2|0:0,0:0:0:0:
438,276,38192,2,0,P|443:226|458:184,1,95,10|0,0:2|0:0,0:0:0:0:
505,366,38520,2,0,L|404:367,1,95,2|0,3:2|3:0,0:0:0:0:
240,368,38848,1,10,0:2:0:0:
309,175,39012,1,0,0:2:0:0:
187,194,39176,6,0,P|121:167|49:178,1,142.5,2|0,3:2|0:0,0:0:0:0:
21,199,39504,2,0,P|16:149|1:107,1,95,10|0,0:2|0:0,0:0:0:0:
1,337,39831,1,2,3:2:0:0:
110,252,39995,1,0,3:2:0:0:
187,352,40159,1,10,0:2:0:0:
284,209,40323,1,0,0:2:0:0:
134,83,40487,6,0,P|141:163|216:147,1,142.5,2|0,3:2|0:0,0:0:0:0:
217,143,40815,2,0,P|265:117|312:119,1,95,10|0,0:2|0:0,0:0:0:0:
442,212,41143,1,2,3:2:0:0:
413,97,41307,1,0,3:0:0:0:
351,275,41471,2,0,P|303:301|256:299,1,95,10|0,0:2|0:0,0:0:0:0:
128,220,41799,5,2,3:2:0:0:
46,360,41963,2,0,L|54:232,1,95,8|2,0:0|0:2,0:0:0:0:
64,123,42290,1,0,3:0:0:0:
185,299,42454,5,10,0:2:0:0:
52,265,42618,1,0,3:0:0:0:
259,146,42782,1,10,0:2:0:0:
498,330,43110,5,6,3:2:0:0:
508,140,43274,2,0,L|502:241,1,95,0|2,0:0|3:2,0:0:0:0:
413,345,43602,1,0,3:0:0:0:
417,249,43766,1,10,2:2:0:0:
328,360,43930,2,0,L|333:265,1,95,0|2,2:0|0:2,0:0:0:0:
220,122,44258,6,0,L|225:216,1,95,0|2,3:0|0:2,0:0:0:0:
144,324,44586,2,0,L|138:229,1,95,8|2,2:0|0:2,0:0:0:0:
134,136,44913,1,0,3:0:0:0:
54,289,45077,1,10,0:2:0:0:
50,196,45241,1,0,2:0:0:0:
144,324,45405,1,2,2:2:0:0:
134,136,45569,1,0,2:0:0:0:
334,314,45733,5,6,3:2:0:0:
144,324,45897,2,0,L|245:318,1,95,0|2,0:0|3:2,0:0:0:0:
349,229,46225,1,0,3:0:0:0:
253,233,46389,1,10,0:2:0:0:
364,144,46553,2,0,L|269:149,1,95,0|2,0:0|0:2,0:0:0:0:
414,314,46881,6,0,L|509:319,1,95,0|2,3:0|0:2,0:0:0:0:
253,233,47208,2,0,L|158:228,1,95,8|2,0:0|0:2,0:0:0:0:
364,144,47536,1,0,3:0:0:0:
338,367,47700,2,0,L|333:272,1,95,10|0,0:2|0:0,0:0:0:0:
214,53,48028,2,0,L|209:148,1,95,2|0,0:2|3:0,0:0:0:0:
17,14,48356,5,6,3:2:0:0:
23,153,48520,1,0,0:0:0:0:
103,30,48684,1,2,3:2:0:0:
111,194,48848,1,0,3:0:0:0:
189,46,49012,1,10,0:2:0:0:
198,235,49176,2,0,L|193:140,1,95,0|2,0:0|0:2,0:0:0:0:
23,293,49504,6,0,L|118:288,1,95,0|2,3:0|0:2,0:0:0:0:
293,230,49831,2,0,L|198:235,1,95,0|2,3:0|0:2,0:0:0:0:
288,325,50159,1,0,3:0:0:0:
298,135,50323,1,10,0:2:0:0:
367,291,50487,1,0,3:0:0:0:
378,100,50651,1,10,0:2:0:0:
398,67,50979,6,0,P|350:69|305:56,1,95,6|0,3:2|0:0,0:0:0:0:
120,174,51307,2,0,P|165:161|212:163,1,95,10|0,0:2|0:0,0:0:0:0:
360,276,51635,1,2,3:2:0:0:
348,153,51799,1,0,3:0:0:0:
179,266,51963,2,0,L|170:360,1,95,10|0,0:2|0:0,0:0:0:0:
360,276,52290,6,0,L|351:180,1,95,2|0,3:2|0:0,0:0:0:0:
224,77,52618,1,10,0:2:0:0:
120,174,52782,6,0,P|165:187|212:184,1,95,0|2,0:0|3:2,0:0:0:0:
375,72,53110,1,0,3:0:0:0:
453,266,53274,2,0,P|405:263|360:276,1,95,10|0,0:2|0:0,0:0:0:0:
235,358,53602,5,12,0:2:0:0:
126,136,53766,1,0,3:0:0:0:
117,118,53930,1,0,3:2:0:0:
59,338,54094,5,12,0:0:0:0:
206,140,54258,1,0,3:2:0:0:
218,123,54422,1,0,3:0:0:0:
235,358,54586,6,0,P|202:324|157:314,1,95,12|0,0:2|3:0,0:0:0:0:
59,338,54913,6,0,L|-11:344,3,47.5,8|8|0|0,0:0|0:0|3:0|3:0,0:0:0:0:
66,256,55241,1,8,0:0:0:0:
71,232,55323,1,8,0:0:0:0:
73,209,55405,1,0,3:0:0:0:
73,185,55487,1,0,3:0:0:0:
70,161,55569,5,4,0:3:0:0:
104,138,55651,1,4,0:3:0:0:
144,127,55733,1,0,3:0:0:0:
185,130,55815,1,0,3:0:0:0:
222,148,55897,2,0,P|267:129|330:120,1,95,12|0,0:0|0:0,0:0:0:0:
453,46,56225,5,12,0:0:0:0:
306,244,56389,1,0,3:0:0:0:
294,261,56553,1,0,3:0:0:0:
277,26,56717,5,12,0:0:0:0:
386,248,56881,1,0,3:0:0:0:
395,266,57045,1,0,3:0:0:0:
453,46,57208,6,0,P|406:42|367:68,1,95,12|0,0:0|3:0,0:0:0:0:
385,152,57454,1,0,0:0:0:0:
401,171,57536,2,0,L|448:166,3,47.5,8|8|0|0,0:0|0:0|3:0|3:0,0:0:0:0:
315,220,57864,1,8,0:0:0:0:
279,216,57946,1,8,0:0:0:0:
245,224,58028,1,0,3:0:0:0:
215,243,58110,1,0,3:0:0:0:
193,271,58192,6,0,P|166:279|144:281,1,47.5,4|4,0:3|0:3,0:0:0:0:
42,200,58356,2,0,P|65:202|88:209,1,47.5,0|0,3:0|0:0,0:0:0:0:
70,345,58520,1,12,0:0:0:0:
65,363,58848,5,14,0:0:0:0:
190,156,59012,1,10,0:0:0:0:
261,330,59176,1,10,0:0:0:0:
72,123,59340,1,10,0:0:0:0:
367,208,59504,5,10,0:0:0:0:
138,256,59667,1,10,0:0:0:0:
290,31,59831,1,10,0:0:0:0:
415,321,59995,1,14,0:0:0:0:
431,345,60815,5,0,0:0:0:0:
461,197,60979,1,0,3:0:0:0:
451,213,61061,1,0,3:0:0:0:
441,229,61143,2,0,P|371:216|301:229,1,142.5,8|0,0:0|0:0,0:0:0:0:
230,265,61471,6,0,P|206:342|131:359,1,156.750004783631,6|0,3:2|0:0,0:0:0:0:
97,350,61799,1,10,0:0:0:0:
164,145,61963,2,0,L|297:133,1,104.500003189087,0|2,0:0|3:2,0:0:0:0:
434,37,62290,1,0,3:0:0:0:
352,238,62454,1,10,0:2:0:0:
186,53,62618,6,0,P|95:82|79:185,1,209.000006378174,0|0,3:0|3:0,0:0:0:0:
127,304,63028,1,0,0:0:0:0:
138,280,63110,2,0,P|188:267|240:267,1,104.500003189087,10|0,0:2|0:0,0:0:0:0:
415,320,63438,2,0,P|378:282|351:237,1,104.500003189087,2|0,3:2|3:0,0:0:0:0:
311,60,63766,2,0,P|297:110|271:155,1,104.500003189087,10|0,0:2|0:0,0:0:0:0:
23,43,64094,6,0,B|56:48|83:69|83:69|126:49|171:51,1,156.750004783631,2|0,3:2|0:0,0:0:0:0:
211,63,64422,1,10,0:2:0:0:
91,256,64586,2,0,P|85:205|84:148,1,104.500003189087,0|2,0:0|3:2,0:0:0:0:
201,226,64913,1,0,3:0:0:0:
66,367,65077,1,10,0:2:0:0:
284,266,65241,6,0,P|273:167|180:133,1,209.000006378174,0|0,3:0|3:0,0:0:0:0:
364,0,65733,2,0,P|358:50|357:108,1,104.500003189087,10|0,0:2|0:0,0:0:0:0:
412,245,66061,1,2,3:2:0:0:
201,226,66225,1,0,3:0:0:0:
462,94,66389,1,10,0:2:0:0:
251,113,66553,1,0,0:0:0:0:
489,291,66717,6,0,P|411:277|331:280,1,156.750004783631,6|0,3:2|0:0,0:0:0:0:
292,289,67045,1,10,0:2:0:0:
172,115,67208,2,0,P|224:118|275:129,1,104.500003189087,0|2,0:0|3:2,0:0:0:0:
109,217,67536,1,0,3:0:0:0:
60,17,67700,1,10,0:2:0:0:
23,253,67864,6,0,P|88:308|192:258,1,209.000006378174,0|0,3:0|3:0,0:0:0:0:
113,118,68356,2,0,P|96:166|109:217,1,104.500003189087,10|0,0:2|0:0,0:0:0:0:
280,359,68684,2,0,P|263:310|275:260,1,104.500003189087,2|0,3:2|3:0,0:0:0:0:
450,216,69012,1,10,0:2:0:0:
465,243,69340,6,0,L|361:231,1,104.500003189087,6|0,3:2|0:0,0:0:0:0:
249,121,69667,1,10,0:2:0:0:
169,269,69831,1,4,0:3:0:0:
165,243,69913,1,4,0:3:0:0:
161,217,69995,1,4,0:3:0:0:
61,347,70159,1,0,3:0:0:0:
12,157,70323,1,10,0:2:0:0:
0,186,70651,5,6,3:2:0:0:
207,346,70815,1,0,3:0:0:0:
298,89,70979,5,14,0:2:0:0:
91,249,71143,1,0,3:0:0:0:
127,11,71307,5,2,3:2:0:0:
142,46,71389,1,0,3:0:0:0:
146,85,71471,1,0,3:0:0:0:
139,123,71553,1,0,3:0:0:0:
122,157,71635,6,0,P|167:182|259:166,1,132.999995941162,10|0,2:0|0:0,0:0:0:0:
434,10,71963,6,0,P|359:-1|303:48,1,156.750004783631,6|0,3:2|0:0,0:0:0:0:
298,89,72290,1,10,0:2:0:0:
508,161,72454,2,0,L|513:56,1,104.500003189087,0|2,0:0|3:2,0:0:0:0:
350,194,72782,1,0,3:0:0:0:
504,363,72946,1,10,0:2:0:0:
261,377,73110,6,0,P|309:290|408:294,1,209.000006378174,0|0,3:0|3:0,0:0:0:0:
365,173,73520,1,0,0:0:0:0:
350,194,73602,2,0,P|300:181|248:181,1,104.500003189087,10|0,0:2|0:0,0:0:0:0:
122,363,73930,2,0,P|159:325|186:280,1,104.500003189087,2|0,3:2|3:0,0:0:0:0:
90,83,74258,2,0,P|104:133|130:178,1,104.500003189087,10|0,0:2|0:0,0:0:0:0:
332,384,74586,6,0,B|369:357|384:316|384:316|416:331|453:328,1,156.750004783631,2|0,3:2|0:0,0:0:0:0:
494,324,74913,1,10,0:2:0:0:
365,116,75077,2,0,P|359:175|366:236,1,104.500003189087,0|2,0:0|3:2,0:0:0:0:
489,177,75405,1,0,3:0:0:0:
278,253,75569,1,10,0:2:0:0:
311,11,75733,6,0,P|338:93|241:141,1,209.000006378174,0|0,3:0|3:0,0:0:0:0:
49,56,76225,2,0,P|102:48|199:49,1,104.500003189087,10|0,0:2|0:0,0:0:0:0:
191,211,76553,1,2,3:2:0:0:
266,69,76717,1,0,3:0:0:0:
109,186,76881,1,10,0:2:0:0:
302,246,77045,1,0,0:0:0:0:
56,326,77208,6,0,P|125:300|186:304,1,104.500003189087,6|0,3:2|0:0,0:0:0:0:
287,336,77536,1,10,0:2:0:0:
416,180,77700,2,0,P|347:154|286:158,1,104.500003189087,0|2,0:0|3:2,0:0:0:0:
185,190,78028,1,0,3:0:0:0:
328,37,78192,1,10,0:2:0:0:
359,290,78356,6,0,P|404:217|517:243,1,209.000006378174,4|0,3:2|3:0,0:0:0:0:
404,383,78848,2,0,P|356:375|296:376,1,104.500003189087,10|0,0:2|0:0,0:0:0:0:
167,275,79176,1,2,3:2:0:0:
323,137,79340,1,8,0:0:0:0:
315,162,79422,1,8,0:0:0:0:
307,187,79504,2,0,L|232:176,1,52.2500015945435,8|0,0:0|3:0,0:0:0:0:
132,97,79667,2,0,L|207:86,1,52.2500015945435,0|0,3:0|3:0,0:0:0:0:
359,290,79831,6,0,P|308:277|256:273,1,104.500003189087,4|0,3:2|0:0,0:0:0:0:
33,332,80159,5,10,0:0:0:0:
3,121,80323,1,0,3:2:0:0:
167,306,80487,5,10,0:0:0:0:
93,81,80651,1,0,3:2:0:0:
294,252,80815,5,10,0:0:0:0:
174,25,80979,1,0,3:2:0:0:
442,114,81143,5,10,0:0:0:0:
193,161,81307,1,0,3:2:0:0:
453,210,81471,5,10,0:0:0:0:
204,257,81635,1,0,3:2:0:0:
380,65,81799,5,10,0:0:0:0:
362,303,81963,1,0,3:2:0:0:
119,85,82126,5,14,0:0:0:0:
168,342,82290,1,0,3:2:0:0:
381,92,82454,6,0,L|390:224,1,104.500003189087,6|0,3:2|0:0,0:0:0:0:
509,263,82782,5,10,0:0:0:0:
479,52,82946,1,0,3:0:0:0:
419,303,83110,5,10,0:0:0:0:
345,78,83274,1,0,3:0:0:0:
338,359,83438,5,10,0:0:0:0:
218,132,83602,1,0,3:0:0:0:
90,363,83766,6,0,L|222:354,1,104.500003189087,6|8,3:2|0:0,0:0:0:0:
206,332,84012,1,8,0:0:0:0:
218,308,84094,1,10,0:0:0:0:
66,205,84258,1,0,3:0:0:0:
25,318,84422,1,10,0:0:0:0:
203,213,84586,2,0,L|150:209,1,52.2500015945435,0|0,3:0|3:0,0:0:0:0:
0,128,84749,2,0,L|52:124,1,52.2500015945435,4|4,0:3|0:3,0:0:0:0:
203,48,84913,1,8,0:0:0:0:
212,72,84995,1,8,0:0:0:0:
221,95,85077,6,0,P|271:83|323:82,1,104.500003189087,6|0,3:2|0:0,0:0:0:0:
447,253,85405,1,10,0:0:0:0:
203,213,85569,1,0,0:0:0:0:
399,110,85733,1,10,0:0:0:0:
251,355,85897,1,0,3:0:0:0:
496,261,86061,5,10,0:0:0:0:
153,204,86225,1,4,3:2:0:0:
256,192,87372,12,0,89012,0:0:0:0:
