osu file format v14

[General]
AudioFilename: audio.mp3
AudioLeadIn: 0
PreviewTime: 60815
Countdown: 0
SampleSet: None
StackLeniency: 0.7
Mode: 3
LetterboxInBreaks: 0
SpecialStyle: 0
WidescreenStoryboard: 0

[Editor]
DistanceSpacing: 0.9
BeatDivisor: 4
GridSize: 4
TimelineZoom: 1.9

[Metadata]
Title:over and over
TitleUnicode:over and over
Artist:yanaginagi
ArtistUnicode:やなぎなぎ
Creator:Damaree
Version:Just Long Notes!
Source:Just Because!
Tags:opening sentai filmworks pine jam natsume mio komiya ena izumi eita morikawa hatsuki souma haruto
BeatmapID:1507967
BeatmapSetID:713452

[Difficulty]
HPDrainRate:8
CircleSize:4
OverallDifficulty:7
ApproachRate:5
SliderMultiplier:1.4
SliderTickRate:1

[Events]
//Background and Video events
0,0,"thumb-1920-871309.jpg",0,0
//Break Periods
//Storyboard Layer 0 (Background)
//Storyboard Layer 1 (Fail)
//Storyboard Layer 2 (Pass)
//Storyboard Layer 3 (Foreground)
//Storyboard Sound Samples

[TimingPoints]
1145,327.868852459016,4,2,1,0,1,0
5735,-100,4,2,1,0,0,0
6226,-100,4,2,1,0,0,0
10571,-100,4,2,1,0,0,0
10653,-100,4,2,1,0,0,0
15817,-100,4,2,1,0,0,0
15899,-100,4,2,1,0,0,0
18522,-100,4,2,1,0,0,0
18849,-100,4,2,1,0,0,0
19500,297.029702970297,4,2,1,0,1,0
19648,312.5,4,2,1,0,1,0
19804,300,4,2,1,0,1,0
19954,359.281437125748,4,2,1,0,1,0
20133,315.789473684211,4,2,1,0,1,0
20290,352.941176470588,4,2,1,0,1,0
20466,333.333333333333,4,2,1,0,1,0
21132,317.460317460317,4,2,1,0,1,0
21290,333.333333333333,4,2,1,0,1,0
22127,327.868852459016,4,2,1,0,1,0
22127,-125,4,2,1,0,0,0
29913,-125,4,2,1,0,0,0
29995,-125,4,2,1,0,0,0
32126,-125,4,2,1,0,0,0
32618,-100,4,2,1,0,0,0
32864,-100,4,2,1,0,0,0
32946,-100,4,2,1,0,0,0
34175,-100,4,2,1,0,0,0
34257,-100,4,2,1,0,0,0
35487,-100,4,2,1,0,0,0
35569,-100,4,2,1,0,0,0
38110,-100,4,2,1,0,0,0
38192,-100,4,2,1,0,0,0
39421,-100,4,2,1,0,0,0
39503,-100,4,2,1,0,0,0
40733,-100,4,2,1,0,0,0
40815,-100,4,2,1,0,0,0
56142,-100,4,2,1,0,0,0
56224,-100,4,2,1,0,0,0
60815,-125,4,2,1,0,0,0
61389,-125,4,2,1,0,0,0
61471,-100,4,2,1,0,0,1
71635,-95.2380952380952,4,2,1,0,0,1
71963,-100,4,2,1,0,0,1
86225,-100,4,2,1,0,0,0
87373,-100,4,2,1,0,0,0

[HitObjects]
448,192,1063,5,0,0:0:0:0:
320,192,1090,1,0,0:0:0:0:
192,192,1117,1,0,0:0:0:0:
64,192,1145,128,0,3685:0:0:0:0:
448,192,2456,128,0,3685:0:0:0:0:
192,192,3713,1,0,0:0:0:0:
320,192,3740,1,0,0:0:0:0:
448,192,3767,128,0,5735:0:0:0:0:
320,192,4587,128,0,5161:0:0:0:0:
192,192,4751,128,0,5325:0:0:0:0:
64,192,4915,128,0,5489:0:0:0:0:
320,192,5243,128,0,5735:0:0:0:0:
192,192,5407,128,0,5694:0:0:0:0:
64,192,5571,128,0,5694:0:0:0:0:
192,192,5735,1,0,0:0:0:0:
64,192,5735,1,0,0:0:0:0:
448,192,5899,128,0,6063:0:0:0:0:
192,192,5899,128,0,5981:0:0:0:0:
64,192,5981,128,0,6144:0:0:0:0:
320,192,6063,128,0,6144:0:0:0:0:
192,192,6063,128,0,6226:0:0:0:0:
448,192,6144,128,0,6226:0:0:0:0:
64,192,6226,128,0,6882:0:0:0:0:
320,192,6226,1,0,0:0:0:0:
192,192,6554,128,0,6882:0:0:0:0:
320,192,6718,128,0,6882:0:0:0:0:
448,192,6937,128,0,7538:0:0:0:0:
320,192,6937,1,0,0:0:0:0:
192,192,6937,1,0,0:0:0:0:
64,192,6937,1,0,0:0:0:0:
320,192,7210,128,0,7538:0:0:0:0:
192,192,7374,128,0,7538:0:0:0:0:
64,192,7593,128,0,7866:0:0:0:0:
192,192,7593,1,0,0:0:0:0:
320,192,7593,1,0,0:0:0:0:
448,192,7593,1,0,0:0:0:0:
192,192,7866,1,0,0:0:0:0:
448,192,7866,1,0,0:0:0:0:
320,192,7948,1,0,0:0:0:0:
192,192,8030,1,0,0:0:0:0:
64,192,8030,1,0,0:0:0:0:
448,192,8112,1,0,0:0:0:0:
320,192,8112,1,0,0:0:0:0:
192,192,8194,1,0,0:0:0:0:
64,192,8194,1,0,0:0:0:0:
320,192,8276,1,0,0:0:0:0:
448,192,8358,1,0,0:0:0:0:
64,192,8358,1,0,0:0:0:0:
192,192,8440,1,0,0:0:0:0:
320,192,8522,1,0,0:0:0:0:
448,192,8522,1,0,0:0:0:0:
64,192,8604,1,0,0:0:0:0:
192,192,8685,1,0,0:0:0:0:
320,192,8685,1,0,0:0:0:0:
448,192,8685,1,0,0:0:0:0:
64,192,9013,128,0,9259:0:0:0:0:
192,192,9013,128,0,9259:0:0:0:0:
448,192,9013,1,0,0:0:0:0:
320,192,9013,128,0,9423:0:0:0:0:
448,192,9177,128,0,9751:0:0:0:0:
64,192,9341,128,0,9587:0:0:0:0:
192,192,9341,128,0,9587:0:0:0:0:
320,192,9505,128,0,10079:0:0:0:0:
64,192,9669,128,0,9915:0:0:0:0:
192,192,9669,128,0,9915:0:0:0:0:
448,192,9833,128,0,10407:0:0:0:0:
192,192,9997,128,0,10243:0:0:0:0:
64,192,9997,128,0,10243:0:0:0:0:
320,192,10161,128,0,10735:0:0:0:0:
64,192,10325,128,0,10571:0:0:0:0:
192,192,10325,128,0,10571:0:0:0:0:
448,192,10489,128,0,11063:0:0:0:0:
64,192,10653,128,0,10899:0:0:0:0:
192,192,10653,128,0,10899:0:0:0:0:
320,192,10817,128,0,11390:0:0:0:0:
64,192,10981,128,0,11226:0:0:0:0:
192,192,10981,128,0,11226:0:0:0:0:
448,192,11144,128,0,11882:0:0:0:0:
64,192,11308,128,0,11554:0:0:0:0:
192,192,11308,128,0,11554:0:0:0:0:
320,192,11472,128,0,11882:0:0:0:0:
192,192,11636,128,0,12374:0:0:0:0:
64,192,11636,128,0,12046:0:0:0:0:
448,192,11964,128,0,12210:0:0:0:0:
320,192,11964,128,0,12210:0:0:0:0:
64,192,12128,128,0,12702:0:0:0:0:
320,192,12292,128,0,12538:0:0:0:0:
448,192,12292,128,0,12538:0:0:0:0:
192,192,12456,128,0,12784:0:0:0:0:
320,192,12620,128,0,12866:0:0:0:0:
448,192,12620,128,0,12866:0:0:0:0:
64,192,12784,128,0,13030:0:0:0:0:
192,192,12866,128,0,13358:0:0:0:0:
448,192,12948,128,0,13194:0:0:0:0:
320,192,12948,128,0,13194:0:0:0:0:
64,192,13112,128,0,13685:0:0:0:0:
320,192,13276,128,0,13522:0:0:0:0:
448,192,13276,128,0,13522:0:0:0:0:
192,192,13440,128,0,14013:0:0:0:0:
320,192,13604,128,0,13849:0:0:0:0:
448,192,13604,128,0,13849:0:0:0:0:
64,192,13767,128,0,14177:0:0:0:0:
448,192,13931,128,0,14177:0:0:0:0:
320,192,13931,128,0,14177:0:0:0:0:
192,192,14095,128,0,14177:0:0:0:0:
448,192,14259,128,0,14505:0:0:0:0:
320,192,14259,128,0,14669:0:0:0:0:
192,192,14259,128,0,14505:0:0:0:0:
64,192,14259,1,0,0:0:0:0:
64,192,14423,128,0,14833:0:0:0:0:
192,192,14587,128,0,14833:0:0:0:0:
448,192,14587,128,0,14997:0:0:0:0:
320,192,14751,128,0,15161:0:0:0:0:
192,192,14915,128,0,15325:0:0:0:0:
64,192,14915,128,0,15161:0:0:0:0:
448,192,15079,128,0,15489:0:0:0:0:
64,192,15243,128,0,15571:0:0:0:0:
320,192,15243,128,0,15489:0:0:0:0:
192,192,15407,128,0,15571:0:0:0:0:
448,192,15571,128,0,15735:0:0:0:0:
320,192,15571,128,0,15789:0:0:0:0:
192,192,15625,128,0,15844:0:0:0:0:
64,192,15680,128,0,15899:0:0:0:0:
448,192,15789,128,0,15953:0:0:0:0:
320,192,15844,128,0,16008:0:0:0:0:
192,192,15899,128,0,16063:0:0:0:0:
64,192,15953,128,0,16117:0:0:0:0:
448,192,16008,128,0,16172:0:0:0:0:
320,192,16063,128,0,16336:0:0:0:0:
192,192,16117,128,0,16281:0:0:0:0:
64,192,16172,128,0,16226:0:0:0:0:
448,192,16226,128,0,16390:0:0:0:0:
64,192,16281,128,0,16554:0:0:0:0:
192,192,16336,128,0,16500:0:0:0:0:
320,192,16390,128,0,16445:0:0:0:0:
448,192,16445,128,0,16609:0:0:0:0:
320,192,16500,128,0,16664:0:0:0:0:
192,192,16554,128,0,16718:0:0:0:0:
64,192,16609,128,0,16773:0:0:0:0:
448,192,16664,128,0,16882:0:0:0:0:
320,192,16718,128,0,16882:0:0:0:0:
192,192,16773,128,0,16882:0:0:0:0:
64,192,16882,1,0,0:0:0:0:
192,192,16964,1,0,0:0:0:0:
448,192,17046,1,0,0:0:0:0:
320,192,17046,1,0,0:0:0:0:
64,192,17128,1,0,0:0:0:0:
192,192,17210,1,0,0:0:0:0:
448,192,17210,1,0,0:0:0:0:
320,192,17292,1,0,0:0:0:0:
192,192,17374,1,0,0:0:0:0:
64,192,17374,1,0,0:0:0:0:
448,192,17456,1,0,0:0:0:0:
320,192,17538,1,0,0:0:0:0:
192,192,17538,1,0,0:0:0:0:
64,192,17620,1,0,0:0:0:0:
448,192,17702,1,0,0:0:0:0:
192,192,17702,1,0,0:0:0:0:
320,192,17784,1,0,0:0:0:0:
192,192,17866,1,0,0:0:0:0:
64,192,17866,1,0,0:0:0:0:
448,192,17948,1,0,0:0:0:0:
64,192,18030,1,0,0:0:0:0:
320,192,18030,1,0,0:0:0:0:
192,192,18112,1,0,0:0:0:0:
320,192,18194,1,0,0:0:0:0:
448,192,18194,1,0,0:0:0:0:
64,192,18194,1,0,0:0:0:0:
192,192,18276,1,0,0:0:0:0:
320,192,18358,1,0,0:0:0:0:
448,192,18358,1,0,0:0:0:0:
64,192,18440,1,0,0:0:0:0:
192,192,18522,1,0,0:0:0:0:
448,192,18522,1,0,0:0:0:0:
320,192,18604,1,0,0:0:0:0:
64,192,18685,1,0,0:0:0:0:
192,192,18685,1,0,0:0:0:0:
448,192,18767,1,0,0:0:0:0:
320,192,18767,1,0,0:0:0:0:
192,192,18849,1,0,0:0:0:0:
64,192,18849,1,0,0:0:0:0:
448,192,18931,1,0,0:0:0:0:
320,192,18931,1,0,0:0:0:0:
192,192,19013,1,0,0:0:0:0:
64,192,19013,1,0,0:0:0:0:
448,192,19095,1,0,0:0:0:0:
320,192,19095,1,0,0:0:0:0:
192,192,19177,1,0,0:0:0:0:
64,192,19177,1,0,0:0:0:0:
320,192,19259,1,0,0:0:0:0:
448,192,19259,1,0,0:0:0:0:
448,192,19341,1,0,0:0:0:0:
64,192,19341,128,0,19726:0:0:0:0:
192,192,19341,128,0,19879:0:0:0:0:
320,192,19500,128,0,20043:0:0:0:0:
448,192,19648,128,0,20211:0:0:0:0:
64,192,19804,128,0,20882:0:0:0:0:
192,192,19954,128,0,20716:0:0:0:0:
320,192,20133,128,0,20549:0:0:0:0:
448,192,20290,128,0,20378:0:0:0:0:
448,192,20466,128,0,21049:0:0:0:0:
320,192,20632,128,0,21211:0:0:0:0:
192,192,20799,128,0,21290:0:0:0:0:
64,192,20966,128,0,21290:0:0:0:0:
448,192,21132,128,0,21290:0:0:0:0:
320,192,21290,128,0,22123:0:0:0:0:
64,192,22127,128,0,23438:0:0:0:0:
192,192,22127,1,0,0:0:0:0:
448,192,22454,128,0,22618:0:0:0:0:
320,192,22618,128,0,22782:0:0:0:0:
192,192,23438,128,0,24749:0:0:0:0:
320,192,23438,1,0,0:0:0:0:
448,192,23766,128,0,24094:0:0:0:0:
320,192,24094,128,0,24422:0:0:0:0:
64,192,24422,128,0,24749:0:0:0:0:
320,192,24749,128,0,26061:0:0:0:0:
448,192,24749,1,0,0:0:0:0:
448,192,25569,128,0,25733:0:0:0:0:
64,192,25733,128,0,25897:0:0:0:0:
192,192,25897,128,0,26061:0:0:0:0:
448,192,26061,128,0,27372:0:0:0:0:
64,192,26061,128,0,26225:0:0:0:0:
320,192,26225,128,0,26389:0:0:0:0:
192,192,26389,128,0,26553:0:0:0:0:
64,192,26553,128,0,26717:0:0:0:0:
320,192,26717,128,0,26881:0:0:0:0:
64,192,26881,128,0,27045:0:0:0:0:
192,192,27045,128,0,27208:0:0:0:0:
320,192,27208,128,0,27372:0:0:0:0:
192,192,27372,128,0,28684:0:0:0:0:
64,192,27372,1,0,0:0:0:0:
448,192,28028,128,0,28684:0:0:0:0:
64,192,28684,128,0,29995:0:0:0:0:
320,192,28684,1,0,0:0:0:0:
192,192,29340,128,0,29995:0:0:0:0:
320,192,29995,128,0,30979:0:0:0:0:
448,192,29995,1,0,0:0:0:0:
192,192,30979,128,0,31143:0:0:0:0:
64,192,31143,128,0,31307:0:0:0:0:
448,192,31307,1,0,0:0:0:0:
320,192,31471,128,0,31635:0:0:0:0:
192,192,31635,128,0,31799:0:0:0:0:
64,192,31799,128,0,31963:0:0:0:0:
448,192,32126,1,0,0:0:0:0:
192,192,32126,1,0,0:0:0:0:
320,192,32290,1,0,0:0:0:0:
192,192,32290,1,0,0:0:0:0:
64,192,32290,1,0,0:0:0:0:
320,192,32454,1,0,0:0:0:0:
192,192,32536,1,0,0:0:0:0:
448,192,32618,1,0,0:0:0:0:
320,192,32618,1,0,0:0:0:0:
64,192,32618,128,0,32946:0:0:0:0:
192,192,32782,1,0,0:0:0:0:
448,192,32946,1,0,0:0:0:0:
192,192,32946,1,0,0:0:0:0:
320,192,32946,1,0,0:0:0:0:
64,192,33110,1,0,0:0:0:0:
192,192,33274,128,0,33438:0:0:0:0:
448,192,33274,1,0,0:0:0:0:
64,192,33438,1,0,0:0:0:0:
320,192,33438,1,0,0:0:0:0:
192,192,33602,1,0,0:0:0:0:
64,192,33602,1,0,0:0:0:0:
448,192,33602,1,0,0:0:0:0:
320,192,33766,1,0,0:0:0:0:
448,192,33930,128,0,34258:0:0:0:0:
64,192,33930,1,0,0:0:0:0:
320,192,34258,1,0,0:0:0:0:
192,192,34258,1,0,0:0:0:0:
64,192,34258,1,0,0:0:0:0:
448,192,34422,1,0,0:0:0:0:
64,192,34586,128,0,34749:0:0:0:0:
192,192,34586,1,0,0:0:0:0:
320,192,34749,1,0,0:0:0:0:
448,192,34749,1,0,0:0:0:0:
192,192,34913,1,0,0:0:0:0:
64,192,34913,1,0,0:0:0:0:
320,192,34913,1,0,0:0:0:0:
448,192,35077,1,0,0:0:0:0:
320,192,35241,128,0,35569:0:0:0:0:
192,192,35241,1,0,0:0:0:0:
64,192,35405,1,0,0:0:0:0:
448,192,35569,1,0,0:0:0:0:
192,192,35569,1,0,0:0:0:0:
64,192,35569,1,0,0:0:0:0:
320,192,35733,1,0,0:0:0:0:
448,192,35897,1,0,0:0:0:0:
64,192,35897,1,0,0:0:0:0:
192,192,36061,128,0,36225:0:0:0:0:
320,192,36061,1,0,0:0:0:0:
448,192,36225,128,0,36389:0:0:0:0:
64,192,36225,1,0,0:0:0:0:
64,192,36389,128,0,36553:0:0:0:0:
320,192,36389,1,0,0:0:0:0:
192,192,36553,1,0,0:0:0:0:
448,192,36553,1,0,0:0:0:0:
320,192,36717,1,0,0:0:0:0:
64,192,36881,1,0,0:0:0:0:
448,192,36881,1,0,0:0:0:0:
192,192,36881,128,0,37045:0:0:0:0:
320,192,37045,128,0,37208:0:0:0:0:
64,192,37208,1,0,0:0:0:0:
448,192,37208,1,0,0:0:0:0:
192,192,37372,1,0,0:0:0:0:
320,192,37372,1,0,0:0:0:0:
448,192,37536,1,0,0:0:0:0:
64,192,37536,1,0,0:0:0:0:
192,192,37536,1,0,0:0:0:0:
320,192,37700,1,0,0:0:0:0:
64,192,37864,1,0,0:0:0:0:
448,192,37864,128,0,38192:0:0:0:0:
192,192,38028,1,0,0:0:0:0:
320,192,38192,1,0,0:0:0:0:
64,192,38192,1,0,0:0:0:0:
192,192,38356,1,0,0:0:0:0:
448,192,38520,1,0,0:0:0:0:
64,192,38520,1,0,0:0:0:0:
320,192,38684,1,0,0:0:0:0:
64,192,38684,1,0,0:0:0:0:
448,192,38848,1,0,0:0:0:0:
320,192,38848,1,0,0:0:0:0:
192,192,38848,1,0,0:0:0:0:
64,192,39012,1,0,0:0:0:0:
320,192,39176,1,0,0:0:0:0:
192,192,39176,1,0,0:0:0:0:
64,192,39176,128,0,39504:0:0:0:0:
448,192,39340,1,0,0:0:0:0:
320,192,39504,1,0,0:0:0:0:
192,192,39504,1,0,0:0:0:0:
448,192,39504,1,0,0:0:0:0:
64,192,39667,1,0,0:0:0:0:
320,192,39831,1,0,0:0:0:0:
192,192,39831,1,0,0:0:0:0:
448,192,39995,1,0,0:0:0:0:
64,192,39995,1,0,0:0:0:0:
320,192,40159,1,0,0:0:0:0:
192,192,40159,1,0,0:0:0:0:
64,192,40159,1,0,0:0:0:0:
448,192,40323,1,0,0:0:0:0:
320,192,40487,1,0,0:0:0:0:
192,192,40487,1,0,0:0:0:0:
64,192,40651,1,0,0:0:0:0:
448,192,40815,1,0,0:0:0:0:
320,192,40815,1,0,0:0:0:0:
192,192,40815,1,0,0:0:0:0:
64,192,40979,1,0,0:0:0:0:
320,192,41143,1,0,0:0:0:0:
192,192,41143,1,0,0:0:0:0:
448,192,41307,1,0,0:0:0:0:
192,192,41307,1,0,0:0:0:0:
320,192,41471,1,0,0:0:0:0:
64,192,41471,1,0,0:0:0:0:
448,192,41471,1,0,0:0:0:0:
320,192,41635,128,0,41799:0:0:0:0:
192,192,41635,1,0,0:0:0:0:
64,192,41799,128,0,41963:0:0:0:0:
448,192,41799,1,0,0:0:0:0:
448,192,41963,128,0,42126:0:0:0:0:
192,192,41963,1,0,0:0:0:0:
320,192,42126,1,0,0:0:0:0:
64,192,42126,1,0,0:0:0:0:
192,192,42454,1,0,0:0:0:0:
64,192,42454,1,0,0:0:0:0:
320,192,42454,1,0,0:0:0:0:
64,192,42618,1,0,0:0:0:0:
448,192,42618,1,0,0:0:0:0:
448,192,42782,1,0,0:0:0:0:
320,192,42782,1,0,0:0:0:0:
192,192,42782,1,0,0:0:0:0:
192,192,43110,1,0,0:0:0:0:
320,192,43110,1,0,0:0:0:0:
64,192,43110,128,0,43438:0:0:0:0:
448,192,43438,1,0,0:0:0:0:
320,192,43438,128,0,43602:0:0:0:0:
192,192,43766,128,0,43930:0:0:0:0:
64,192,43766,1,0,0:0:0:0:
448,192,43766,1,0,0:0:0:0:
320,192,43930,128,0,44094:0:0:0:0:
64,192,44094,1,0,0:0:0:0:
320,192,44258,1,0,0:0:0:0:
192,192,44258,128,0,44422:0:0:0:0:
448,192,44422,1,0,0:0:0:0:
64,192,44586,128,0,44749:0:0:0:0:
320,192,44586,1,0,0:0:0:0:
448,192,44749,1,0,0:0:0:0:
192,192,44913,1,0,0:0:0:0:
64,192,44913,1,0,0:0:0:0:
448,192,45077,128,0,45241:0:0:0:0:
320,192,45077,1,0,0:0:0:0:
192,192,45241,1,0,0:0:0:0:
64,192,45405,1,0,0:0:0:0:
320,192,45569,1,0,0:0:0:0:
448,192,45569,1,0,0:0:0:0:
192,192,45733,128,0,46061:0:0:0:0:
64,192,45733,1,0,0:0:0:0:
320,192,45733,1,0,0:0:0:0:
448,192,46061,1,0,0:0:0:0:
320,192,46061,1,0,0:0:0:0:
64,192,46061,128,0,46225:0:0:0:0:
192,192,46225,1,0,0:0:0:0:
320,192,46389,128,0,46553:0:0:0:0:
448,192,46389,1,0,0:0:0:0:
192,192,46553,128,0,46717:0:0:0:0:
64,192,46553,1,0,0:0:0:0:
448,192,46717,1,0,0:0:0:0:
320,192,46881,128,0,47045:0:0:0:0:
192,192,47045,1,0,0:0:0:0:
64,192,47045,1,0,0:0:0:0:
448,192,47208,128,0,47372:0:0:0:0:
320,192,47208,1,0,0:0:0:0:
64,192,47372,1,0,0:0:0:0:
192,192,47536,128,0,47700:0:0:0:0:
448,192,47536,1,0,0:0:0:0:
320,192,47700,128,0,47864:0:0:0:0:
64,192,47700,1,0,0:0:0:0:
448,192,47864,1,0,0:0:0:0:
192,192,48028,1,0,0:0:0:0:
64,192,48192,1,0,0:0:0:0:
320,192,48192,1,0,0:0:0:0:
448,192,48356,128,0,48684:0:0:0:0:
192,192,48356,1,0,0:0:0:0:
64,192,48356,1,0,0:0:0:0:
64,192,48684,1,0,0:0:0:0:
192,192,48684,128,0,48848:0:0:0:0:
320,192,49012,128,0,49176:0:0:0:0:
448,192,49012,1,0,0:0:0:0:
64,192,49176,128,0,49340:0:0:0:0:
192,192,49340,1,0,0:0:0:0:
320,192,49504,128,0,49667:0:0:0:0:
448,192,49667,1,0,0:0:0:0:
192,192,49831,1,0,0:0:0:0:
64,192,49831,128,0,49995:0:0:0:0:
320,192,49995,128,0,50159:0:0:0:0:
448,192,49995,1,0,0:0:0:0:
64,192,50159,128,0,50323:0:0:0:0:
192,192,50159,1,0,0:0:0:0:
448,192,50323,128,0,50487:0:0:0:0:
320,192,50323,1,0,0:0:0:0:
192,192,50487,128,0,50651:0:0:0:0:
64,192,50487,1,0,0:0:0:0:
448,192,50651,1,0,0:0:0:0:
320,192,50651,1,0,0:0:0:0:
64,192,50815,1,0,0:0:0:0:
448,192,50979,1,0,0:0:0:0:
320,192,50979,1,0,0:0:0:0:
192,192,50979,1,0,0:0:0:0:
192,192,51307,1,0,0:0:0:0:
64,192,51307,1,0,0:0:0:0:
192,192,51471,1,0,0:0:0:0:
448,192,51635,1,0,0:0:0:0:
320,192,51635,1,0,0:0:0:0:
320,192,51799,1,0,0:0:0:0:
192,192,51963,1,0,0:0:0:0:
64,192,51963,1,0,0:0:0:0:
64,192,52126,1,0,0:0:0:0:
448,192,52290,1,0,0:0:0:0:
320,192,52290,1,0,0:0:0:0:
448,192,52454,1,0,0:0:0:0:
192,192,52618,1,0,0:0:0:0:
320,192,52618,1,0,0:0:0:0:
64,192,52782,128,0,52946:0:0:0:0:
320,192,52946,128,0,53110:0:0:0:0:
192,192,53110,128,0,53274:0:0:0:0:
448,192,53274,128,0,53438:0:0:0:0:
64,192,53274,1,0,0:0:0:0:
64,192,53438,128,0,53602:0:0:0:0:
448,192,53602,1,0,0:0:0:0:
320,192,53602,1,0,0:0:0:0:
192,192,53602,1,0,0:0:0:0:
192,192,53766,1,0,0:0:0:0:
64,192,53766,1,0,0:0:0:0:
320,192,53930,1,0,0:0:0:0:
192,192,53930,1,0,0:0:0:0:
320,192,54094,1,0,0:0:0:0:
448,192,54094,1,0,0:0:0:0:
64,192,54094,1,0,0:0:0:0:
192,192,54258,1,0,0:0:0:0:
64,192,54258,1,0,0:0:0:0:
320,192,54422,1,0,0:0:0:0:
192,192,54422,1,0,0:0:0:0:
448,192,54586,1,0,0:0:0:0:
320,192,54586,1,0,0:0:0:0:
64,192,54586,1,0,0:0:0:0:
192,192,54749,1,0,0:0:0:0:
64,192,54749,1,0,0:0:0:0:
320,192,54831,1,0,0:0:0:0:
448,192,54913,1,0,0:0:0:0:
64,192,54913,1,0,0:0:0:0:
192,192,54995,1,0,0:0:0:0:
320,192,55077,1,0,0:0:0:0:
448,192,55077,1,0,0:0:0:0:
64,192,55159,1,0,0:0:0:0:
192,192,55241,1,0,0:0:0:0:
448,192,55241,1,0,0:0:0:0:
320,192,55323,1,0,0:0:0:0:
192,192,55405,1,0,0:0:0:0:
64,192,55405,1,0,0:0:0:0:
448,192,55487,1,0,0:0:0:0:
320,192,55569,1,0,0:0:0:0:
192,192,55569,1,0,0:0:0:0:
64,192,55651,1,0,0:0:0:0:
448,192,55733,1,0,0:0:0:0:
192,192,55733,1,0,0:0:0:0:
320,192,55815,1,0,0:0:0:0:
192,192,55897,1,0,0:0:0:0:
64,192,55897,1,0,0:0:0:0:
448,192,55897,1,0,0:0:0:0:
64,192,56225,1,0,0:0:0:0:
192,192,56225,1,0,0:0:0:0:
320,192,56225,1,0,0:0:0:0:
448,192,56389,1,0,0:0:0:0:
320,192,56389,1,0,0:0:0:0:
320,192,56553,1,0,0:0:0:0:
192,192,56553,1,0,0:0:0:0:
64,192,56717,1,0,0:0:0:0:
448,192,56717,1,0,0:0:0:0:
192,192,56717,1,0,0:0:0:0:
448,192,56881,1,0,0:0:0:0:
320,192,56881,1,0,0:0:0:0:
320,192,57045,1,0,0:0:0:0:
192,192,57045,1,0,0:0:0:0:
64,192,57208,1,0,0:0:0:0:
192,192,57208,1,0,0:0:0:0:
448,192,57208,1,0,0:0:0:0:
320,192,57372,1,0,0:0:0:0:
64,192,57372,1,0,0:0:0:0:
192,192,57454,1,0,0:0:0:0:
64,192,57536,1,0,0:0:0:0:
448,192,57536,1,0,0:0:0:0:
320,192,57618,1,0,0:0:0:0:
192,192,57700,1,0,0:0:0:0:
64,192,57700,1,0,0:0:0:0:
448,192,57782,1,0,0:0:0:0:
320,192,57864,1,0,0:0:0:0:
192,192,57864,1,0,0:0:0:0:
64,192,57946,1,0,0:0:0:0:
448,192,58028,1,0,0:0:0:0:
192,192,58028,1,0,0:0:0:0:
320,192,58110,1,0,0:0:0:0:
448,192,58192,1,0,0:0:0:0:
64,192,58192,1,0,0:0:0:0:
192,192,58274,1,0,0:0:0:0:
320,192,58356,1,0,0:0:0:0:
448,192,58356,1,0,0:0:0:0:
64,192,58438,1,0,0:0:0:0:
192,192,58520,1,0,0:0:0:0:
448,192,58520,1,0,0:0:0:0:
320,192,58520,1,0,0:0:0:0:
64,192,58848,1,0,0:0:0:0:
192,192,58848,1,0,0:0:0:0:
448,192,58848,1,0,0:0:0:0:
320,192,58930,1,0,0:0:0:0:
64,192,59012,1,0,0:0:0:0:
448,192,59094,1,0,0:0:0:0:
320,192,59176,1,0,0:0:0:0:
192,192,59176,1,0,0:0:0:0:
64,192,59258,1,0,0:0:0:0:
320,192,59340,1,0,0:0:0:0:
192,192,59422,1,0,0:0:0:0:
448,192,59504,1,0,0:0:0:0:
320,192,59504,1,0,0:0:0:0:
64,192,59586,1,0,0:0:0:0:
320,192,59667,1,0,0:0:0:0:
192,192,59749,1,0,0:0:0:0:
448,192,59831,1,0,0:0:0:0:
320,192,59831,1,0,0:0:0:0:
64,192,59913,1,0,0:0:0:0:
448,192,59995,1,0,0:0:0:0:
320,192,59995,1,0,0:0:0:0:
192,192,59995,1,0,0:0:0:0:
448,192,61471,128,0,61635:0:0:0:0:
64,192,61471,128,0,61553:0:0:0:0:
192,192,61471,128,0,61553:0:0:0:0:
320,192,61553,128,0,61717:0:0:0:0:
192,192,61635,128,0,61799:0:0:0:0:
64,192,61635,128,0,61717:0:0:0:0:
448,192,61717,128,0,61881:0:0:0:0:
320,192,61799,128,0,61881:0:0:0:0:
64,192,61799,128,0,61963:0:0:0:0:
192,192,61881,128,0,62045:0:0:0:0:
448,192,61963,128,0,62126:0:0:0:0:
320,192,61963,128,0,62045:0:0:0:0:
64,192,62045,128,0,62208:0:0:0:0:
320,192,62126,128,0,62290:0:0:0:0:
192,192,62126,128,0,62208:0:0:0:0:
448,192,62208,128,0,62372:0:0:0:0:
192,192,62290,128,0,62454:0:0:0:0:
64,192,62290,128,0,62372:0:0:0:0:
320,192,62372,128,0,62536:0:0:0:0:
64,192,62454,128,0,62618:0:0:0:0:
448,192,62454,128,0,62536:0:0:0:0:
192,192,62536,128,0,62700:0:0:0:0:
448,192,62618,128,0,62782:0:0:0:0:
320,192,62618,128,0,62700:0:0:0:0:
64,192,62700,128,0,62864:0:0:0:0:
192,192,62782,128,0,62864:0:0:0:0:
320,192,62782,128,0,62946:0:0:0:0:
448,192,62864,128,0,63028:0:0:0:0:
192,192,62946,128,0,63110:0:0:0:0:
64,192,62946,128,0,63028:0:0:0:0:
320,192,63028,128,0,63192:0:0:0:0:
448,192,63110,128,0,63192:0:0:0:0:
64,192,63110,128,0,63274:0:0:0:0:
192,192,63192,128,0,63356:0:0:0:0:
320,192,63274,128,0,63356:0:0:0:0:
448,192,63274,128,0,63438:0:0:0:0:
64,192,63356,128,0,63520:0:0:0:0:
192,192,63438,128,0,63520:0:0:0:0:
320,192,63438,128,0,63602:0:0:0:0:
448,192,63520,128,0,63684:0:0:0:0:
64,192,63602,128,0,63684:0:0:0:0:
192,192,63602,128,0,63766:0:0:0:0:
320,192,63684,128,0,63848:0:0:0:0:
448,192,63766,128,0,63848:0:0:0:0:
64,192,63766,128,0,63930:0:0:0:0:
192,192,63848,128,0,64012:0:0:0:0:
320,192,63930,128,0,64012:0:0:0:0:
448,192,63930,128,0,64094:0:0:0:0:
64,192,64012,128,0,64176:0:0:0:0:
192,192,64094,128,0,64176:0:0:0:0:
320,192,64094,128,0,64176:0:0:0:0:
448,192,64176,128,0,64258:0:0:0:0:
320,192,64258,128,0,64340:0:0:0:0:
64,192,64258,128,0,64340:0:0:0:0:
192,192,64340,128,0,64422:0:0:0:0:
448,192,64422,128,0,64504:0:0:0:0:
320,192,64422,128,0,64504:0:0:0:0:
64,192,64504,128,0,64586:0:0:0:0:
192,192,64586,128,0,64667:0:0:0:0:
320,192,64586,128,0,64667:0:0:0:0:
448,192,64667,128,0,64749:0:0:0:0:
320,192,64749,128,0,64831:0:0:0:0:
64,192,64749,128,0,64831:0:0:0:0:
192,192,64831,128,0,64913:0:0:0:0:
448,192,64913,128,0,64995:0:0:0:0:
64,192,64913,128,0,64995:0:0:0:0:
320,192,64995,128,0,65077:0:0:0:0:
64,192,65077,128,0,65159:0:0:0:0:
192,192,65077,128,0,65159:0:0:0:0:
448,192,65159,128,0,65241:0:0:0:0:
320,192,65241,128,0,65323:0:0:0:0:
192,192,65241,128,0,65323:0:0:0:0:
64,192,65323,128,0,65405:0:0:0:0:
448,192,65405,128,0,65487:0:0:0:0:
192,192,65405,128,0,65487:0:0:0:0:
320,192,65487,128,0,65569:0:0:0:0:
64,192,65569,128,0,65651:0:0:0:0:
192,192,65569,128,0,65651:0:0:0:0:
448,192,65651,128,0,65733:0:0:0:0:
320,192,65733,128,0,65815:0:0:0:0:
64,192,65733,128,0,65815:0:0:0:0:
192,192,65815,128,0,65897:0:0:0:0:
448,192,65897,128,0,65979:0:0:0:0:
320,192,65897,128,0,65979:0:0:0:0:
64,192,65979,128,0,66061:0:0:0:0:
192,192,66061,128,0,66143:0:0:0:0:
320,192,66061,128,0,66143:0:0:0:0:
448,192,66143,128,0,66225:0:0:0:0:
192,192,66225,128,0,66307:0:0:0:0:
64,192,66225,128,0,66307:0:0:0:0:
320,192,66307,128,0,66389:0:0:0:0:
448,192,66389,128,0,66471:0:0:0:0:
192,192,66389,128,0,66471:0:0:0:0:
64,192,66471,128,0,66553:0:0:0:0:
320,192,66553,128,0,66635:0:0:0:0:
448,192,66553,128,0,66635:0:0:0:0:
192,192,66635,128,0,66717:0:0:0:0:
448,192,66717,128,0,66799:0:0:0:0:
64,192,66717,128,0,66881:0:0:0:0:
320,192,66717,128,0,66799:0:0:0:0:
192,192,66799,128,0,66963:0:0:0:0:
448,192,66881,128,0,67045:0:0:0:0:
320,192,66881,128,0,66963:0:0:0:0:
64,192,66963,128,0,67126:0:0:0:0:
192,192,67045,128,0,67126:0:0:0:0:
320,192,67045,128,0,67208:0:0:0:0:
448,192,67126,128,0,67290:0:0:0:0:
64,192,67208,128,0,67290:0:0:0:0:
192,192,67208,128,0,67372:0:0:0:0:
320,192,67290,128,0,67454:0:0:0:0:
64,192,67372,128,0,67536:0:0:0:0:
448,192,67372,128,0,67454:0:0:0:0:
192,192,67454,128,0,67618:0:0:0:0:
320,192,67536,128,0,67618:0:0:0:0:
448,192,67536,128,0,67700:0:0:0:0:
64,192,67618,128,0,67782:0:0:0:0:
192,192,67700,128,0,67782:0:0:0:0:
320,192,67700,128,0,67864:0:0:0:0:
448,192,67782,128,0,67946:0:0:0:0:
64,192,67864,128,0,67946:0:0:0:0:
192,192,67864,128,0,68028:0:0:0:0:
320,192,67946,128,0,68110:0:0:0:0:
448,192,68028,128,0,68110:0:0:0:0:
64,192,68028,128,0,68192:0:0:0:0:
192,192,68110,128,0,68274:0:0:0:0:
320,192,68192,128,0,68274:0:0:0:0:
448,192,68192,128,0,68356:0:0:0:0:
64,192,68274,128,0,68438:0:0:0:0:
192,192,68356,128,0,68438:0:0:0:0:
320,192,68356,128,0,68520:0:0:0:0:
448,192,68438,128,0,68602:0:0:0:0:
192,192,68520,128,0,68684:0:0:0:0:
64,192,68520,128,0,68602:0:0:0:0:
320,192,68602,128,0,68766:0:0:0:0:
64,192,68684,128,0,68848:0:0:0:0:
448,192,68684,128,0,68766:0:0:0:0:
192,192,68766,128,0,68930:0:0:0:0:
320,192,68848,128,0,68930:0:0:0:0:
448,192,68848,128,0,69012:0:0:0:0:
64,192,68930,128,0,69012:0:0:0:0:
320,192,69012,1,0,0:0:0:0:
192,192,69012,1,0,0:0:0:0:
320,192,69340,1,0,0:0:0:0:
448,192,69340,1,0,0:0:0:0:
64,192,69340,1,0,0:0:0:0:
64,192,69667,1,0,0:0:0:0:
320,192,69667,1,0,0:0:0:0:
448,192,69667,1,0,0:0:0:0:
64,192,69831,1,0,0:0:0:0:
192,192,69831,1,0,0:0:0:0:
320,192,69913,1,0,0:0:0:0:
448,192,69995,1,0,0:0:0:0:
64,192,69995,1,0,0:0:0:0:
192,192,70077,1,0,0:0:0:0:
448,192,70159,1,0,0:0:0:0:
320,192,70159,1,0,0:0:0:0:
64,192,70241,1,0,0:0:0:0:
448,192,70323,1,0,0:0:0:0:
192,192,70323,1,0,0:0:0:0:
320,192,70405,1,0,0:0:0:0:
192,192,70487,1,0,0:0:0:0:
64,192,70487,1,0,0:0:0:0:
448,192,70569,1,0,0:0:0:0:
320,192,70651,1,0,0:0:0:0:
192,192,70651,1,0,0:0:0:0:
64,192,70651,1,0,0:0:0:0:
448,192,70979,1,0,0:0:0:0:
320,192,70979,1,0,0:0:0:0:
192,192,70979,1,0,0:0:0:0:
192,192,71307,1,0,0:0:0:0:
64,192,71307,1,0,0:0:0:0:
448,192,71389,1,0,0:0:0:0:
320,192,71389,1,0,0:0:0:0:
192,192,71471,1,0,0:0:0:0:
64,192,71471,1,0,0:0:0:0:
448,192,71553,1,0,0:0:0:0:
320,192,71553,1,0,0:0:0:0:
192,192,71635,1,0,0:0:0:0:
64,192,71635,1,0,0:0:0:0:
448,192,71717,1,0,0:0:0:0:
320,192,71717,1,0,0:0:0:0:
192,192,71799,1,0,0:0:0:0:
64,192,71799,1,0,0:0:0:0:
320,192,71881,1,0,0:0:0:0:
64,192,71963,128,0,72126:0:0:0:0:
192,192,71963,128,0,72045:0:0:0:0:
448,192,71963,128,0,72045:0:0:0:0:
320,192,72045,128,0,72208:0:0:0:0:
192,192,72126,128,0,72290:0:0:0:0:
448,192,72126,128,0,72208:0:0:0:0:
64,192,72208,128,0,72372:0:0:0:0:
320,192,72290,128,0,72372:0:0:0:0:
448,192,72290,128,0,72454:0:0:0:0:
192,192,72372,128,0,72536:0:0:0:0:
64,192,72454,128,0,72536:0:0:0:0:
320,192,72454,128,0,72618:0:0:0:0:
448,192,72536,128,0,72700:0:0:0:0:
192,192,72618,128,0,72700:0:0:0:0:
64,192,72618,128,0,72782:0:0:0:0:
320,192,72700,128,0,72864:0:0:0:0:
448,192,72782,128,0,72864:0:0:0:0:
192,192,72782,128,0,72946:0:0:0:0:
64,192,72864,128,0,73028:0:0:0:0:
320,192,72946,128,0,73028:0:0:0:0:
448,192,72946,128,0,73110:0:0:0:0:
192,192,73028,128,0,73192:0:0:0:0:
64,192,73110,128,0,73192:0:0:0:0:
320,192,73110,128,0,73274:0:0:0:0:
448,192,73192,128,0,73356:0:0:0:0:
192,192,73274,128,0,73356:0:0:0:0:
64,192,73274,128,0,73438:0:0:0:0:
320,192,73356,128,0,73520:0:0:0:0:
448,192,73438,128,0,73520:0:0:0:0:
192,192,73438,128,0,73602:0:0:0:0:
64,192,73520,128,0,73684:0:0:0:0:
320,192,73602,128,0,73684:0:0:0:0:
448,192,73602,128,0,73766:0:0:0:0:
192,192,73684,128,0,73848:0:0:0:0:
64,192,73766,128,0,73848:0:0:0:0:
320,192,73766,128,0,73930:0:0:0:0:
448,192,73848,128,0,74012:0:0:0:0:
192,192,73930,128,0,74012:0:0:0:0:
64,192,73930,128,0,74094:0:0:0:0:
320,192,74012,128,0,74176:0:0:0:0:
448,192,74094,128,0,74176:0:0:0:0:
192,192,74094,128,0,74258:0:0:0:0:
64,192,74176,128,0,74340:0:0:0:0:
320,192,74258,128,0,74340:0:0:0:0:
448,192,74258,128,0,74422:0:0:0:0:
192,192,74340,128,0,74504:0:0:0:0:
64,192,74422,128,0,74504:0:0:0:0:
320,192,74422,128,0,74586:0:0:0:0:
448,192,74504,128,0,74667:0:0:0:0:
64,192,74586,128,0,74667:0:0:0:0:
192,192,74586,128,0,74667:0:0:0:0:
320,192,74667,128,0,74749:0:0:0:0:
192,192,74749,128,0,74831:0:0:0:0:
448,192,74749,128,0,74831:0:0:0:0:
64,192,74831,128,0,74913:0:0:0:0:
320,192,74913,128,0,74995:0:0:0:0:
448,192,74913,128,0,74995:0:0:0:0:
192,192,74995,128,0,75077:0:0:0:0:
64,192,75077,128,0,75159:0:0:0:0:
320,192,75077,128,0,75159:0:0:0:0:
448,192,75159,128,0,75241:0:0:0:0:
192,192,75241,128,0,75323:0:0:0:0:
64,192,75241,128,0,75323:0:0:0:0:
320,192,75323,128,0,75405:0:0:0:0:
448,192,75405,128,0,75487:0:0:0:0:
192,192,75405,128,0,75487:0:0:0:0:
64,192,75487,128,0,75569:0:0:0:0:
320,192,75569,128,0,75651:0:0:0:0:
448,192,75569,128,0,75651:0:0:0:0:
192,192,75651,128,0,75733:0:0:0:0:
64,192,75733,128,0,75815:0:0:0:0:
448,192,75733,128,0,75815:0:0:0:0:
320,192,75815,128,0,75897:0:0:0:0:
192,192,75897,128,0,75979:0:0:0:0:
64,192,75897,128,0,75979:0:0:0:0:
448,192,75979,128,0,76061:0:0:0:0:
320,192,76061,128,0,76143:0:0:0:0:
192,192,76061,128,0,76143:0:0:0:0:
64,192,76143,128,0,76225:0:0:0:0:
320,192,76225,128,0,76307:0:0:0:0:
448,192,76225,128,0,76307:0:0:0:0:
192,192,76307,128,0,76389:0:0:0:0:
64,192,76389,128,0,76471:0:0:0:0:
448,192,76389,128,0,76471:0:0:0:0:
320,192,76471,128,0,76553:0:0:0:0:
192,192,76553,128,0,76635:0:0:0:0:
448,192,76553,128,0,76635:0:0:0:0:
64,192,76635,128,0,76717:0:0:0:0:
320,192,76717,128,0,76799:0:0:0:0:
448,192,76717,128,0,76799:0:0:0:0:
64,192,76799,128,0,76881:0:0:0:0:
192,192,76881,128,0,76963:0:0:0:0:
320,192,76881,128,0,76963:0:0:0:0:
448,192,76963,128,0,77045:0:0:0:0:
64,192,77045,128,0,77126:0:0:0:0:
192,192,77045,128,0,77126:0:0:0:0:
320,192,77126,128,0,77208:0:0:0:0:
448,192,77208,128,0,77372:0:0:0:0:
64,192,77208,128,0,77290:0:0:0:0:
192,192,77208,128,0,77290:0:0:0:0:
320,192,77290,128,0,77454:0:0:0:0:
64,192,77372,128,0,77454:0:0:0:0:
192,192,77372,128,0,77536:0:0:0:0:
448,192,77454,128,0,77618:0:0:0:0:
320,192,77536,128,0,77618:0:0:0:0:
64,192,77536,128,0,77700:0:0:0:0:
192,192,77618,128,0,77782:0:0:0:0:
448,192,77700,128,0,77782:0:0:0:0:
320,192,77700,128,0,77864:0:0:0:0:
64,192,77782,128,0,77946:0:0:0:0:
192,192,77864,128,0,77946:0:0:0:0:
448,192,77864,128,0,78028:0:0:0:0:
320,192,77946,128,0,78110:0:0:0:0:
64,192,78028,128,0,78110:0:0:0:0:
192,192,78028,128,0,78192:0:0:0:0:
448,192,78110,128,0,78274:0:0:0:0:
320,192,78192,128,0,78274:0:0:0:0:
64,192,78192,128,0,78356:0:0:0:0:
192,192,78274,128,0,78438:0:0:0:0:
448,192,78356,128,0,78438:0:0:0:0:
320,192,78356,128,0,78520:0:0:0:0:
64,192,78438,128,0,78602:0:0:0:0:
192,192,78520,128,0,78602:0:0:0:0:
448,192,78520,128,0,78684:0:0:0:0:
320,192,78602,128,0,78766:0:0:0:0:
64,192,78684,128,0,78766:0:0:0:0:
192,192,78684,128,0,78848:0:0:0:0:
448,192,78766,128,0,78930:0:0:0:0:
320,192,78848,128,0,78930:0:0:0:0:
64,192,78848,128,0,79012:0:0:0:0:
192,192,78930,128,0,79094:0:0:0:0:
448,192,79012,128,0,79094:0:0:0:0:
320,192,79012,128,0,79176:0:0:0:0:
64,192,79094,128,0,79258:0:0:0:0:
192,192,79176,128,0,79258:0:0:0:0:
448,192,79176,128,0,79340:0:0:0:0:
320,192,79258,128,0,79340:0:0:0:0:
192,192,79340,1,0,0:0:0:0:
64,192,79340,1,0,0:0:0:0:
448,192,79422,1,0,0:0:0:0:
320,192,79422,1,0,0:0:0:0:
192,192,79504,1,0,0:0:0:0:
64,192,79504,1,0,0:0:0:0:
448,192,79586,1,0,0:0:0:0:
320,192,79586,1,0,0:0:0:0:
192,192,79667,128,0,79749:0:0:0:0:
64,192,79749,128,0,79831:0:0:0:0:
448,192,79831,128,0,80077:0:0:0:0:
320,192,79831,128,0,80077:0:0:0:0:
192,192,79831,128,0,80241:0:0:0:0:
64,192,79995,128,0,80569:0:0:0:0:
448,192,80159,128,0,80405:0:0:0:0:
320,192,80159,128,0,80405:0:0:0:0:
192,192,80323,128,0,80897:0:0:0:0:
448,192,80487,128,0,80733:0:0:0:0:
320,192,80487,128,0,80733:0:0:0:0:
64,192,80651,128,0,81061:0:0:0:0:
448,192,80815,128,0,81553:0:0:0:0:
320,192,80815,128,0,81225:0:0:0:0:
192,192,80979,128,0,81061:0:0:0:0:
64,192,81143,128,0,81389:0:0:0:0:
192,192,81143,128,0,81389:0:0:0:0:
320,192,81307,128,0,81881:0:0:0:0:
64,192,81471,128,0,81717:0:0:0:0:
192,192,81471,128,0,81717:0:0:0:0:
448,192,81635,128,0,82208:0:0:0:0:
64,192,81799,128,0,82045:0:0:0:0:
192,192,81799,128,0,82045:0:0:0:0:
320,192,81963,128,0,82372:0:0:0:0:
64,192,82126,128,0,82536:0:0:0:0:
192,192,82126,128,0,82372:0:0:0:0:
448,192,82290,128,0,82864:0:0:0:0:
192,192,82454,128,0,82700:0:0:0:0:
320,192,82454,128,0,82700:0:0:0:0:
64,192,82618,128,0,83192:0:0:0:0:
192,192,82782,128,0,83028:0:0:0:0:
320,192,82782,128,0,83028:0:0:0:0:
448,192,82946,128,0,83520:0:0:0:0:
320,192,83110,128,0,83356:0:0:0:0:
192,192,83110,128,0,83356:0:0:0:0:
64,192,83274,128,0,83684:0:0:0:0:
192,192,83438,128,0,83684:0:0:0:0:
320,192,83438,128,0,83684:0:0:0:0:
448,192,83602,128,0,83766:0:0:0:0:
320,192,83766,1,0,0:0:0:0:
192,192,83766,1,0,0:0:0:0:
64,192,83766,1,0,0:0:0:0:
448,192,83848,1,0,0:0:0:0:
192,192,83930,1,0,0:0:0:0:
64,192,83930,1,0,0:0:0:0:
448,192,84012,1,0,0:0:0:0:
320,192,84012,1,0,0:0:0:0:
192,192,84094,1,0,0:0:0:0:
64,192,84094,1,0,0:0:0:0:
448,192,84176,1,0,0:0:0:0:
320,192,84176,1,0,0:0:0:0:
192,192,84258,1,0,0:0:0:0:
64,192,84258,1,0,0:0:0:0:
320,192,84340,1,0,0:0:0:0:
448,192,84422,1,0,0:0:0:0:
64,192,84422,1,0,0:0:0:0:
192,192,84504,1,0,0:0:0:0:
320,192,84586,1,0,0:0:0:0:
448,192,84586,1,0,0:0:0:0:
64,192,84667,1,0,0:0:0:0:
192,192,84749,1,0,0:0:0:0:
320,192,84749,1,0,0:0:0:0:
448,192,84831,1,0,0:0:0:0:
320,192,84913,1,0,0:0:0:0:
64,192,84913,1,0,0:0:0:0:
192,192,84995,1,0,0:0:0:0:
448,192,85077,1,0,0:0:0:0:
320,192,85077,1,0,0:0:0:0:
64,192,85077,1,0,0:0:0:0:
192,192,85241,1,0,0:0:0:0:
448,192,85405,1,0,0:0:0:0:
64,192,85405,1,0,0:0:0:0:
320,192,85405,1,0,0:0:0:0:
320,192,85569,1,0,0:0:0:0:
64,192,85733,1,0,0:0:0:0:
192,192,85733,1,0,0:0:0:0:
448,192,85733,1,0,0:0:0:0:
192,192,85897,1,0,0:0:0:0:
64,192,86061,1,0,0:0:0:0:
448,192,86061,1,0,0:0:0:0:
64,192,86225,128,0,88438:0:0:0:0:
192,192,86225,128,0,88520:0:0:0:0:
320,192,86225,128,0,87290:0:0:0:0:
448,192,87045,128,0,88684:0:0:0:0:
320,192,87372,128,0,88602:0:0:0:0:
