osu file format v14

[General]
AudioFilename: audio.mp3
AudioLeadIn: 0
PreviewTime: 60815
Countdown: 0
SampleSet: None
StackLeniency: 0.7
Mode: 3
LetterboxInBreaks: 0
SpecialStyle: 0
WidescreenStoryboard: 1

[Editor]
DistanceSpacing: 0.9
BeatDivisor: 4
GridSize: 4
TimelineZoom: 1.9

[Metadata]
Title:over and over
TitleUnicode:over and over
Artist:yanaginagi
ArtistUnicode:やなぎなぎ
Creator:Damaree
Version:Just Hard!
Source:Just Because!
Tags:opening sentai filmworks pine jam natsume mio komiya ena izumi eita morikawa hatsuki souma haruto
BeatmapID:1507964
BeatmapSetID:713452

[Difficulty]
HPDrainRate:8
CircleSize:4
OverallDifficulty:7
ApproachRate:5
SliderMultiplier:1.4
SliderTickRate:1

[Events]
//Background and Video events
0,0,"thumb-1920-871309.jpg",0,0
//Break Periods
//Storyboard Layer 0 (Background)
//Storyboard Layer 1 (Fail)
//Storyboard Layer 2 (Pass)
//Storyboard Layer 3 (Foreground)
//Storyboard Sound Samples

[TimingPoints]
1145,327.868852459016,4,2,1,0,1,0
5735,-100,4,2,1,0,0,0
6226,-100,4,2,1,0,0,0
10571,-100,4,2,1,0,0,0
10653,-100,4,2,1,0,0,0
15817,-100,4,2,1,0,0,0
15899,-100,4,2,1,0,0,0
18522,-100,4,2,1,0,0,0
18849,-100,4,2,1,0,0,0
19500,297.029702970297,4,2,1,0,1,0
19648,312.5,4,2,1,0,1,0
19804,300,4,2,1,0,1,0
19954,359.281437125748,4,2,1,0,1,0
20133,315.789473684211,4,2,1,0,1,0
20290,352.941176470588,4,2,1,0,1,0
20466,333.333333333333,4,2,1,0,1,0
21132,317.460317460317,4,2,1,0,1,0
21290,333.333333333333,4,2,1,0,1,0
22127,327.868852459016,4,2,1,0,1,0
22127,-125,4,2,1,0,0,0
29913,-125,4,2,1,0,0,0
29995,-125,4,2,1,0,0,0
32126,-125,4,2,1,0,0,0
32618,-100,4,2,1,0,0,0
32864,-100,4,2,1,0,0,0
32946,-100,4,2,1,0,0,0
34175,-100,4,2,1,0,0,0
34257,-100,4,2,1,0,0,0
35487,-100,4,2,1,0,0,0
35569,-100,4,2,1,0,0,0
38110,-100,4,2,1,0,0,0
38192,-100,4,2,1,0,0,0
39421,-100,4,2,1,0,0,0
39503,-100,4,2,1,0,0,0
40733,-100,4,2,1,0,0,0
40815,-100,4,2,1,0,0,0
56142,-100,4,2,1,0,0,0
56224,-100,4,2,1,0,0,0
60815,-125,4,2,1,0,0,0
61389,-125,4,2,1,0,0,0
61471,-100,4,2,1,0,0,1
71635,-95.2380952380952,4,2,1,0,0,1
71963,-100,4,2,1,0,0,1
86225,-100,4,2,1,0,0,0
87373,-100,4,2,1,0,0,0

[HitObjects]
320,192,1063,5,0,0:0:0:0:
192,192,1104,1,0,0:0:0:0:
64,192,1145,128,0,3685:0:0:0:0:
192,192,3685,1,0,0:0:0:0:
320,192,3726,1,0,0:0:0:0:
448,192,3767,128,0,5735:0:0:0:0:
64,192,4587,128,0,4751:0:0:0:0:
192,192,4751,128,0,4915:0:0:0:0:
320,192,4915,128,0,5079:0:0:0:0:
320,192,5243,128,0,5407:0:0:0:0:
192,192,5407,128,0,5571:0:0:0:0:
64,192,5571,128,0,5735:0:0:0:0:
320,192,5735,1,0,0:0:0:0:
192,192,5735,1,0,0:0:0:0:
448,192,5899,1,0,0:0:0:0:
320,192,5981,1,0,0:0:0:0:
192,192,6063,1,0,0:0:0:0:
64,192,6063,1,0,0:0:0:0:
448,192,6144,1,0,0:0:0:0:
320,192,6226,1,0,0:0:0:0:
192,192,6226,1,0,0:0:0:0:
64,192,6226,128,0,6882:0:0:0:0:
320,192,6554,1,0,0:0:0:0:
192,192,6554,1,0,0:0:0:0:
320,192,6718,1,0,0:0:0:0:
192,192,6718,1,0,0:0:0:0:
448,192,6937,128,0,7538:0:0:0:0:
192,192,6937,1,0,0:0:0:0:
64,192,6937,1,0,0:0:0:0:
320,192,7210,1,0,0:0:0:0:
192,192,7210,1,0,0:0:0:0:
320,192,7374,1,0,0:0:0:0:
192,192,7374,1,0,0:0:0:0:
64,192,7593,128,0,7866:0:0:0:0:
448,192,7593,1,0,0:0:0:0:
320,192,7593,1,0,0:0:0:0:
448,192,7866,1,0,0:0:0:0:
320,192,7948,1,0,0:0:0:0:
192,192,8030,1,0,0:0:0:0:
64,192,8030,1,0,0:0:0:0:
448,192,8112,1,0,0:0:0:0:
320,192,8194,1,0,0:0:0:0:
64,192,8194,1,0,0:0:0:0:
192,192,8276,1,0,0:0:0:0:
448,192,8358,1,0,0:0:0:0:
320,192,8358,1,0,0:0:0:0:
64,192,8440,1,0,0:0:0:0:
192,192,8522,1,0,0:0:0:0:
320,192,8604,1,0,0:0:0:0:
448,192,8685,1,0,0:0:0:0:
192,192,8685,1,0,0:0:0:0:
64,192,8685,1,0,0:0:0:0:
448,192,9013,128,0,9341:0:0:0:0:
64,192,9013,1,0,0:0:0:0:
320,192,9013,1,0,0:0:0:0:
192,192,9341,1,0,0:0:0:0:
64,192,9341,1,0,0:0:0:0:
192,192,9505,1,0,0:0:0:0:
320,192,9669,1,0,0:0:0:0:
448,192,9669,1,0,0:0:0:0:
448,192,9833,1,0,0:0:0:0:
64,192,9997,1,0,0:0:0:0:
320,192,9997,1,0,0:0:0:0:
64,192,10161,1,0,0:0:0:0:
448,192,10325,1,0,0:0:0:0:
192,192,10325,1,0,0:0:0:0:
448,192,10489,1,0,0:0:0:0:
320,192,10653,1,0,0:0:0:0:
192,192,10653,1,0,0:0:0:0:
320,192,10817,1,0,0:0:0:0:
448,192,10981,1,0,0:0:0:0:
64,192,10981,1,0,0:0:0:0:
64,192,11144,1,0,0:0:0:0:
448,192,11308,1,0,0:0:0:0:
192,192,11308,1,0,0:0:0:0:
448,192,11472,1,0,0:0:0:0:
320,192,11636,1,0,0:0:0:0:
64,192,11636,128,0,11964:0:0:0:0:
448,192,11964,1,0,0:0:0:0:
192,192,11964,1,0,0:0:0:0:
192,192,12128,1,0,0:0:0:0:
448,192,12292,1,0,0:0:0:0:
320,192,12292,1,0,0:0:0:0:
448,192,12456,1,0,0:0:0:0:
64,192,12620,1,0,0:0:0:0:
320,192,12620,1,0,0:0:0:0:
64,192,12784,1,0,0:0:0:0:
192,192,12948,1,0,0:0:0:0:
448,192,12948,1,0,0:0:0:0:
192,192,13112,1,0,0:0:0:0:
320,192,13276,1,0,0:0:0:0:
64,192,13276,1,0,0:0:0:0:
320,192,13440,1,0,0:0:0:0:
448,192,13604,1,0,0:0:0:0:
192,192,13604,1,0,0:0:0:0:
448,192,13767,1,0,0:0:0:0:
320,192,13931,1,0,0:0:0:0:
64,192,13931,1,0,0:0:0:0:
320,192,14095,1,0,0:0:0:0:
64,192,14259,128,0,14587:0:0:0:0:
448,192,14259,1,0,0:0:0:0:
192,192,14259,1,0,0:0:0:0:
448,192,14587,1,0,0:0:0:0:
320,192,14587,1,0,0:0:0:0:
320,192,14751,1,0,0:0:0:0:
448,192,14915,1,0,0:0:0:0:
64,192,14915,1,0,0:0:0:0:
64,192,15079,1,0,0:0:0:0:
192,192,15243,1,0,0:0:0:0:
448,192,15243,1,0,0:0:0:0:
448,192,15407,1,0,0:0:0:0:
64,192,15571,1,0,0:0:0:0:
320,192,15571,1,0,0:0:0:0:
192,192,15653,1,0,0:0:0:0:
448,192,15735,1,0,0:0:0:0:
320,192,15817,1,0,0:0:0:0:
192,192,15899,1,0,0:0:0:0:
64,192,15899,1,0,0:0:0:0:
320,192,15981,1,0,0:0:0:0:
448,192,16063,1,0,0:0:0:0:
192,192,16144,1,0,0:0:0:0:
320,192,16226,1,0,0:0:0:0:
448,192,16226,1,0,0:0:0:0:
64,192,16308,1,0,0:0:0:0:
192,192,16390,1,0,0:0:0:0:
320,192,16472,1,0,0:0:0:0:
448,192,16554,1,0,0:0:0:0:
64,192,16554,1,0,0:0:0:0:
320,192,16636,1,0,0:0:0:0:
192,192,16718,1,0,0:0:0:0:
64,192,16800,1,0,0:0:0:0:
448,192,16882,1,0,0:0:0:0:
320,192,16882,1,0,0:0:0:0:
192,192,16964,1,0,0:0:0:0:
320,192,17046,1,0,0:0:0:0:
448,192,17128,1,0,0:0:0:0:
64,192,17210,1,0,0:0:0:0:
192,192,17292,1,0,0:0:0:0:
320,192,17374,1,0,0:0:0:0:
192,192,17456,1,0,0:0:0:0:
64,192,17538,1,0,0:0:0:0:
448,192,17620,1,0,0:0:0:0:
320,192,17702,1,0,0:0:0:0:
192,192,17784,1,0,0:0:0:0:
64,192,17866,1,0,0:0:0:0:
448,192,17948,1,0,0:0:0:0:
320,192,18030,1,0,0:0:0:0:
192,192,18112,1,0,0:0:0:0:
448,192,18194,1,0,0:0:0:0:
320,192,18194,1,0,0:0:0:0:
64,192,18194,1,0,0:0:0:0:
192,192,18276,1,0,0:0:0:0:
448,192,18358,1,0,0:0:0:0:
64,192,18440,1,0,0:0:0:0:
192,192,18522,1,0,0:0:0:0:
320,192,18604,1,0,0:0:0:0:
448,192,18685,1,0,0:0:0:0:
192,192,18767,1,0,0:0:0:0:
320,192,18849,1,0,0:0:0:0:
64,192,18931,1,0,0:0:0:0:
448,192,19013,1,0,0:0:0:0:
192,192,19095,1,0,0:0:0:0:
320,192,19177,1,0,0:0:0:0:
64,192,19259,1,0,0:0:0:0:
192,192,19341,1,0,0:0:0:0:
320,192,19341,1,0,0:0:0:0:
448,192,19341,128,0,19500:0:0:0:0:
320,192,19500,128,0,19648:0:0:0:0:
192,192,19648,128,0,19804:0:0:0:0:
64,192,19804,128,0,19954:0:0:0:0:
448,192,19954,128,0,20133:0:0:0:0:
320,192,20133,128,0,20290:0:0:0:0:
192,192,20290,128,0,20466:0:0:0:0:
64,192,20466,128,0,20632:0:0:0:0:
448,192,20632,128,0,20799:0:0:0:0:
320,192,20799,128,0,20966:0:0:0:0:
192,192,20966,128,0,21132:0:0:0:0:
64,192,21132,128,0,21290:0:0:0:0:
448,192,21290,128,0,22127:0:0:0:0:
64,192,22123,128,0,23438:0:0:0:0:
192,192,22454,1,0,0:0:0:0:
320,192,22618,1,0,0:0:0:0:
448,192,23438,128,0,24749:0:0:0:0:
192,192,23766,1,0,0:0:0:0:
64,192,24094,1,0,0:0:0:0:
320,192,24422,1,0,0:0:0:0:
64,192,24749,128,0,26061:0:0:0:0:
448,192,25569,1,0,0:0:0:0:
320,192,25733,1,0,0:0:0:0:
192,192,25897,1,0,0:0:0:0:
448,192,26061,128,0,27372:0:0:0:0:
64,192,26225,1,0,0:0:0:0:
192,192,26389,1,0,0:0:0:0:
320,192,26553,1,0,0:0:0:0:
192,192,26799,1,0,0:0:0:0:
64,192,27045,1,0,0:0:0:0:
320,192,27208,1,0,0:0:0:0:
64,192,27372,128,0,28684:0:0:0:0:
448,192,28028,128,0,28684:0:0:0:0:
192,192,28684,128,0,29995:0:0:0:0:
320,192,29995,128,0,30979:0:0:0:0:
64,192,30979,128,0,31143:0:0:0:0:
192,192,31143,128,0,31307:0:0:0:0:
192,192,31471,128,0,31635:0:0:0:0:
320,192,31635,128,0,31799:0:0:0:0:
448,192,31799,128,0,31963:0:0:0:0:
192,192,32126,1,0,0:0:0:0:
64,192,32126,1,0,0:0:0:0:
448,192,32290,1,0,0:0:0:0:
64,192,32290,1,0,0:0:0:0:
320,192,32454,1,0,0:0:0:0:
192,192,32536,1,0,0:0:0:0:
448,192,32618,1,0,0:0:0:0:
64,192,32618,128,0,32946:0:0:0:0:
448,192,32946,1,0,0:0:0:0:
320,192,32946,1,0,0:0:0:0:
192,192,33110,1,0,0:0:0:0:
320,192,33274,1,0,0:0:0:0:
64,192,33274,1,0,0:0:0:0:
448,192,33438,1,0,0:0:0:0:
192,192,33438,1,0,0:0:0:0:
320,192,33602,1,0,0:0:0:0:
448,192,33602,1,0,0:0:0:0:
64,192,33766,1,0,0:0:0:0:
320,192,33930,128,0,34258:0:0:0:0:
448,192,33930,1,0,0:0:0:0:
192,192,34258,1,0,0:0:0:0:
64,192,34258,1,0,0:0:0:0:
448,192,34422,1,0,0:0:0:0:
320,192,34586,1,0,0:0:0:0:
64,192,34586,128,0,34749:0:0:0:0:
448,192,34749,1,0,0:0:0:0:
192,192,34749,1,0,0:0:0:0:
320,192,34913,1,0,0:0:0:0:
64,192,34913,1,0,0:0:0:0:
448,192,35077,1,0,0:0:0:0:
192,192,35241,128,0,35569:0:0:0:0:
320,192,35241,1,0,0:0:0:0:
448,192,35569,1,0,0:0:0:0:
64,192,35569,1,0,0:0:0:0:
320,192,35733,1,0,0:0:0:0:
192,192,35897,1,0,0:0:0:0:
64,192,35897,1,0,0:0:0:0:
448,192,36061,128,0,36225:0:0:0:0:
192,192,36225,128,0,36389:0:0:0:0:
320,192,36225,1,0,0:0:0:0:
64,192,36389,128,0,36553:0:0:0:0:
320,192,36553,1,0,0:0:0:0:
448,192,36553,1,0,0:0:0:0:
192,192,36717,1,0,0:0:0:0:
64,192,36881,1,0,0:0:0:0:
320,192,36881,128,0,37045:0:0:0:0:
448,192,37045,128,0,37208:0:0:0:0:
192,192,37208,1,0,0:0:0:0:
320,192,37372,1,0,0:0:0:0:
448,192,37372,1,0,0:0:0:0:
192,192,37536,1,0,0:0:0:0:
64,192,37536,1,0,0:0:0:0:
448,192,37700,1,0,0:0:0:0:
64,192,37864,128,0,38192:0:0:0:0:
320,192,37864,1,0,0:0:0:0:
448,192,38192,1,0,0:0:0:0:
192,192,38192,1,0,0:0:0:0:
320,192,38356,1,0,0:0:0:0:
192,192,38520,1,0,0:0:0:0:
64,192,38520,1,0,0:0:0:0:
192,192,38684,1,0,0:0:0:0:
448,192,38684,1,0,0:0:0:0:
320,192,38848,1,0,0:0:0:0:
448,192,38848,1,0,0:0:0:0:
64,192,39012,1,0,0:0:0:0:
448,192,39176,128,0,39504:0:0:0:0:
192,192,39176,1,0,0:0:0:0:
320,192,39504,1,0,0:0:0:0:
64,192,39504,1,0,0:0:0:0:
192,192,39667,1,0,0:0:0:0:
448,192,39831,1,0,0:0:0:0:
320,192,39831,1,0,0:0:0:0:
192,192,39995,1,0,0:0:0:0:
64,192,39995,1,0,0:0:0:0:
448,192,40159,1,0,0:0:0:0:
64,192,40159,1,0,0:0:0:0:
320,192,40323,1,0,0:0:0:0:
192,192,40487,1,0,0:0:0:0:
64,192,40487,1,0,0:0:0:0:
448,192,40651,1,0,0:0:0:0:
320,192,40815,1,0,0:0:0:0:
64,192,40815,1,0,0:0:0:0:
192,192,40979,1,0,0:0:0:0:
320,192,41143,1,0,0:0:0:0:
448,192,41143,1,0,0:0:0:0:
64,192,41307,1,0,0:0:0:0:
320,192,41307,1,0,0:0:0:0:
192,192,41471,1,0,0:0:0:0:
448,192,41471,1,0,0:0:0:0:
320,192,41635,128,0,41799:0:0:0:0:
192,192,41799,128,0,41963:0:0:0:0:
448,192,41799,1,0,0:0:0:0:
64,192,41963,128,0,42126:0:0:0:0:
320,192,41963,1,0,0:0:0:0:
192,192,42126,1,0,0:0:0:0:
448,192,42290,1,0,0:0:0:0:
320,192,42454,1,0,0:0:0:0:
64,192,42454,1,0,0:0:0:0:
192,192,42454,1,0,0:0:0:0:
448,192,42618,1,0,0:0:0:0:
192,192,42618,1,0,0:0:0:0:
320,192,42782,1,0,0:0:0:0:
448,192,42782,1,0,0:0:0:0:
64,192,43110,128,0,43438:0:0:0:0:
192,192,43110,1,0,0:0:0:0:
448,192,43110,1,0,0:0:0:0:
320,192,43438,128,0,43602:0:0:0:0:
448,192,43438,1,0,0:0:0:0:
64,192,43602,1,0,0:0:0:0:
192,192,43766,128,0,43930:0:0:0:0:
448,192,43766,1,0,0:0:0:0:
64,192,43930,128,0,44094:0:0:0:0:
320,192,44094,1,0,0:0:0:0:
448,192,44258,128,0,44422:0:0:0:0:
192,192,44422,1,0,0:0:0:0:
64,192,44586,128,0,44749:0:0:0:0:
320,192,44586,1,0,0:0:0:0:
192,192,44749,1,0,0:0:0:0:
320,192,44913,1,0,0:0:0:0:
448,192,44913,1,0,0:0:0:0:
192,192,45077,128,0,45241:0:0:0:0:
64,192,45077,1,0,0:0:0:0:
320,192,45241,1,0,0:0:0:0:
448,192,45405,1,0,0:0:0:0:
320,192,45569,1,0,0:0:0:0:
64,192,45569,1,0,0:0:0:0:
192,192,45733,128,0,46061:0:0:0:0:
448,192,45733,1,0,0:0:0:0:
64,192,45733,1,0,0:0:0:0:
448,192,46061,128,0,46225:0:0:0:0:
320,192,46061,1,0,0:0:0:0:
192,192,46225,1,0,0:0:0:0:
64,192,46389,128,0,46553:0:0:0:0:
448,192,46389,1,0,0:0:0:0:
320,192,46553,128,0,46717:0:0:0:0:
192,192,46717,1,0,0:0:0:0:
64,192,46881,128,0,47045:0:0:0:0:
448,192,46881,1,0,0:0:0:0:
320,192,47045,1,0,0:0:0:0:
448,192,47208,128,0,47372:0:0:0:0:
192,192,47208,1,0,0:0:0:0:
64,192,47372,1,0,0:0:0:0:
320,192,47536,128,0,47700:0:0:0:0:
448,192,47536,1,0,0:0:0:0:
192,192,47700,128,0,47864:0:0:0:0:
64,192,47700,1,0,0:0:0:0:
448,192,47864,1,0,0:0:0:0:
320,192,48028,1,0,0:0:0:0:
192,192,48192,1,0,0:0:0:0:
64,192,48192,1,0,0:0:0:0:
448,192,48356,128,0,48684:0:0:0:0:
320,192,48356,1,0,0:0:0:0:
192,192,48356,1,0,0:0:0:0:
320,192,48684,1,0,0:0:0:0:
64,192,48684,128,0,48848:0:0:0:0:
192,192,48848,1,0,0:0:0:0:
320,192,49012,128,0,49176:0:0:0:0:
448,192,49012,1,0,0:0:0:0:
192,192,49176,128,0,49340:0:0:0:0:
64,192,49340,1,0,0:0:0:0:
320,192,49504,128,0,49667:0:0:0:0:
448,192,49667,1,0,0:0:0:0:
192,192,49831,1,0,0:0:0:0:
64,192,49831,1,0,0:0:0:0:
320,192,49995,128,0,50159:0:0:0:0:
192,192,50159,128,0,50323:0:0:0:0:
64,192,50159,1,0,0:0:0:0:
320,192,50323,1,0,0:0:0:0:
448,192,50487,128,0,50651:0:0:0:0:
64,192,50487,1,0,0:0:0:0:
320,192,50651,1,0,0:0:0:0:
192,192,50651,1,0,0:0:0:0:
64,192,50815,1,0,0:0:0:0:
448,192,50979,1,0,0:0:0:0:
192,192,50979,1,0,0:0:0:0:
320,192,50979,1,0,0:0:0:0:
192,192,51307,1,0,0:0:0:0:
64,192,51307,1,0,0:0:0:0:
320,192,51471,1,0,0:0:0:0:
448,192,51635,1,0,0:0:0:0:
64,192,51635,1,0,0:0:0:0:
192,192,51799,1,0,0:0:0:0:
320,192,51963,1,0,0:0:0:0:
448,192,51963,1,0,0:0:0:0:
64,192,52126,1,0,0:0:0:0:
448,192,52290,1,0,0:0:0:0:
192,192,52290,1,0,0:0:0:0:
320,192,52454,1,0,0:0:0:0:
192,192,52618,1,0,0:0:0:0:
64,192,52618,1,0,0:0:0:0:
448,192,52782,128,0,52946:0:0:0:0:
320,192,52946,128,0,53110:0:0:0:0:
192,192,53110,128,0,53274:0:0:0:0:
64,192,53274,128,0,53438:0:0:0:0:
448,192,53438,128,0,53602:0:0:0:0:
320,192,53602,1,0,0:0:0:0:
64,192,53602,1,0,0:0:0:0:
192,192,53602,1,0,0:0:0:0:
448,192,53766,1,0,0:0:0:0:
320,192,53930,1,0,0:0:0:0:
192,192,53930,1,0,0:0:0:0:
64,192,54094,1,0,0:0:0:0:
448,192,54094,1,0,0:0:0:0:
320,192,54094,1,0,0:0:0:0:
448,192,54258,1,0,0:0:0:0:
320,192,54422,1,0,0:0:0:0:
192,192,54422,1,0,0:0:0:0:
64,192,54586,1,0,0:0:0:0:
448,192,54586,1,0,0:0:0:0:
320,192,54586,1,0,0:0:0:0:
64,192,54913,1,0,0:0:0:0:
448,192,54995,1,0,0:0:0:0:
192,192,55077,1,0,0:0:0:0:
320,192,55159,1,0,0:0:0:0:
64,192,55241,1,0,0:0:0:0:
448,192,55323,1,0,0:0:0:0:
192,192,55405,1,0,0:0:0:0:
320,192,55487,1,0,0:0:0:0:
64,192,55569,1,0,0:0:0:0:
448,192,55651,1,0,0:0:0:0:
192,192,55733,1,0,0:0:0:0:
320,192,55815,1,0,0:0:0:0:
448,192,55897,1,0,0:0:0:0:
64,192,55897,1,0,0:0:0:0:
192,192,55897,1,0,0:0:0:0:
448,192,56225,1,0,0:0:0:0:
192,192,56225,1,0,0:0:0:0:
320,192,56225,1,0,0:0:0:0:
64,192,56389,1,0,0:0:0:0:
192,192,56553,1,0,0:0:0:0:
320,192,56553,1,0,0:0:0:0:
448,192,56717,1,0,0:0:0:0:
64,192,56717,1,0,0:0:0:0:
192,192,56717,1,0,0:0:0:0:
64,192,56881,1,0,0:0:0:0:
192,192,57045,1,0,0:0:0:0:
320,192,57045,1,0,0:0:0:0:
448,192,57208,1,0,0:0:0:0:
64,192,57208,1,0,0:0:0:0:
192,192,57208,1,0,0:0:0:0:
448,192,57536,1,0,0:0:0:0:
64,192,57618,1,0,0:0:0:0:
320,192,57700,1,0,0:0:0:0:
192,192,57782,1,0,0:0:0:0:
448,192,57864,1,0,0:0:0:0:
64,192,57946,1,0,0:0:0:0:
320,192,58028,1,0,0:0:0:0:
192,192,58110,1,0,0:0:0:0:
448,192,58192,1,0,0:0:0:0:
64,192,58274,1,0,0:0:0:0:
320,192,58356,1,0,0:0:0:0:
192,192,58438,1,0,0:0:0:0:
448,192,58520,1,0,0:0:0:0:
320,192,58520,1,0,0:0:0:0:
64,192,58520,1,0,0:0:0:0:
448,192,58848,1,0,0:0:0:0:
320,192,58848,1,0,0:0:0:0:
64,192,58848,1,0,0:0:0:0:
192,192,58930,1,0,0:0:0:0:
320,192,59012,1,0,0:0:0:0:
448,192,59094,1,0,0:0:0:0:
64,192,59176,1,0,0:0:0:0:
192,192,59258,1,0,0:0:0:0:
320,192,59340,1,0,0:0:0:0:
192,192,59422,1,0,0:0:0:0:
64,192,59504,1,0,0:0:0:0:
448,192,59586,1,0,0:0:0:0:
320,192,59667,1,0,0:0:0:0:
192,192,59749,1,0,0:0:0:0:
320,192,59831,1,0,0:0:0:0:
448,192,59913,1,0,0:0:0:0:
64,192,59995,1,0,0:0:0:0:
320,192,59995,1,0,0:0:0:0:
192,192,59995,1,0,0:0:0:0:
448,192,61471,1,0,0:0:0:0:
192,192,61471,1,0,0:0:0:0:
64,192,61471,1,0,0:0:0:0:
320,192,61635,1,0,0:0:0:0:
192,192,61799,1,0,0:0:0:0:
64,192,61799,1,0,0:0:0:0:
448,192,61963,1,0,0:0:0:0:
320,192,62126,1,0,0:0:0:0:
64,192,62126,1,0,0:0:0:0:
192,192,62290,1,0,0:0:0:0:
320,192,62454,1,0,0:0:0:0:
448,192,62454,1,0,0:0:0:0:
64,192,62618,1,0,0:0:0:0:
192,192,62782,1,0,0:0:0:0:
320,192,62782,1,0,0:0:0:0:
448,192,62946,1,0,0:0:0:0:
192,192,63110,1,0,0:0:0:0:
64,192,63110,1,0,0:0:0:0:
320,192,63274,1,0,0:0:0:0:
448,192,63438,1,0,0:0:0:0:
192,192,63438,1,0,0:0:0:0:
64,192,63602,1,0,0:0:0:0:
320,192,63766,1,0,0:0:0:0:
448,192,63766,1,0,0:0:0:0:
64,192,63930,1,0,0:0:0:0:
448,192,64094,1,0,0:0:0:0:
320,192,64094,1,0,0:0:0:0:
192,192,64258,1,0,0:0:0:0:
448,192,64422,1,0,0:0:0:0:
320,192,64422,1,0,0:0:0:0:
192,192,64586,1,0,0:0:0:0:
320,192,64749,1,0,0:0:0:0:
448,192,64749,1,0,0:0:0:0:
192,192,64913,1,0,0:0:0:0:
448,192,65077,1,0,0:0:0:0:
320,192,65077,1,0,0:0:0:0:
64,192,65241,128,0,65405:0:0:0:0:
192,192,65405,1,0,0:0:0:0:
448,192,65569,128,0,65733:0:0:0:0:
320,192,65569,1,0,0:0:0:0:
192,192,65733,128,0,65897:0:0:0:0:
64,192,65733,1,0,0:0:0:0:
320,192,65897,1,0,0:0:0:0:
448,192,66061,1,0,0:0:0:0:
64,192,66061,1,0,0:0:0:0:
192,192,66225,1,0,0:0:0:0:
320,192,66389,1,0,0:0:0:0:
448,192,66389,1,0,0:0:0:0:
64,192,66553,1,0,0:0:0:0:
320,192,66717,1,0,0:0:0:0:
192,192,66717,1,0,0:0:0:0:
448,192,66717,1,0,0:0:0:0:
64,192,66881,1,0,0:0:0:0:
448,192,67045,1,0,0:0:0:0:
192,192,67045,1,0,0:0:0:0:
320,192,67208,1,0,0:0:0:0:
192,192,67372,1,0,0:0:0:0:
64,192,67372,1,0,0:0:0:0:
448,192,67536,1,0,0:0:0:0:
320,192,67700,1,0,0:0:0:0:
192,192,67700,1,0,0:0:0:0:
64,192,67864,1,0,0:0:0:0:
448,192,68028,1,0,0:0:0:0:
192,192,68028,1,0,0:0:0:0:
320,192,68192,1,0,0:0:0:0:
448,192,68356,1,0,0:0:0:0:
64,192,68356,1,0,0:0:0:0:
192,192,68520,1,0,0:0:0:0:
320,192,68684,1,0,0:0:0:0:
448,192,68684,1,0,0:0:0:0:
64,192,68848,1,0,0:0:0:0:
448,192,69012,1,0,0:0:0:0:
192,192,69012,1,0,0:0:0:0:
320,192,69340,1,0,0:0:0:0:
448,192,69340,1,0,0:0:0:0:
64,192,69340,1,0,0:0:0:0:
192,192,69667,1,0,0:0:0:0:
64,192,69667,1,0,0:0:0:0:
448,192,69831,1,0,0:0:0:0:
320,192,69913,1,0,0:0:0:0:
64,192,69995,1,0,0:0:0:0:
320,192,70077,1,0,0:0:0:0:
192,192,70159,1,0,0:0:0:0:
448,192,70241,1,0,0:0:0:0:
320,192,70323,1,0,0:0:0:0:
64,192,70405,1,0,0:0:0:0:
192,192,70487,1,0,0:0:0:0:
320,192,70569,1,0,0:0:0:0:
448,192,70651,1,0,0:0:0:0:
192,192,70651,1,0,0:0:0:0:
64,192,70651,1,0,0:0:0:0:
192,192,70979,1,0,0:0:0:0:
64,192,70979,1,0,0:0:0:0:
448,192,70979,1,0,0:0:0:0:
448,192,71307,1,0,0:0:0:0:
64,192,71389,1,0,0:0:0:0:
320,192,71471,1,0,0:0:0:0:
192,192,71553,1,0,0:0:0:0:
448,192,71635,1,0,0:0:0:0:
64,192,71717,1,0,0:0:0:0:
320,192,71799,1,0,0:0:0:0:
192,192,71881,1,0,0:0:0:0:
64,192,71963,1,0,0:0:0:0:
320,192,71963,1,0,0:0:0:0:
448,192,71963,1,0,0:0:0:0:
192,192,72126,1,0,0:0:0:0:
320,192,72290,1,0,0:0:0:0:
448,192,72290,1,0,0:0:0:0:
64,192,72454,1,0,0:0:0:0:
192,192,72618,1,0,0:0:0:0:
320,192,72618,1,0,0:0:0:0:
448,192,72782,1,0,0:0:0:0:
320,192,72946,1,0,0:0:0:0:
64,192,72946,1,0,0:0:0:0:
192,192,73110,1,0,0:0:0:0:
448,192,73274,1,0,0:0:0:0:
320,192,73274,1,0,0:0:0:0:
64,192,73438,1,0,0:0:0:0:
192,192,73602,1,0,0:0:0:0:
320,192,73602,1,0,0:0:0:0:
448,192,73766,1,0,0:0:0:0:
64,192,73930,1,0,0:0:0:0:
192,192,73930,1,0,0:0:0:0:
320,192,74094,1,0,0:0:0:0:
448,192,74258,1,0,0:0:0:0:
64,192,74258,1,0,0:0:0:0:
320,192,74422,1,0,0:0:0:0:
192,192,74586,1,0,0:0:0:0:
64,192,74586,1,0,0:0:0:0:
320,192,74749,1,0,0:0:0:0:
192,192,74913,1,0,0:0:0:0:
64,192,74913,1,0,0:0:0:0:
320,192,75077,1,0,0:0:0:0:
192,192,75241,1,0,0:0:0:0:
64,192,75241,1,0,0:0:0:0:
320,192,75405,1,0,0:0:0:0:
192,192,75569,1,0,0:0:0:0:
64,192,75569,1,0,0:0:0:0:
320,192,75733,1,0,0:0:0:0:
64,192,75897,1,0,0:0:0:0:
448,192,75897,1,0,0:0:0:0:
192,192,75979,1,0,0:0:0:0:
320,192,76061,1,0,0:0:0:0:
448,192,76143,1,0,0:0:0:0:
64,192,76225,1,0,0:0:0:0:
320,192,76225,1,0,0:0:0:0:
192,192,76307,1,0,0:0:0:0:
448,192,76389,1,0,0:0:0:0:
320,192,76471,1,0,0:0:0:0:
192,192,76553,1,0,0:0:0:0:
64,192,76553,1,0,0:0:0:0:
448,192,76635,1,0,0:0:0:0:
320,192,76717,1,0,0:0:0:0:
192,192,76799,1,0,0:0:0:0:
64,192,76881,1,0,0:0:0:0:
448,192,76881,1,0,0:0:0:0:
192,192,76963,1,0,0:0:0:0:
320,192,77045,1,0,0:0:0:0:
448,192,77126,1,0,0:0:0:0:
320,192,77208,1,0,0:0:0:0:
64,192,77208,1,0,0:0:0:0:
192,192,77208,1,0,0:0:0:0:
448,192,77372,1,0,0:0:0:0:
320,192,77536,1,0,0:0:0:0:
64,192,77536,1,0,0:0:0:0:
192,192,77700,1,0,0:0:0:0:
448,192,77864,1,0,0:0:0:0:
320,192,77864,1,0,0:0:0:0:
64,192,78028,1,0,0:0:0:0:
192,192,78192,1,0,0:0:0:0:
320,192,78192,1,0,0:0:0:0:
448,192,78356,1,0,0:0:0:0:
192,192,78356,1,0,0:0:0:0:
64,192,78356,1,0,0:0:0:0:
448,192,78684,1,0,0:0:0:0:
320,192,78684,1,0,0:0:0:0:
192,192,78848,1,0,0:0:0:0:
64,192,78848,1,0,0:0:0:0:
320,192,79012,1,0,0:0:0:0:
64,192,79176,1,0,0:0:0:0:
448,192,79258,1,0,0:0:0:0:
192,192,79340,1,0,0:0:0:0:
320,192,79422,1,0,0:0:0:0:
64,192,79504,1,0,0:0:0:0:
448,192,79586,1,0,0:0:0:0:
192,192,79667,1,0,0:0:0:0:
320,192,79749,1,0,0:0:0:0:
64,192,79831,128,0,80159:0:0:0:0:
448,192,79831,1,0,0:0:0:0:
192,192,79831,1,0,0:0:0:0:
320,192,80159,1,0,0:0:0:0:
448,192,80159,1,0,0:0:0:0:
320,192,80323,1,0,0:0:0:0:
192,192,80487,1,0,0:0:0:0:
64,192,80487,1,0,0:0:0:0:
64,192,80651,1,0,0:0:0:0:
448,192,80815,1,0,0:0:0:0:
192,192,80815,1,0,0:0:0:0:
448,192,80979,1,0,0:0:0:0:
64,192,81143,1,0,0:0:0:0:
320,192,81143,1,0,0:0:0:0:
64,192,81307,1,0,0:0:0:0:
192,192,81471,1,0,0:0:0:0:
320,192,81471,1,0,0:0:0:0:
192,192,81635,1,0,0:0:0:0:
64,192,81799,1,0,0:0:0:0:
448,192,81799,1,0,0:0:0:0:
448,192,81963,1,0,0:0:0:0:
64,192,82126,1,0,0:0:0:0:
320,192,82126,1,0,0:0:0:0:
64,192,82290,1,0,0:0:0:0:
192,192,82454,1,0,0:0:0:0:
448,192,82454,128,0,82782:0:0:0:0:
64,192,82782,1,0,0:0:0:0:
320,192,82782,1,0,0:0:0:0:
320,192,82946,1,0,0:0:0:0:
64,192,83110,1,0,0:0:0:0:
192,192,83110,1,0,0:0:0:0:
64,192,83274,1,0,0:0:0:0:
448,192,83438,1,0,0:0:0:0:
192,192,83438,1,0,0:0:0:0:
448,192,83602,1,0,0:0:0:0:
320,192,83766,1,0,0:0:0:0:
64,192,83766,1,0,0:0:0:0:
192,192,83766,1,0,0:0:0:0:
448,192,83930,1,0,0:0:0:0:
64,192,84012,1,0,0:0:0:0:
320,192,84094,1,0,0:0:0:0:
192,192,84176,1,0,0:0:0:0:
448,192,84258,1,0,0:0:0:0:
64,192,84340,1,0,0:0:0:0:
320,192,84422,1,0,0:0:0:0:
192,192,84504,1,0,0:0:0:0:
448,192,84586,1,0,0:0:0:0:
64,192,84749,1,0,0:0:0:0:
448,192,84831,1,0,0:0:0:0:
192,192,84913,1,0,0:0:0:0:
320,192,84995,1,0,0:0:0:0:
448,192,85077,1,0,0:0:0:0:
64,192,85077,1,0,0:0:0:0:
192,192,85077,1,0,0:0:0:0:
320,192,85241,1,0,0:0:0:0:
192,192,85405,1,0,0:0:0:0:
64,192,85405,1,0,0:0:0:0:
448,192,85569,1,0,0:0:0:0:
320,192,85733,1,0,0:0:0:0:
192,192,85733,1,0,0:0:0:0:
64,192,85897,1,0,0:0:0:0:
448,192,86061,1,0,0:0:0:0:
192,192,86061,1,0,0:0:0:0:
320,192,86225,1,0,0:0:0:0:
64,192,86225,128,0,88438:0:0:0:0:
192,192,86225,128,0,88520:0:0:0:0:
320,192,87045,128,0,88602:0:0:0:0:
448,192,87372,128,0,88684:0:0:0:0:
