osu file format v14

[General]
AudioFilename: audio.mp3
AudioLeadIn: 0
PreviewTime: 64395
Countdown: 0
SampleSet: Soft
StackLeniency: 0.7
Mode: 0
LetterboxInBreaks: 0
WidescreenStoryboard: 0

[Editor]
DistanceSpacing: 1.1
BeatDivisor: 4
GridSize: 4
TimelineZoom: 1.4

[Metadata]
Title:landscape
TitleUnicode:landscape
Artist:yanaginagi
ArtistUnicode:やなぎなぎ
Creator:Hokichi
Version:vista
Source:
Tags:hoki shortthu betastar sidetail boss bossandy short ver polyomino shinya saito
BeatmapID:1580539
BeatmapSetID:750583

[Difficulty]
HPDrainRate:6.5
CircleSize:4
OverallDifficulty:7.5
ApproachRate:8.5
SliderMultiplier:1.6
SliderTickRate:1

[Events]
//Background and Video events
0,0,"bg.jpg",0,0
//Break Periods
//Storyboard Layer 0 (Background)
//Storyboard Layer 1 (Fail)
//Storyboard Layer 2 (Pass)
//Storyboard Layer 3 (Foreground)
//Storyboard Sound Samples

[TimingPoints]
482,372.670807453416,4,2,2,30,1,0
482,-166.666666666667,4,2,2,30,0,0
854,-166.666666666667,4,2,1,30,0,0
14550,-100,4,2,1,5,0,0
14643,-125,4,2,1,30,0,0
15388,-125,4,2,1,50,0,0
26196,-125,4,2,1,5,0,0
26382,-125,4,2,1,50,0,0
27322,372.670807453416,4,2,2,50,1,0
27322,-125,4,2,2,50,0,0
39239,372.670807453416,4,2,1,50,1,0
51165,-125,4,2,1,50,0,0
53401,-125,4,2,2,50,0,0
53587,-125,4,2,1,50,0,0
55637,-125,4,2,2,50,0,0
55823,-125,4,2,1,50,0,0
57127,-100,4,2,1,50,0,0
64580,-100,4,2,1,50,0,1
69053,-100,4,2,2,50,0,1
70544,-100,4,2,1,50,0,1
75201,-100,4,2,1,50,0,0
76506,-100,4,2,1,50,0,1
80978,-100,4,2,2,50,0,1
82469,-100,4,2,1,50,0,1
86940,-100,4,2,1,50,0,0
88431,-100,4,2,2,50,0,1
90853,-100,4,2,1,50,0,0
91413,-125,4,2,1,50,0,0
91693,-125,4,2,1,5,0,0
91786,-100,4,2,1,50,0,0
101662,-125,4,2,1,50,0,0
103338,-181.818181818182,4,2,2,20,0,0
104829,-181.818181818182,4,2,2,15,0,0
106320,-181.818181818182,4,2,2,10,0,0
107811,-181.818181818182,4,2,2,7,0,0
109301,-181.818181818182,4,2,2,7,0,0
110792,-181.818181818182,4,2,1,5,0,0
111537,-181.818181818182,4,2,1,5,0,0

[Colours]
Combo1 : 255,160,66
Combo2 : 0,230,0
Combo3 : 79,158,255
Combo4 : 244,74,100
Combo5 : 255,216,98

[HitObjects]
108,192,482,6,0,P|152:208|208:184,1,95.9999970703126,2|0,0:0|0:0,0:0:0:0:
212,104,1041,2,0,L|188:40,1,47.9999985351563,2|0,0:0|0:0,0:0:0:0:
108,60,1413,2,0,L|91:104,2,47.9999985351563,0|0|0,0:0|0:0|0:0,0:0:0:0:
195,59,1972,6,0,B|236:44|272:64|272:64|312:84|352:60,1,143.999995605469,2|0,0:0|0:0,0:0:0:0:
416,20,2718,2,0,P|416:68|428:168,1,143.999995605469,2|0,0:0|0:0,0:0:0:0:
448,292,3463,6,0,P|396:304|340:292,1,95.9999970703126,2|0,0:0|0:0,0:0:0:0:
286,241,4022,2,0,L|243:263,1,47.9999985351563,2|0,0:0|0:0,0:0:0:0:
132,261,4395,2,0,L|89:238,2,47.9999985351563,0|0|0,0:0|0:0|0:0,0:0:0:0:
286,241,4954,1,0,0:0:0:0:
90,238,5326,2,0,P|81:191|88:144,2,95.9999970703126
152,76,6444,6,0,P|211:71|299:57,2,143.999995605469,2|2|2,0:0|0:0|0:0,0:0:0:0:
208,216,7935,6,0,P|224:264|210:310,1,95.9999970703126,2|0,0:0|0:0,0:0:0:0:
32,236,8680,2,0,P|16:188|30:142,1,95.9999970703126,2|0,0:0|0:0,0:0:0:0:
194,34,9426,6,0,B|178:57|186:87|186:87|154:84|128:100|128:100|131:129|149:152|149:152|121:163|105:187|105:187|121:213|148:226|148:226|130:246|128:277|128:277|155:291|182:285|182:285|180:316|195:341|195:341|223:340|247:321|247:321|258:349|282:365|282:365|308:350|321:323|321:323|344:345|373:343|373:343|388:319|380:289|380:289|411:291|437:276|437:276|436:247|417:224|417:224|444:212|460:189|460:189|445:163|418:149|418:149|436:129|438:99|438:99|410:84|383:90|383:90|385:60|371:34|371:34|342:36|319:55|319:55|308:26|290:17,1,1247.99996191406,2|0,0:0|0:0,0:0:0:0:
293,19,14643,5,0,3:0:0:0:
352,184,14829,1,8,3:2:0:0:
352,184,14922,1,8,3:2:0:0:
352,184,15016,1,8,3:2:0:0:
184,212,15202,1,8,3:2:0:0:
184,212,15295,1,8,3:2:0:0:
184,212,15388,6,0,P|184:252|188:296,1,64,4|0,0:0|0:0,0:0:0:0:
352,184,15761,2,0,P|352:152|350:120,1,64,8|0,0:0|0:0,0:0:0:0:
293,19,16134,1,0,0:0:0:0:
272,156,16320,1,0,0:0:0:0:
160,72,16506,1,8,0:0:0:0:
320,224,16693,6,0,P|324:292|320:356,1,128,0|0,0:0|0:0,0:0:0:0:
185,275,17252,1,8,0:0:0:0:
364,288,17438,1,0,0:0:0:0:
364,288,17531,1,0,0:0:0:0:
364,288,17624,1,0,0:0:0:0:
216,184,17811,1,0,0:0:0:0:
240,343,17997,1,8,0:0:0:0:
344,180,18183,1,0,0:0:0:0:
344,180,18277,1,0,0:0:0:0:
344,180,18370,6,0,P|279:184|216:183,1,128,0|8,0:0|0:0,0:0:0:0:
80,192,18929,1,0,0:0:0:0:
80,192,19022,1,0,0:0:0:0:
80,192,19115,2,0,P|72:232|88:272,1,64,0|0,0:0|0:0,0:0:0:0:
168,320,19488,1,8,0:0:0:0:
152,140,19674,6,0,P|84:104|32:116,1,128,4|0,0:0|0:0,0:0:0:0:
77,253,20233,1,8,0:0:0:0:
228,176,20419,2,0,P|225:99|188:60,1,128,4|8,0:0|0:0,0:0:0:0:
193,63,20885,1,8,3:2:0:0:
193,63,20978,1,8,3:2:0:0:
36,113,21165,1,0,0:0:0:0:
77,253,21351,6,0,P|80:288|73:329,2,64,4|0|8,0:0|0:0|0:0,0:0:0:0:
36,113,21910,2,0,P|33:78|40:36,1,64,4|0,0:0|0:0,0:0:0:0:
172,80,22283,1,0,0:0:0:0:
172,80,22469,1,8,0:0:0:0:
168,240,22655,6,0,P|171:275|164:316,1,64,4|0,0:0|0:0,0:0:0:0:
44,204,23028,1,0,0:0:0:0:
44,204,23214,1,8,0:0:0:0:
212,168,23401,2,0,P|247:165|288:172,1,64,0|0,0:0|0:0,0:0:0:0:
340,292,23773,1,0,0:0:0:0:
168,240,23960,1,8,0:0:0:0:
368,172,24146,1,0,0:0:0:0:
368,172,24239,1,0,0:0:0:0:
368,172,24332,6,0,P|360:136|356:100,1,64,4|0,0:0|0:0,0:0:0:0:
484,156,24705,2,8,P|492:192|496:228,1,64,8|8,0:0|0:0,0:0:0:0:
495,218,24985,1,8,0:0:0:0:
495,218,25078,1,8,0:0:0:0:
440,304,25264,1,0,0:0:0:0:
348,328,25450,1,0,3:0:0:0:
260,312,25637,6,0,B|196:284|168:240|120:192|96:260|48:280|68:348|144:396|152:300|212:364|184:320|212:240|156:164|284:144,1,512,4|2,0:0|0:0,0:0:0:0:
368,208,27322,6,0,P|372:248|368:280,1,64,2|0,0:0|0:0,0:0:0:0:
269,146,27694,1,8,0:0:0:0:
269,146,27881,2,0,P|264:105|269:73,1,64,0|0,0:0|0:0,0:0:0:0:
422,174,28253,2,0,P|389:197|359:210,1,64,0|8,0:0|0:0,0:0:0:0:
380,88,28626,6,0,P|452:84|504:128,1,128,0|0,0:0|0:0,0:0:0:0:
441,234,29185,1,8,0:0:0:0:
441,234,29371,2,0,P|424:189|421:150,1,64,0|0,0:0|0:0,0:0:0:0:
280,219,29744,2,0,P|279:250|272:282,1,64,0|8,0:0|0:0,0:0:0:0:
172,336,30117,1,0,0:0:0:0:
228,168,30303,6,0,P|296:148|344:184,1,128,0|8,0:0|0:0,0:0:0:0:
272,283,30862,1,0,0:0:0:0:
168,212,31049,2,0,P|156:142|198:98,1,128,0|8,0:0|0:0,0:0:0:0:
356,100,31608,1,0,0:0:0:0:
280,220,31794,6,0,B|270:251|271:288,1,64,0|0,0:0|0:0,0:0:0:0:
376,312,32167,1,8,0:0:0:0:
339,177,32353,2,0,P|286:146|228:168,1,128,0|0,0:0|0:0,0:0:0:0:
272,283,32912,1,8,0:0:0:0:
272,283,33098,1,0,0:0:0:0:
112,336,33285,6,0,P|112:304|116:272,1,64,0|0,0:0|0:0,0:0:0:0:
120,168,33657,1,8,0:0:0:0:
120,168,33844,2,0,P|90:180|61:193,1,64
44,88,34216,2,0,P|73:75|102:62,1,64,0|8,0:0|0:0,0:0:0:0:
208,40,34589,6,0,P|272:37|335:42,1,128,0|0,0:0|0:0,0:0:0:0:
408,116,35148,1,8,0:0:0:0:
408,116,35334,2,0,P|436:87|463:64,1,64,0|0,0:0|0:0,0:0:0:0:
476,192,35707,2,0,P|447:220|420:243,1,64,0|8,0:0|0:0,0:0:0:0:
444,336,36080,1,0,0:0:0:0:
336,208,36266,6,0,P|336:184|340:144,1,64,0|0,0:0|0:0,0:0:0:0:
415,56,36639,1,8,0:0:0:0:
284,28,36825,2,0,P|252:28|220:32,1,64,0|0,0:0|0:0,0:0:0:0:
184,152,37198,2,0,P|215:151|247:147,1,64,0|8,0:0|0:0,0:0:0:0:
136,56,37570,1,0,0:0:0:0:
124,240,37757,6,0,P|228:244|336:216,1,192,0|0,0:0|0:0,0:0:0:0:
420,148,38502,1,0,3:2:0:0:
420,124,38595,1,0,3:2:0:0:
420,100,38688,1,0,3:2:0:0:
420,75,38781,1,0,3:2:0:0:
420,52,38875,1,0,3:2:0:0:
508,224,39061,1,4,3:0:0:0:
312,224,39239,6,0,P|308:176|308:128,1,80,4|0,0:0|0:0,0:0:0:0:
192,72,39612,1,8,0:0:0:0:
236,252,39798,1,0,0:0:0:0:
236,252,39891,1,0,0:0:0:0:
236,252,39985,2,0,P|276:296|332:304,1,80,0|0,0:0|0:0,0:0:0:0:
307,144,40357,1,8,0:0:0:0:
424,292,40544,1,0,0:0:0:0:
424,292,40637,1,0,0:0:0:0:
424,292,40730,6,0,P|424:252|416:192,1,80,0|0,0:0|0:0,0:0:0:0:
376,40,41103,1,8,0:0:0:0:
307,144,41289,2,0,P|351:152|395:132,1,80
212,56,41662,2,0,P|212:96|220:156,1,80,0|8,0:0|0:0,0:0:0:0:
144,216,42034,1,0,0:0:0:0:
212,56,42221,6,0,P|172:44|116:68,1,80,0|0,0:0|0:0,0:0:0:0:
56,184,42593,1,8,0:0:0:0:
44,40,42780,1,0,0:0:0:0:
144,216,42966,2,0,P|120:256|88:272,2,80,0|0|8,0:0|0:0|0:0,0:0:0:0:
216,135,43525,1,0,0:0:0:0:
360,248,43711,6,0,P|368:208|356:168,1,80,0|0,0:0|0:0,0:0:0:0:
320,28,44084,2,0,P|312:68|324:108,1,80,8|0,0:0|0:0,0:0:0:0:
476,104,44457,2,0,P|436:96|396:108,1,80,0|0,0:0|0:0,0:0:0:0:
204,176,44829,2,0,P|244:184|284:172,1,80,8|0,0:0|0:0,0:0:0:0:
144,68,45202,6,0,P|99:98|88:212,1,160,4|8,0:0|0:0,0:0:0:0:
219,303,45761,2,0,P|263:272|275:159,1,160,0|0,0:0|0:0,0:0:0:0:
81,196,46320,1,8,0:0:0:0:
240,76,46506,1,0,0:0:0:0:
240,76,46600,1,0,0:0:0:0:
240,76,46693,6,0,P|320:52|400:84,1,160,0|8,0:0|0:0,0:0:0:0:
357,236,47252,2,0,P|277:260|197:228,1,160,0|0,0:0|0:0,0:0:0:0:
88,164,47811,1,8,0:0:0:0:
200,20,47997,1,0,0:0:0:0:
200,20,48090,1,0,0:0:0:0:
200,20,48183,6,0,P|208:80|200:120,1,80,4|0,0:0|0:0,0:0:0:0:
208,236,48556,1,8,0:0:0:0:
205,98,48742,1,0,0:0:0:0:
205,98,48836,1,0,0:0:0:0:
205,98,48929,1,0,0:0:0:0:
320,172,49115,1,0,0:0:0:0:
320,32,49301,1,8,0:0:0:0:
440,104,49488,1,0,0:0:0:0:
205,98,49674,5,0,0:0:0:0:
320,272,49860,1,8,0:0:0:0:
320,32,50047,1,8,0:0:0:0:
204,224,50233,1,0,0:0:0:0:
204,224,50326,1,0,0:0:0:0:
204,224,50419,1,0,0:0:0:0:
320,32,50606,1,8,0:0:0:0:
320,32,50699,1,8,0:0:0:0:
320,32,50792,1,8,0:0:0:0:
436,224,50978,1,0,0:0:0:0:
436,224,51071,1,0,0:0:0:0:
436,224,51165,6,0,P|438:253|436:292,1,64,4|0,0:0|0:0,0:0:0:0:
336,120,51537,2,0,P|333:90|336:51,1,64,8|0,0:3|0:0,0:0:0:0:
436,144,51910,1,0,0:0:0:0:
340,220,52096,1,2,0:0:0:0:
236,144,52283,2,0,P|216:120|208:88,1,64,8|0,0:3|0:0,0:0:0:0:
84,36,52655,6,0,P|88:100|80:172,1,128,2|8,0:0|0:3,0:0:0:0:
24,272,53214,2,0,P|88:272|100:270,1,64,0|0,0:0|0:0,0:0:0:0:
172,176,53587,1,0,0:0:0:0:
196,340,53773,1,8,0:3:0:0:
196,340,53960,1,0,0:0:0:0:
256,164,54146,6,0,P|218:106|156:93,1,128,2|8,0:0|0:3,0:0:0:0:
20,132,54705,1,0,0:0:0:0:
172,176,54891,1,0,0:0:0:0:
32,248,55078,1,2,0:0:0:0:
32,248,55264,2,0,B|40:320,1,64,8|0,0:3|0:0,0:0:0:0:
100,164,55637,6,0,B|92:92,1,64,2|0,0:0|0:0,0:0:0:0:
180,232,56009,2,0,L|188:304,1,64,8|0,0:3|0:0,0:0:0:0:
272,144,56382,1,0,3:0:0:0:
284,268,56568,1,8,0:0:0:0:
284,268,56662,1,8,0:0:0:0:
284,268,56755,1,8,0:3:0:0:
184,148,56941,1,0,0:0:0:0:
360,100,57127,6,0,P|360:164|364:204,1,80,4|0,0:0|0:0,0:0:0:0:
464,296,57500,2,0,P|463:231|459:192,1,80,8|0,0:3|0:0,0:0:0:0:
288,184,57873,1,0,0:0:0:0:
448,64,58059,1,0,0:0:0:0:
448,64,58152,1,0,0:0:0:0:
448,64,58245,2,0,P|423:31|382:5,1,80,8|0,0:3|0:0,0:0:0:0:
361,179,58618,6,0,L|369:275,1,80,0|0,0:0|0:0,0:0:0:0:
256,112,58991,2,0,L|256:32,1,80,8|0,0:3|0:0,0:0:0:0:
151,179,59363,2,0,L|143:275,1,80,0|0,0:0|0:0,0:0:0:0:
144,258,59643,1,0,0:0:0:0:
144,258,59736,1,8,0:3:0:0:
256,344,59922,1,0,0:0:0:0:
216,120,60109,6,0,P|180:96|140:92,1,80,4|0,0:0|0:0,0:0:0:0:
320,140,60481,2,0,P|323:101|308:64,1,80,8|0,0:3|0:0,0:0:0:0:
308,64,60761,1,0,0:0:0:0:
308,64,60854,1,0,0:0:0:0:
152,180,61041,1,0,0:3:0:0:
356,240,61227,2,0,P|391:223|416:192,1,80,8|0,0:3|0:0,0:0:0:0:
308,64,61600,5,4,0:0:0:0:
356,240,61786,1,0,0:0:0:0:
504,120,61972,1,8,0:3:0:0:
256,156,62159,1,0,0:0:0:0:
408,36,62345,1,0,3:2:0:0:
356,240,62531,1,0,3:2:0:0:
308,64,62718,1,8,3:2:0:0:
504,120,62904,1,0,3:2:0:0:
256,156,63090,5,2,0:0:0:0:
224,140,63183,1,2,0:0:0:0:
204,108,63277,2,0,P|184:116|168:136,1,40,2|2,0:0|0:0,0:0:0:0:
152,332,63463,2,0,P|172:324|188:304,1,40,8|0,0:0|0:0,0:0:0:0:
368,296,63649,1,2,0:0:0:0:
328,303,63742,1,2,0:0:0:0:
292,296,63835,1,2,0:0:0:0:
264,272,63928,1,2,0:0:0:0:
244,241,64021,1,2,0:0:0:0:
211,224,64114,1,2,0:0:0:0:
174,224,64208,1,8,0:0:0:0:
336,204,64395,1,0,0:0:0:0:
136,152,64581,6,0,P|108:176|96:232,1,80,6|0,0:0|0:0,0:0:0:0:
264,272,64954,1,8,0:0:0:0:
204,108,65140,1,2,0:0:0:0:
204,108,65233,1,0,0:0:0:0:
204,108,65326,2,0,P|172:80|124:76,1,80,0|2,0:0|0:0,0:0:0:0:
94,216,65699,1,8,0:0:0:0:
48,64,65885,1,0,0:0:0:0:
240,176,66072,6,0,P|268:152|280:96,1,80,0|0,0:0|0:0,0:0:0:0:
200,24,66444,1,8,0:0:0:0:
176,220,66631,2,0,P|208:248|256:252,1,80,2|0,0:0|0:0,0:0:0:0:
344,72,67003,2,0,P|312:43|264:39,1,80,2|8,0:0|0:0,0:0:0:0:
132,60,67376,1,0,0:0:0:0:
201,209,67562,6,0,P|193:257|177:297,1,80,0|0,0:0|0:0,0:0:0:0:
56,192,67935,1,8,0:0:0:0:
283,189,68121,2,0,P|297:139|299:89,1,80,2|0,0:0|0:0,0:0:0:0:
200,24,68493,1,2,0:0:0:0:
102,112,68680,1,8,0:0:0:0:
201,209,68867,1,0,0:0:0:0:
300,112,69053,6,0,P|300:72|292:24,1,80,2|0,0:0|0:0,0:0:0:0:
344,244,69426,2,0,P|344:284|352:332,1,80,2|0,0:0|0:0,0:0:0:0:
444,148,69798,2,0,P|443:108|435:60,1,80,2|0,0:0|0:0,0:0:0:0:
201,209,70171,2,0,P|201:249|209:297,1,80,2|0,0:0|0:0,0:0:0:0:
206,288,70450,1,0,0:0:0:0:
206,288,70544,6,0,P|245:281|301:293,1,80,4|0,0:0|0:0,0:0:0:0:
424,336,70916,1,8,0:0:0:0:
353,217,71103,1,2,0:0:0:0:
353,217,71196,1,0,0:0:0:0:
353,217,71289,2,0,P|348:177|349:138,1,80,0|2,0:0|0:0,0:0:0:0:
424,336,71662,1,8,0:0:0:0:
264,340,71848,1,0,0:0:0:0:
264,340,71941,1,0,0:0:0:0:
264,340,72034,6,0,P|220:348|176:336,1,80,0|0,0:0|0:0,0:0:0:0:
96,216,72407,1,8,0:0:0:0:
248,184,72593,1,2,0:0:0:0:
248,184,72686,1,0,0:0:0:0:
248,184,72780,2,0,P|240:228|220:276,1,80,0|2,0:0|0:0,0:0:0:0:
176,104,73152,1,8,0:0:0:0:
308,260,73339,1,0,0:0:0:0:
368,76,73525,6,0,P|352:36|312:8,1,80,2|0,0:0|0:0,0:0:0:0:
248,184,73898,1,8,0:0:0:0:
444,156,74084,1,0,0:0:0:0:
444,156,74177,1,0,0:0:0:0:
444,156,74270,1,0,0:0:0:0:
292,84,74457,1,0,0:0:0:0:
308,260,74643,1,10,0:0:0:0:
120,148,74829,1,4,0:0:0:0:
120,148,75202,5,0,0:0:0:0:
120,148,75295,1,0,0:0:0:0:
120,148,75388,2,0,L|104:192,1,40,8|0,0:0|0:0,0:0:0:0:
168,244,75575,2,0,L|181:206,1,40,8|0,0:0|0:0,0:0:0:0:
268,200,75761,2,0,L|252:244,1,40,8|0,0:0|0:0,0:0:0:0:
320,292,75947,2,0,L|333:254,1,40,8|0,0:0|0:0,0:0:0:0:
420,252,76134,2,0,L|404:296,1,40,8|0,0:0|0:0,0:0:0:0:
472,344,76320,2,0,L|485:306,1,40,8|0,0:0|0:0,0:0:0:0:
460,176,76506,6,0,P|412:164|364:188,1,80,4|0,0:0|0:0,0:0:0:0:
320,292,76879,1,8,0:0:0:0:
316,128,77065,2,0,P|312:68|316:20,1,80,2|0,0:0|0:0,0:0:0:0:
460,176,77438,2,0,P|464:235|460:283,1,80,2|8,0:0|0:0,0:0:0:0:
288,200,77811,1,0,0:0:0:0:
463,255,77997,5,0,0:0:0:0:
288,200,78183,1,0,0:0:0:0:
200,304,78370,1,8,0:0:0:0:
152,176,78556,2,0,P|148:140|167:97,1,80,2|0,0:0|0:0,0:0:0:0:
320,292,78929,2,0,P|323:327|304:370,1,80,2|8,0:0|0:0,0:0:0:0:
120,248,79301,1,0,0:0:0:0:
288,216,79488,6,0,P|352:216|380:236,1,80,0|0,0:0|0:0,0:0:0:0:
305,367,79860,1,8,0:0:0:0:
200,232,80047,1,2,0:0:0:0:
200,232,80140,1,0,0:0:0:0:
200,232,80233,2,0,P|200:188|228:148,1,80,0|2,0:0|0:0,0:0:0:0:
380,152,80606,1,8,0:0:0:0:
320,292,80792,1,0,0:0:0:0:
166,307,80978,6,0,P|135:283|119:247,1,80,2|0,0:0|0:0,0:0:0:0:
320,292,81351,2,0,P|351:316|367:352,1,80,2|0,0:0|0:0,0:0:0:0:
200,232,81724,2,0,L|196:152,1,80,2|0,0:0|0:0,0:0:0:0:
250,342,82096,1,2,0:0:0:0:
383,244,82283,1,0,0:0:0:0:
383,244,82376,1,0,0:0:0:0:
383,244,82469,6,0,P|343:280|319:292,1,80,4|0,0:0|0:0,0:0:0:0:
246,129,82842,1,8,0:0:0:0:
408,140,83028,2,0,P|459:169|485:275,1,160,4|0,0:0|0:0,0:0:0:0:
384,356,83587,1,8,0:0:0:0:
304,172,83773,1,0,0:0:0:0:
304,172,83867,1,0,0:0:0:0:
304,172,83960,5,4,0:0:0:0:
211,220,84146,2,0,L|204:259,1,40,8|0,3:0|0:0,0:0:0:0:
120,172,84332,2,0,L|127:133,1,40,8|0,3:0|0:0,0:0:0:0:
116,268,84519,2,0,P|140:324|172:340,1,80,4|0,0:0|0:0,0:0:0:0:
211,220,84891,1,0,0:0:0:0:
127,132,85078,1,0,3:0:0:0:
304,172,85264,1,0,3:0:0:0:
304,172,85357,1,0,3:0:0:0:
304,172,85450,6,0,P|304:216|308:256,1,80,4|0,0:0|0:0,0:0:0:0:
420,248,85730,1,0,0:0:0:0:
420,248,85823,2,0,P|420:204|416:164,1,80,4|0,0:0|0:0,0:0:0:0:
288,88,86196,2,0,P|248:104|224:140,1,80,4|0,0:0|0:0,0:0:0:0:
368,72,86568,2,0,P|352:32|316:8,1,80,4|0,0:0|0:0,0:0:0:0:
303,171,86941,6,0,P|320:184|340:192,1,40,0|0,3:0|0:0,0:0:0:0:
416,168,87127,1,0,0:0:0:0:
226,132,87314,1,4,0:0:0:0:
276,316,87500,1,0,0:0:0:0:
476,236,87686,1,0,3:2:0:0:
444,251,87779,1,0,3:2:0:0:
410,255,87872,1,0,3:2:0:0:
375,249,87965,1,0,0:0:0:0:
343,235,88058,1,8,3:0:0:0:
311,223,88151,1,8,3:0:0:0:
276,217,88245,1,8,3:0:0:0:
241,221,88338,1,8,3:0:0:0:
209,234,88432,6,0,P|168:244|116:232,1,80,2|0,0:0|0:0,0:0:0:0:
164,76,88804,1,0,0:0:0:0:
272,158,88991,2,0,P|300:182|310:229,1,80,4|2,0:0|0:0,0:0:0:0:
131,238,89363,1,0,0:0:0:0:
164,76,89550,2,0,P|186:46|237:28,1,80,6|0,0:0|0:0,0:0:0:0:
60,124,89922,5,6,0:0:0:0:
272,158,90109,1,0,0:0:0:0:
104,256,90295,1,4,0:0:0:0:
164,76,90481,1,12,0:0:0:0:
174,112,90574,1,8,0:0:0:0:
163,152,90668,1,8,0:0:0:0:
131,238,90854,1,0,3:0:0:0:
169,228,90947,1,0,3:0:0:0:
208,236,91040,1,0,3:0:0:0:
241,258,91133,1,0,0:0:0:0:
275,279,91226,1,0,0:0:0:0:
314,286,91319,1,0,0:0:0:0:
352,280,91413,6,0,P|396:260|424:212,1,96,2|0,0:0|0:0,0:0:0:0:
409,129,91786,6,0,P|443:148|502:146,1,80,4|0,0:0|0:0,0:0:0:0:
483,150,92065,1,0,0:0:0:0:
483,150,92159,1,0,0:0:0:0:
416,32,92345,1,0,0:0:0:0:
280,48,92531,1,8,0:0:0:0:
255,183,92718,6,0,P|304:189|339:179,2,80,0|0|0,0:0|0:0|0:0,0:0:0:0:
164,100,93277,1,8,0:0:0:0:
280,48,93463,1,0,0:0:0:0:
363,144,93648,1,0,0:0:0:0:
297,254,93836,1,0,0:0:0:0:
175,224,94022,2,0,P|132:216|88:224,1,80,8|0,0:0|0:0,0:0:0:0:
297,254,94395,6,0,P|297:294|290:334,1,80,0|0,0:0|0:0,0:0:0:0:
167,303,94767,2,0,P|167:263|175:224,1,80,8|0,0:0|0:0,0:0:0:0:
356,168,95140,1,0,0:0:0:0:
200,128,95326,1,0,0:0:0:0:
324,60,95513,1,8,0:0:0:0:
296,253,95699,6,0,P|357:268|448:220,1,160,4|0,0:0|0:0,0:0:0:0:
472,100,96258,1,8,0:0:0:0:
324,60,96444,2,0,P|316:98|327:137,1,80,4|0,0:0|0:0,0:0:0:0:
327,137,96724,1,0,0:0:0:0:
327,137,96817,1,0,0:0:0:0:
441,228,97003,1,8,0:0:0:0:
410,253,97096,1,0,0:0:0:0:
373,266,97189,1,0,0:0:0:0:
333,266,97282,1,0,0:0:0:0:
296,253,97376,6,0,P|252:244|212:248,1,80,4|0,0:0|0:0,0:0:0:0:
120,320,97749,1,8,0:0:0:0:
45,218,97935,2,0,P|37:179|40:140,1,80,4|0,0:0|0:0,0:0:0:0:
176,80,98308,1,0,0:0:0:0:
176,80,98494,1,8,0:0:0:0:
296,253,98680,6,0,P|357:268|448:220,1,160,4|0,0:0|0:0,0:0:0:0:
360,80,99239,1,8,0:0:0:0:
228,204,99426,2,0,P|212:264|228:300,1,80,4|0,0:0|0:0,0:0:0:0:
336,360,99798,1,0,0:0:0:0:
441,227,99985,1,8,0:0:0:0:
440,188,100078,1,0,0:0:0:0:
440,148,100171,1,0,0:0:0:0:
440,108,100264,1,0,0:0:0:0:
440,68,100357,6,0,P|400:60|356:68,1,80,4|0,0:0|0:0,0:0:0:0:
280,188,100730,2,0,P|320:196|364:187,1,80,8|8,0:0|0:0,0:0:0:0:
358,189,101009,1,8,0:0:0:0:
358,189,101102,1,8,0:0:0:0:
508,128,101289,1,0,0:0:0:0:
441,227,101475,1,8,0:0:0:0:
480,364,101662,54,0,P|256:348|33:364,1,448,4|2,0:0|0:0,0:0:0:0:
224,240,103338,6,0,B|228:232|216:188|216:188|204:236|140:252|140:252|120:208|152:196|172:160|172:160|124:172|92:172|92:172|116:132|172:136|172:136|128:116|104:104|104:104|140:92|176:108|176:108|156:84|144:64|144:64|177:67|196:80|196:80|192:60|192:40|192:40|212:44|224:56|224:56|224:44|232:28|232:28|248:36|256:52|256:52|264:36|280:28|280:28|288:40|288:56|288:56|300:44|320:40|320:40|320:60|316:80|316:80|336:68|368:64|368:64|356:84|336:108|336:108|372:92|408:104|408:104|384:116|340:136|340:136|396:132|420:172|420:172|388:172|340:160|340:160|360:196|392:208|372:252|372:252|308:236|296:188|296:188|268:276|296:360|296:360|256:348|216:360|216:360|232:324|224:284,1,1936.00005908203,2|0,0:0|0:0,0:0:0:0:
