osu file format v14

[General]
AudioFilename: audio.mp3
AudioLeadIn: 0
PreviewTime: 64395
Countdown: 0
SampleSet: Soft
StackLeniency: 0.7
Mode: 0
LetterboxInBreaks: 0
WidescreenStoryboard: 0

[Editor]
Bookmarks: 15388,27314,39239,51165,63090,63183,63277,63370,63463,63556,63649,63742,63836,63929,64022,64115,64208,64301,64395,64488,64581,66072,76506,88432,97376
DistanceSpacing: 1.4
BeatDivisor: 2
GridSize: 32
TimelineZoom: 2.2

[Metadata]
Title:landscape
TitleUnicode:landscape
Artist:yanaginagi
ArtistUnicode:やなぎなぎ
Creator:Hokichi
Version:normal
Source:
Tags:hoki shortthu betastar sidetail boss bossandy short ver polyomino shinya saito
BeatmapID:1580542
BeatmapSetID:750583

[Difficulty]
HPDrainRate:4
CircleSize:3.4
OverallDifficulty:3
ApproachRate:5.2
SliderMultiplier:1.1
SliderTickRate:1

[Events]
//Background and Video events
0,0,"bg.jpg",0,0
//Break Periods
//Storyboard Layer 0 (Background)
//Storyboard Layer 1 (Fail)
//Storyboard Layer 2 (Pass)
//Storyboard Layer 3 (Foreground)
//Storyboard Sound Samples

[TimingPoints]
482,372.670807453416,4,2,2,20,1,0
482,-100,4,2,2,20,0,0
854,-100,4,2,1,20,0,0
10171,-100,4,2,2,5,0,0
10544,-100,4,2,2,7,0,0
10916,-100,4,2,2,10,0,0
11289,-100,4,2,2,13,0,0
11662,-100,4,2,2,15,0,0
12034,-100,4,2,2,18,0,0
12407,-100,4,2,2,20,0,0
13152,-100,4,2,2,23,0,0
14457,-100,4,2,2,23,0,0
14550,-100,4,2,1,5,0,0
14643,-100,4,2,1,20,0,0
15388,-100,4,2,1,40,0,0
25637,-100,4,2,1,40,0,0
26196,-100,4,2,1,5,0,0
26382,-100,4,2,1,15,0,0
26568,-100,4,2,1,20,0,0
26755,-100,4,2,1,25,0,0
26941,-100,4,2,1,30,0,0
27127,-100,4,2,1,35,0,0
27322,372.670807453416,4,2,2,40,1,0
27322,-100,4,2,2,40,0,0
39239,372.670807453416,4,2,1,40,1,0
51165,-100,4,2,1,40,0,0
53401,-100,4,2,2,40,0,0
53587,-100,4,2,1,40,0,0
55637,-100,4,2,2,40,0,0
55823,-100,4,2,1,40,0,0
57127,-100,4,2,1,40,0,0
63090,-100,4,2,1,40,0,0
64580,-100,4,2,1,40,0,1
69053,-100,4,2,2,40,0,1
70544,-100,4,2,1,40,0,1
74829,-100,4,2,1,40,0,0
76506,-100,4,2,1,40,0,1
80978,-100,4,2,2,40,0,1
82469,-100,4,2,1,40,0,1
86940,-100,4,2,1,40,0,0
88431,-100,4,2,2,40,0,1
90854,-100,4,2,1,40,0,1
91412,-100,4,2,1,40,0,0
91693,-100,4,2,1,5,0,0
91786,-100,4,2,1,40,0,0
103339,-100,4,2,2,60,0,0
110792,-100,4,2,1,5,0,0

[Colours]
Combo1 : 166,137,123
Combo2 : 2,215,130
Combo3 : 74,177,253
Combo4 : 164,255,62
Combo5 : 255,255,102
SliderBorder : 255,255,255
SliderTrackOverride : 0,34,15

[HitObjects]
176,142,482,6,0,P|144:78|59:74,2,165,2|2|0,0:0|0:0|0:0,0:0:0:0:
192,288,1972,2,0,L|313:283,1,110,2|0,0:0|0:0,0:0:0:0:
384,160,2718,2,0,L|272:150,1,110,2|0,0:0|0:0,0:0:0:0:
163,52,3463,6,0,P|118:133|141:204,2,165,2|2|0,0:0|0:0|0:0,0:0:0:0:
315,31,4954,1,0,0:0:0:0:
424,138,5326,2,0,P|429:192|415:250,2,110,0|0|0,0:0|0:0|0:0,0:0:0:0:
273,171,6444,6,0,L|104:178,2,165,2|2|2,0:0|0:0|0:0,0:0:0:0:
413,235,7935,2,0,P|421:295|401:348,1,110,2|0,0:0|0:0,0:0:0:0:
251,331,8680,2,0,P|234:278|243:225,1,110,2|0,0:0|0:0,0:0:0:0:
355,119,9426,5,2,0:0:0:0:
355,119,10171,2,0,L|244:121,1,110,2|2,0:0|0:0,0:0:0:0:
123,215,10916,2,0,L|232:213,1,110,2|2,0:0|0:0,0:0:0:0:
365,292,11662,1,2,0:0:0:0:
365,138,12034,1,2,0:0:0:0:
235,53,12407,6,0,P|154:38|118:49,2,110,2|2|2,0:0|0:0|0:0,0:0:0:0:
256,192,13339,12,0,14643,3:0:0:0:
129,254,15388,6,0,P|101:213|118:139,2,110,4|8|0,0:0|0:0|0:0,0:0:0:0:
175,192,16320,2,0,P|218:186|236:188,1,55,0|8,0:0|0:0,0:0:0:0:
261,257,16693,2,0,L|269:77,1,165,0|8,0:0|0:0,0:0:0:0:
419,120,17624,2,0,L|413:241,1,110,0|8,0:0|0:0,0:0:0:0:
261,257,18370,6,0,P|213:223|152:205,2,110,0|8|0,0:0|0:0|0:0,0:0:0:0:
297,324,19301,2,0,P|334:322|362:324,1,55,0|8,0:0|0:0,0:0:0:0:
429,326,19674,2,0,L|422:152,1,165,4|8,0:0|0:0,0:0:0:0:
393,91,20419,2,0,P|359:85|279:108,1,110,4|0,0:0|0:0,0:0:0:0:
242,166,20978,1,8,3:2:0:0:
98,110,21351,6,0,P|87:62|93:44,2,55,4|0|8,0:0|0:0|0:0,0:0:0:0:
154,162,21910,2,0,L|141:296,1,110,4|0,0:0|0:0,0:0:0:0:
296,254,22655,2,0,L|286:89,1,165,4|8,0:0|0:0,0:0:0:0:
296,12,23401,2,0,P|235:29|208:85,1,110,0|0,0:0|0:0,0:0:0:0:
196,142,23960,1,8,0:0:0:0:
296,254,24332,6,0,P|356:229|406:234,2,110,4|8|8,0:0|0:0|0:0,0:0:0:0:
222,228,25264,2,0,P|200:193|198:166,1,55,0|0,0:0|3:0,0:0:0:0:
217,105,25637,2,0,P|257:69|274:171,1,220,4|2,0:0|0:0,0:0:0:0:
96,288,27322,5,2,0:0:0:0:
217,193,27694,2,0,P|230:138|214:73,2,110,8|0|8,0:0|0:0|0:0,0:0:0:0:
74,135,28812,1,0,0:0:0:0:
177,21,29185,2,0,P|242:12|290:57,1,110,8|0,0:0|0:0,0:0:0:0:
279,189,29930,1,8,0:0:0:0:
153,278,30303,6,0,L|145:164,1,110,0|8,0:0|0:0,0:0:0:0:
261,66,31049,2,0,L|253:175,1,110,0|8,0:0|0:0,0:0:0:0:
281,327,31794,2,0,P|327:295|390:295,1,110,0|8,0:0|0:0,0:0:0:0:
491,185,32539,2,0,P|499:143|480:62,1,110,0|8,0:0|0:0,0:0:0:0:
338,119,33285,5,0,0:0:0:0:
198,54,33657,2,0,P|186:109|200:177,2,110,8|0|8,0:0|0:0|0:0,0:0:0:0:
338,119,34775,2,0,P|391:110|451:112,1,110,0|8,0:0|0:0,0:0:0:0:
341,224,35521,2,0,P|288:233|228:231,1,110,0|8,0:0|0:0,0:0:0:0:
118,126,36266,5,0,0:0:0:0:
167,271,36639,1,8,0:0:0:0:
235,132,37011,2,0,P|289:130|344:139,1,110,0|8,0:0|0:0,0:0:0:0:
206,209,37757,2,0,P|157:159|215:52,1,165,0|0,0:0|0:0,0:0:0:0:
253,64,38502,2,0,L|254:-4,2,55,0|0|0,3:2|3:2|3:2,0:0:0:0:
299,211,39239,6,0,P|357:222|407:199,1,110,4|8,0:0|0:0,0:0:0:0:
458,149,39798,1,0,0:0:0:0:
328,64,40171,2,0,L|389:60,2,55,0|8|0,0:0|0:0|0:0,0:0:0:0:
253,44,40730,2,0,P|209:36|132:43,1,110,0|8,0:0|0:0,0:0:0:0:
90,95,41289,1,0,0:0:0:0:
239,139,41662,1,0,0:0:0:0:
239,139,41848,2,0,L|299:132,1,55,8|0,0:0|0:0,0:0:0:0:
369,144,42221,6,0,P|391:211|365:256,1,110,0|8,0:0|0:0,0:0:0:0:
307,276,42780,1,0,0:0:0:0:
307,276,42966,2,0,L|194:275,1,110,0|8,0:0|0:0,0:0:0:0:
268,138,43711,2,0,P|322:130|385:140,2,110,2|8|0,0:0|0:0|0:0,0:0:0:0:
124,193,44829,2,0,L|113:127,1,55,8|0,0:0|0:0,0:0:0:0:
117,61,45202,6,0,P|167:38|228:48,1,110,4|8,0:0|0:0,0:0:0:0:
271,101,45761,1,0,0:0:0:0:
202,242,46134,2,0,L|207:307,1,55,0|8,0:0|0:0,0:0:0:0:
353,250,46693,2,0,L|363:118,1,110,0|8,0:0|0:0,0:0:0:0:
338,66,47252,1,0,0:0:0:0:
221,166,47624,2,0,P|186:168|149:165,1,55,0|8,0:0|0:0,0:0:0:0:
32,89,48183,6,0,L|25:215,1,110,4|8,0:0|0:0,0:0:0:0:
46,273,48742,1,0,0:0:0:0:
179,196,49115,2,0,P|179:165|174:134,2,55,0|8|0,0:0|0:0|0:0,0:0:0:0:
169,272,49674,2,0,L|303:269,1,110,0|8,0:0|0:0,0:0:0:0:
394,167,50419,2,0,L|284:169,1,110,0|8,0:0|0:0,0:0:0:0:
150,91,51165,6,0,P|89:75|45:88,2,110,4|8|0,0:0|0:3|0:0,0:0:0:0:
209,233,52283,1,8,0:3:0:0:
287,100,52655,2,0,P|348:84|392:97,2,110,2|8|0,0:0|0:3|0:0,0:0:0:0:
209,233,53773,1,8,0:3:0:0:
209,233,53960,1,0,0:0:0:0:
209,233,54146,6,0,L|210:347,2,110,2|8|0,0:0|0:3|0:0,0:0:0:0:
146,92,55264,1,8,0:3:0:0:
297,62,55637,1,2,0:0:0:0:
424,147,56009,2,0,P|433:202|414:268,2,110,8|0|8,0:3|3:0|0:3,0:0:0:0:
297,62,57127,6,0,P|257:73|172:55,1,110,4|0,0:0|0:0,0:0:0:0:
57,143,57873,2,0,P|97:132|182:150,1,110,0|0,0:0|0:3,0:0:0:0:
296,220,58618,2,0,L|300:335,1,110,0|8,0:0|0:3,0:0:0:0:
405,217,59364,2,0,L|409:102,1,110,0|0,0:0|0:0,0:0:0:0:
276,27,60109,5,4,0:0:0:0:
149,114,60481,2,0,P|105:92|37:99,2,110,8|0|0,0:3|0:0|0:0,0:0:0:0:
254,226,61600,1,4,0:0:0:0:
256,192,61786,12,0,63090,0:0:0:0:
274,92,64581,6,0,P|241:75|168:84,1,110,6|8,0:0|0:0,0:0:0:0:
113,135,65140,1,2,0:0:0:0:
113,135,65326,2,0,L|101:257,1,110,0|8,0:0|0:0,0:0:0:0:
233,325,66072,2,0,P|295:347|349:331,1,110,0|8,0:0|0:0,0:0:0:0:
403,299,66631,1,2,0:0:0:0:
403,299,66817,2,0,L|413:189,1,110,0|8,0:0|0:0,0:0:0:0:
305,78,67562,6,0,L|182:71,1,110,0|8,0:0|0:0,0:0:0:0:
129,113,68121,2,0,P|103:163|115:231,1,110,2|2,0:0|0:0,0:0:0:0:
139,285,68680,1,8,0:0:0:0:
286,328,69053,2,0,L|399:315,1,110,2|2,0:0|0:0,0:0:0:0:
329,175,69798,2,0,L|216:162,1,110,2|2,0:0|0:0,0:0:0:0:
103,61,70544,6,0,L|93:179,1,110,4|8,0:0|0:0,0:0:0:0:
33,219,71103,1,2,0:0:0:0:
33,219,71289,2,0,P|85:249|147:229,1,110,0|8,0:0|0:0,0:0:0:0:
276,187,72034,2,0,L|392:151,1,110,0|8,0:0|0:0,0:0:0:0:
430,94,72593,1,2,0:0:0:0:
430,94,72780,2,0,P|452:122|448:199,1,110,0|8,0:0|0:0,0:0:0:0:
330,289,73525,6,0,P|272:279|219:305,1,110,2|8,0:0|0:0,0:0:0:0:
85,361,74270,2,0,P|55:365|26:357,2,55,0|0|10,0:0|0:0|0:0,0:0:0:0:
64,286,74829,2,0,P|98:234|161:214,1,110,4|0,0:0|0:0,0:0:0:0:
214,200,75388,2,0,P|267:182|308:124,2,110,8|8|8,0:0|0:0|0:0,0:0:0:0:
108,87,76506,6,0,L|236:69,1,110,4|8,0:0|0:0,0:0:0:0:
293,64,77065,1,2,0:0:0:0:
293,64,77252,2,0,P|364:92|383:137,1,110,0|8,0:0|0:0,0:0:0:0:
379,272,77997,2,0,L|270:287,1,110,0|8,0:0|0:0,0:0:0:0:
193,300,78556,1,2,0:0:0:0:
193,300,78742,2,0,P|131:283|101:243,1,110,0|8,0:0|0:0,0:0:0:0:
166,107,79488,6,0,L|282:99,1,110,0|8,0:0|0:0,0:0:0:0:
346,130,80047,2,0,P|375:160|377:238,1,110,2|2,0:0|0:0,0:0:0:0:
363,300,80606,1,8,0:0:0:0:
221,240,80978,2,0,P|168:226|116:242,1,110,2|2,0:0|0:0,0:0:0:0:
30,113,81724,2,0,P|83:127|135:111,1,110,2|2,0:0|0:0,0:0:0:0:
274,47,82469,6,0,L|286:166,1,110,4|8,0:0|0:0,0:0:0:0:
357,129,83028,2,0,P|443:130|498:184,1,165,4|8,0:0|0:0,0:0:0:0:
422,317,83960,2,0,P|390:323|355:315,2,55,4|8|8,0:0|3:0|3:0,0:0:0:0:
391,246,84519,2,0,P|336:247|297:288,1,110,4|0,0:0|0:0,0:0:0:0:
284,359,85078,1,0,3:0:0:0:
130,359,85450,5,4,0:0:0:0:
120,205,85823,2,0,P|183:206|230:243,2,110,4|4|4,0:0|0:0|0:0,0:0:0:0:
19,321,86941,1,0,3:0:0:0:
19,321,87314,6,0,L|14:88,1,220,4|0,0:0|3:0,0:0:0:0:
151,31,88432,6,0,P|200:46|232:98,1,110,2|0,0:0|0:0,0:0:0:0:
253,167,88991,2,0,P|306:151|367:178,1,110,0|0,0:0|0:0,0:0:0:0:
417,214,89550,1,2,0:0:0:0:
381,363,89922,6,0,L|245:358,1,110,2|2,0:0|0:0,0:0:0:0:
177,235,90668,2,0,P|153:184|167:116,1,110,12|0,0:0|3:0,0:0:0:0:
288,48,91413,1,2,0:0:0:0:
288,48,91786,6,0,L|421:40,1,110,4|0,0:0|0:0,0:0:0:0:
460,86,92345,2,0,P|481:114|488:142,1,55,0|8,0:0|0:0,0:0:0:0:
447,199,92718,2,0,L|264:210,1,165,0|8,0:0|0:0,0:0:0:0:
264,361,93649,2,0,L|397:353,1,110,0|8,0:0|0:0,0:0:0:0:
499,264,94395,6,0,P|530:196|509:146,1,110,0|8,0:0|0:0,0:0:0:0:
397,74,95140,2,0,P|372:65|337:66,2,55,0|0|8,0:0|0:0|0:0,0:0:0:0:
359,141,95699,2,0,L|183:141,1,165,4|8,0:0|0:0,0:0:0:0:
134,92,96444,2,0,P|151:147|126:206,1,110,4|0,0:0|0:0,0:0:0:0:
97,262,97003,1,8,0:0:0:0:
223,349,97376,6,0,L|235:226,1,110,4|8,0:0|0:0,0:0:0:0:
242,163,97935,1,4,0:0:0:0:
348,274,98308,1,0,0:0:0:0:
487,209,98680,6,0,L|499:86,1,110,4|0,0:0|0:0,0:0:0:0:
351,50,99426,2,0,P|303:38|237:58,1,110,4|0,0:0|0:0,0:0:0:0:
189,106,99985,1,8,0:0:0:0:
226,255,100357,6,0,L|350:252,2,110,4|8|8,0:0|0:0|0:0,0:0:0:0:
155,287,101289,2,0,L|100:290,1,55,0|8,0:0|0:0,0:0:0:0:
46,234,101662,2,0,P|107:100|119:208,1,385,4|2,0:0|0:0,0:0:0:0:
48,335,103339,5,2,0:0:0:0:
256,192,103525,12,0,110791,0:0:0:0:
