osu file format v14

[General]
AudioFilename: audio.mp3
AudioLeadIn: 0
PreviewTime: 64395
Countdown: 0
SampleSet: Soft
StackLeniency: 0.7
Mode: 0
LetterboxInBreaks: 0
WidescreenStoryboard: 0

[Editor]
DistanceSpacing: 1.6
BeatDivisor: 4
GridSize: 8
TimelineZoom: 2.1

[Metadata]
Title:landscape
TitleUnicode:landscape
Artist:yanaginagi
ArtistUnicode:やなぎなぎ
Creator:Hokichi
Version:insane
Source:
Tags:hoki shortthu betastar sidetail boss bossandy short ver polyomino shinya saito
BeatmapID:1580541
BeatmapSetID:750583

[Difficulty]
HPDrainRate:6
CircleSize:4
OverallDifficulty:7
ApproachRate:8
SliderMultiplier:1.5
SliderTickRate:1

[Events]
//Background and Video events
0,0,"bg.jpg",0,0
//Break Periods
//Storyboard Layer 0 (Background)
//Storyboard Layer 1 (Fail)
//Storyboard Layer 2 (Pass)
//Storyboard Layer 3 (Foreground)
//Storyboard Sound Samples

[TimingPoints]
482,372.670807453416,4,2,2,20,1,0
482,-166.666666666667,4,2,2,20,0,0
854,-166.666666666667,4,2,1,20,0,0
10171,-166.666666666667,4,2,2,5,0,0
10544,-166.666666666667,4,2,2,7,0,0
10916,-166.666666666667,4,2,2,10,0,0
11289,-166.666666666667,4,2,2,13,0,0
11662,-166.666666666667,4,2,2,15,0,0
12034,-166.666666666667,4,2,2,18,0,0
12407,-166.666666666667,4,2,2,20,0,0
13152,-166.666666666667,4,2,2,23,0,0
14550,-166.666666666667,4,2,1,5,0,0
14643,-166.666666666667,4,2,1,20,0,0
15388,-100,4,2,1,40,0,0
25637,-125,4,2,1,40,0,0
26196,-125,4,2,1,5,0,0
26382,-125,4,2,1,15,0,0
26568,-125,4,2,1,20,0,0
26755,-125,4,2,1,25,0,0
26941,-125,4,2,1,30,0,0
27127,-125,4,2,1,35,0,0
27322,372.670807453416,4,2,2,40,1,0
27322,-142.857142857143,4,2,2,40,0,0
39239,372.670807453416,4,2,1,40,1,0
39239,-111.111111111111,4,2,1,40,0,0
51165,-166.666666666666,4,2,1,40,0,0
53401,-166.666666666666,4,2,2,40,0,0
53587,-166.666666666666,4,2,1,40,0,0
55637,-166.666666666666,4,2,2,40,0,0
55823,-166.666666666666,4,2,1,40,0,0
57127,-142.857142857143,4,2,1,40,0,0
63090,-111.111111111111,4,2,1,40,0,0
64580,-100,4,2,1,40,0,1
69053,-100,4,2,2,40,0,1
70544,-100,4,2,1,40,0,1
74829,-100,4,2,1,40,0,0
76506,-100,4,2,1,40,0,1
80978,-100,4,2,2,40,0,1
82469,-100,4,2,1,40,0,1
86940,-100,4,2,1,40,0,0
88431,-100,4,2,2,40,0,1
90854,-100,4,2,1,40,0,1
91412,-142.857142857143,4,2,1,40,0,0
91693,-142.857142857143,4,2,1,5,0,0
91786,-100,4,2,1,40,0,0
103339,-100,4,2,2,60,0,0
110792,-100,4,2,1,5,0,0

[Colours]
Combo1 : 166,137,123
Combo2 : 2,215,130
Combo3 : 74,177,253
Combo4 : 164,255,62
Combo5 : 255,255,102
SliderBorder : 255,255,255
SliderTrackOverride : 0,34,15

[HitObjects]
154,257,482,6,0,P|134:202|170:131,1,134.999995880127,2|2,0:0|0:0,0:0:0:0:
164,135,1413,1,0,0:0:0:0:
250,124,1600,1,0,0:0:0:0:
220,204,1786,1,0,0:0:0:0:
199,55,1972,2,0,P|310:62|337:122,1,179.999994506836,2|2,0:0|0:0,0:0:0:0:
122,293,3463,6,0,P|120:255|125:234,2,44.999998626709,2|0|0,0:0|0:0|0:0,0:0:0:0:
204,333,4022,2,0,L|311:329,1,89.9999972534181,2|0,0:0|0:0,0:0:0:0:
358,211,4581,1,0,0:0:0:0:
272,242,4767,1,0,0:0:0:0:
400,293,4954,1,0,0:0:0:0:
404,128,5326,2,0,P|459:109|502:117,2,89.9999972534181,0|0|0,0:0|0:0|0:0,0:0:0:0:
132,145,6444,6,0,L|115:82,2,44.999998626709,2|0|0,0:0|0:0|0:0,0:0:0:0:
189,214,7003,2,0,L|179:260,1,44.999998626709,2|0,0:0|0:0,0:0:0:0:
244,330,7376,1,0,0:0:0:0:
310,257,7562,2,0,L|300:213,1,44.999998626709,2|0,0:0|0:0,0:0:0:0:
248,134,7935,2,0,P|253:87|242:42,1,89.9999972534181,2|0,0:0|0:0,0:0:0:0:
64,62,8680,2,0,P|59:109|73:157,1,89.9999972534181,2|0,0:0|0:0,0:0:0:0:
170,249,9426,5,2,0:0:0:0:
170,249,10171,1,2,0:0:0:0:
249,306,10544,1,2,0:0:0:0:
337,262,10916,5,2,0:0:0:0:
219,189,11289,1,2,0:0:0:0:
290,79,11662,1,2,0:0:0:0:
412,127,12034,2,0,P|406:175|397:196,1,67.4999979400635,2|0,0:0|0:0,0:0:0:0:
380,219,12407,5,2,0:0:0:0:
290,79,12780,1,2,0:0:0:0:
256,192,13152,1,2,0:0:0:0:
256,192,13245,12,0,14550,0:0:0:0:
256,192,14643,5,0,3:0:0:0:
192,293,14829,1,8,3:2:0:0:
186,269,14922,1,8,3:2:0:0:
180,246,15015,1,8,3:2:0:0:
346,107,15202,1,8,3:2:0:0:
340,130,15295,1,8,3:2:0:0:
334,155,15388,6,0,L|410:147,1,75,4|0,0:0|0:0,0:0:0:0:
254,253,15761,2,0,L|178:245,1,75,8|0,0:0|0:0,0:0:0:0:
104,191,16041,1,0,0:0:0:0:
104,191,16134,1,0,0:0:0:0:
103,299,16320,1,0,0:0:0:0:
201,165,16506,1,8,0:0:0:0:
269,324,16693,6,0,P|253:278|257:238,1,75,0|0,0:0|0:0,0:0:0:0:
281,153,17065,1,0,0:0:0:0:
418,198,17252,2,0,P|383:209|342:207,1,75,8|0,0:0|0:0,0:0:0:0:
281,153,17531,1,0,0:0:0:0:
281,153,17624,2,0,L|273:74,1,75,0|0,0:0|0:0,0:0:0:0:
173,16,17997,1,8,0:0:0:0:
92,140,18183,1,0,0:0:0:0:
92,140,18277,1,0,0:0:0:0:
92,140,18370,6,0,P|84:187|105:235,1,75,0|0,0:0|0:0,0:0:0:0:
242,184,18742,2,0,P|207:172|162:178,1,75,8|0,0:0|0:0,0:0:0:0:
90,212,19022,1,0,0:0:0:0:
90,212,19115,2,0,L|102:310,1,75,0|0,0:0|0:0,0:0:0:0:
208,334,19488,1,8,0:0:0:0:
242,184,19674,6,0,P|264:105|234:37,1,150,4|0,0:0|0:0,0:0:0:0:
140,8,20233,1,8,0:0:0:0:
23,143,20419,6,0,L|188:104,1,150,4|0,0:0|0:0,0:0:0:0:
202,74,20885,1,0,3:2:0:0:
202,74,20978,1,8,3:2:0:0:
375,103,21165,1,0,0:0:0:0:
189,192,21351,5,4,0:0:0:0:
168,108,21537,1,0,0:0:0:0:
240,44,21724,1,8,0:0:0:0:
75,140,21910,2,0,P|33:149|-8:139,1,75,4|0,0:0|0:0,0:0:0:0:
115,27,22283,5,0,0:0:0:0:
34,69,22469,1,8,0:0:0:0:
181,157,22655,2,0,L|261:155,1,75,4|0,0:0|0:0,0:0:0:0:
322,91,23028,5,0,0:0:0:0:
243,58,23214,1,8,0:0:0:0:
251,228,23401,2,0,P|260:185|251:141,1,75,0|0,0:0|0:0,0:0:0:0:
161,110,23773,1,0,0:0:0:0:
174,195,23960,1,8,0:0:0:0:
322,91,24146,1,0,0:0:0:0:
322,91,24239,1,0,0:0:0:0:
322,91,24332,6,0,L|403:91,1,75,4|0,0:0|0:0,0:0:0:0:
477,146,24705,1,8,0:0:0:0:
356,206,24891,1,8,0:0:0:0:
331,208,24984,1,8,0:0:0:0:
306,211,25077,1,8,0:0:0:0:
247,125,25264,1,0,0:0:0:0:
248,43,25450,1,0,3:0:0:0:
426,49,25637,6,0,P|363:36|230:48,1,180,4|0,0:0|0:0,0:0:0:0:
209,186,26382,1,2,0:0:0:0:
209,186,26755,1,2,0:0:0:0:
206,271,26941,1,2,0:0:0:0:
280,224,27127,1,2,0:0:0:0:
129,213,27322,6,0,L|60:213,1,52.4999983978272,2|0,0:0|0:0,0:0:0:0:
206,271,27694,1,8,0:0:0:0:
280,224,27881,2,0,P|295:178|276:115,1,104.999996795654
205,40,28440,2,0,L|130:35,1,52.4999983978272,8|0,0:0|0:0,0:0:0:0:
72,131,28812,6,0,P|65:156|68:193,1,52.4999983978272,0|0,0:0|0:0,0:0:0:0:
150,254,29185,1,8,0:0:0:0:
225,178,29371,2,0,P|295:160|331:165,1,104.999996795654,0|0,0:0|0:0,0:0:0:0:
377,269,29930,2,0,L|434:268,1,52.4999983978272,8|0,0:0|0:0,0:0:0:0:
494,188,30303,6,0,P|501:128|482:71,1,104.999996795654,0|8,0:0|0:0,0:0:0:0:
404,38,30862,1,0,0:0:0:0:
330,95,31049,2,0,P|303:104|275:101,1,52.4999983978272,0|0,0:0|0:0,0:0:0:0:
214,38,31421,2,0,P|187:29|159:32,1,52.4999983978272,8|0,0:0|0:0,0:0:0:0:
81,93,31794,5,0,0:0:0:0:
77,178,31980,1,0,0:0:0:0:
137,247,32167,1,8,0:0:0:0:
216,257,32353,2,0,P|248:250|280:257,1,52.4999983978272,0|0,0:0|0:0,0:0:0:0:
246,333,32726,1,0,0:0:0:0:
168,321,32912,1,8,0:0:0:0:
216,257,33098,1,0,0:0:0:0:
329,178,33285,6,0,P|353:188|374:203,1,52.4999983978272,0|0,0:0|0:0,0:0:0:0:
411,298,33657,1,8,0:0:0:0:
482,239,33844,2,0,P|490:177|470:131,1,104.999996795654,0|0,0:0|0:0,0:0:0:0:
383,99,34403,2,0,L|321:94,1,52.4999983978272,8|0,0:0|0:0,0:0:0:0:
337,196,34775,6,0,L|399:191,1,52.4999983978272,0|0,0:0|0:0,0:0:0:0:
475,138,35148,1,8,0:0:0:0:
413,54,35334,2,0,P|382:43|309:53,1,104.999996795654,0|0,0:0|0:0,0:0:0:0:
217,119,35893,2,0,L|164:119,1,52.4999983978272,8|0,0:0|0:0,0:0:0:0:
70,180,36266,6,0,P|51:136|55:107,1,52.4999983978272,0|0,0:0|0:0,0:0:0:0:
160,38,36639,1,8,0:0:0:0:
312,92,36825,2,0,P|276:119|206:114,1,104.999996795654,0|0,0:0|0:0,0:0:0:0:
77,50,37384,2,0,L|138:53,1,52.4999983978272,8|0,0:0|0:0,0:0:0:0:
250,47,37757,5,0,0:0:0:0:
250,47,38502,1,0,3:2:0:0:
250,66,38595,1,0,3:2:0:0:
251,86,38688,1,0,3:2:0:0:
252,105,38781,1,0,3:2:0:0:
253,125,38874,1,0,3:2:0:0:
253,255,39061,1,0,0:0:0:0:
135,58,39239,6,0,P|88:56|59:66,1,67.4999979400635,4|0,0:0|0:0,0:0:0:0:
9,175,39612,1,8,0:0:0:0:
109,271,39798,1,0,0:0:0:0:
109,271,39891,1,0,0:0:0:0:
109,271,39985,1,0,0:0:0:0:
130,148,40171,2,0,P|169:137|213:135,1,67.4999979400635,0|8,0:0|0:0,0:0:0:0:
331,151,40544,1,0,0:0:0:0:
406,99,40730,6,0,P|344:62|279:77,1,134.999995880127,0|8,0:0|0:0,0:0:0:0:
310,213,41289,2,0,P|330:176|327:133,1,67.4999979400635,0|0,0:0|0:0,0:0:0:0:
216,211,41662,2,0,P|219:244|237:272,1,67.4999979400635,0|8,0:0|0:0,0:0:0:0:
331,300,42034,1,0,0:0:0:0:
255,130,42221,6,0,L|114:130,1,134.999995880127,0|8,0:0|0:0,0:0:0:0:
43,39,42780,1,0,0:0:0:0:
17,142,42966,2,0,P|8:186|12:220,1,67.4999979400635,0|0,0:0|0:0,0:0:0:0:
85,298,43338,2,0,P|129:307|163:303,1,67.4999979400635,8|0,0:0|0:0,0:0:0:0:
305,219,43711,6,0,P|250:201|172:233,1,134.999995880127,2|8,0:0|0:0,0:0:0:0:
246,297,44270,1,0,0:0:0:0:
246,297,44363,1,0,0:0:0:0:
246,297,44457,2,0,P|296:317|339:309,1,67.4999979400635,0|0,0:0|0:0,0:0:0:0:
247,162,44829,1,8,0:0:0:0:
129,266,45016,1,0,0:0:0:0:
129,266,45109,1,0,0:0:0:0:
129,266,45202,6,0,L|125:191,1,67.4999979400635,4|0,0:0|0:0,0:0:0:0:
163,84,45575,1,8,0:0:0:0:
247,162,45761,1,0,0:0:0:0:
247,162,45854,1,0,0:0:0:0:
247,162,45947,2,0,P|284:162|342:153,1,67.4999979400635,0|0,0:0|0:0,0:0:0:0:
163,84,46320,2,0,P|161:140|172:164,1,67.4999979400635,8|0,0:0|0:0,0:0:0:0:
247,162,46600,1,0,0:0:0:0:
247,162,46693,6,0,P|208:164|132:231,1,134.999995880127,0|8,0:0|0:0,0:0:0:0:
236,304,47252,2,0,L|233:251,2,33.7499989700318,0|0|0,0:0|0:0|0:0,0:0:0:0:
299,164,47624,1,0,0:0:0:0:
328,278,47811,1,8,0:0:0:0:
197,205,47997,1,0,0:0:0:0:
197,205,48090,1,0,0:0:0:0:
197,205,48183,6,0,P|161:213|128:211,1,67.4999979400635,4|0,0:0|0:0,0:0:0:0:
47,136,48556,1,8,0:0:0:0:
157,80,48742,1,0,0:0:0:0:
157,80,48836,1,0,0:0:0:0:
157,80,48929,1,0,0:0:0:0:
264,135,49115,1,0,0:0:0:0:
192,271,49301,2,0,P|192:220|206:184,1,67.4999979400635,8|0,0:0|0:0,0:0:0:0:
364,140,49674,5,0,0:0:0:0:
239,35,49861,1,8,0:0:0:0:
196,204,50047,1,8,0:0:0:0:
157,80,50233,1,0,0:0:0:0:
157,80,50326,1,0,0:0:0:0:
157,80,50419,2,0,P|145:120|148:140,1,33.7499989700318,0|0,0:0|0:0,0:0:0:0:
196,204,50606,2,8,P|208:244|205:264,2,33.7499989700318,8|8|8,0:0|0:0|0:0,0:0:0:0:
84,177,50978,1,0,0:0:0:0:
84,177,51072,1,0,0:0:0:0:
84,177,51165,6,0,P|54:128|57:76,2,89.9999972534181,4|8|0,0:0|0:3|0:0,0:0:0:0:
186,190,52096,1,2,0:0:0:0:
223,95,52283,2,0,L|283:89,1,44.999998626709,8|0,0:3|0:0,0:0:0:0:
294,65,52562,1,0,0:0:0:0:
294,65,52655,6,0,L|383:69,1,89.9999972534181,2|8,0:0|0:3,0:0:0:0:
470,140,53214,2,0,L|419:143,1,44.999998626709,0|0,0:0|0:0,0:0:0:0:
373,42,53587,1,0,0:0:0:0:
323,153,53773,2,0,L|321:206,1,44.999998626709,8|0,0:3|0:0,0:0:0:0:
291,275,54146,6,0,L|283:174,2,89.9999972534181,2|8|0,0:0|0:3|0:0,0:0:0:0:
344,361,55078,1,2,0:0:0:0:
239,360,55264,2,0,L|181:363,1,44.999998626709,8|0,0:3|0:0,0:0:0:0:
104,275,55637,6,0,P|98:234|100:215,1,44.999998626709,2|0,0:0|0:0,0:0:0:0:
198,178,56009,2,0,P|205:149|197:104,1,67.4999979400635,8|0,0:3|0:0,0:0:0:0:
149,52,56382,2,0,L|85:46,1,44.999998626709,0|8,3:0|0:0,0:0:0:0:
32,80,56662,1,8,0:0:0:0:
32,80,56755,2,0,P|27:135|29:144,1,44.999998626709,8|0,0:3|0:0,0:0:0:0:
99,231,57127,6,0,L|107:292,2,52.4999983978272,4|0|0,0:0|0:0|0:0,0:0:0:0:
163,118,57686,1,0,0:0:0:0:
198,247,57873,1,0,0:0:0:0:
298,148,58059,1,0,0:0:0:0:
298,148,58151,1,0,0:0:0:0:
298,148,58245,1,0,0:3:0:0:
341,267,58432,1,0,0:0:0:0:
219,173,58618,6,0,P|178:165|148:166,1,52.4999983978272,0|0,0:0|0:0,0:0:0:0:
76,223,58991,1,8,0:3:0:0:
92,106,59177,1,0,0:0:0:0:
219,173,59363,2,0,P|224:209|219:245,1,52.4999983978272,0|0,0:0|0:0,0:0:0:0:
76,223,59735,1,8,0:2:0:0:
160,298,59922,1,0,0:0:0:0:
353,246,60109,6,0,P|312:247|290:256,1,52.4999983978272,4|0,0:0|0:0,0:0:0:0:
456,261,60481,2,0,P|455:220|446:198,1,52.4999983978272,8|0,0:3|0:0,0:0:0:0:
373,151,60761,1,0,0:0:0:0:
373,151,60854,2,0,P|374:110|383:88,2,52.4999983978272,0|8|0,0:0|0:3|0:0,0:0:0:0:
456,261,61413,1,0,0:0:0:0:
253,224,61600,5,4,0:0:0:0:
222,302,61785,1,0,0:0:0:0:
300,332,61971,1,8,0:3:0:0:
331,253,62159,1,0,0:0:0:0:
207,134,62345,5,0,3:2:0:0:
129,163,62530,1,0,3:2:0:0:
160,242,62718,1,8,3:2:0:0:
238,212,62904,1,0,3:2:0:0:
405,142,63090,6,0,L|359:132,3,33.7499989700318,0|0|0|0,0:0|0:0|0:0|0:0,0:0:0:0:
297,75,63462,2,0,L|251:85,3,33.7499989700318
173,103,63836,5,0,0:0:0:0:
167,118,63929,1,0,0:0:0:0:
164,135,64022,1,0,0:0:0:0:
164,152,64115,1,0,0:0:0:0:
169,168,64208,1,0,0:0:0:0:
176,183,64301,1,0,0:0:0:0:
181,199,64395,1,0,0:0:0:0:
182,216,64488,1,0,0:0:0:0:
179,233,64581,6,0,L|90:230,1,75,6|0,0:0|0:0,0:0:0:0:
140,69,64954,1,8,0:0:0:0:
263,179,65140,1,2,0:0:0:0:
263,179,65233,1,0,0:0:0:0:
263,179,65326,2,0,P|317:181|342:173,1,75,0|2,0:0|0:0,0:0:0:0:
377,26,65699,1,8,0:0:0:0:
303,97,65885,1,0,0:0:0:0:
413,194,66072,6,0,P|414:156|392:119,1,75
232,66,66444,1,8,0:0:0:0:
165,222,66631,2,0,P|231:209|247:212,1,75,2|0,0:0|0:0,0:0:0:0:
329,315,67003,2,0,P|291:315|256:302,1,75,2|8,0:0|0:0,0:0:0:0:
281,118,67376,1,0,0:0:0:0:
165,222,67562,6,0,L|73:227,1,75,0|0,0:0|0:0,0:0:0:0:
29,102,67935,1,8,0:0:0:0:
83,300,68121,2,0,P|84:249|91:222,1,75,2|0,0:0|0:0,0:0:0:0:
210,72,68494,2,0,P|217:108|216:146,1,75,2|8,0:0|0:0,0:0:0:0:
89,225,68867,1,0,0:0:0:0:
89,225,68960,1,0,0:0:0:0:
89,225,69053,6,0,L|5:220,1,75,2|0,0:0|0:0,0:0:0:0:
215,146,69426,2,0,L|289:141,1,75,2|0,0:0|0:0,0:0:0:0:
272,51,69705,1,0,0:0:0:0:
272,51,69798,2,0,P|203:44|176:49,1,75,2|0,0:0|0:0,0:0:0:0:
151,272,70171,2,0,P|220:279|247:274,1,75,2|0,0:0|0:0,0:0:0:0:
295,217,70450,1,0,0:0:0:0:
295,217,70544,6,0,L|290:137,2,75,4|0|8,0:0|0:0|0:0,0:0:0:0:
376,316,71103,1,2,0:0:0:0:
376,316,71196,1,0,0:0:0:0:
376,316,71289,2,0,P|416:304|464:304,1,75,0|2,0:0|0:0,0:0:0:0:
436,191,71662,1,8,0:0:0:0:
295,217,71848,1,0,0:0:0:0:
295,217,71941,1,0,0:0:0:0:
295,217,72034,6,0,P|284:170|291:124,1,75,0|0,0:0|0:0,0:0:0:0:
362,43,72407,1,8,0:0:0:0:
224,65,72593,2,0,L|134:71,1,75,2|0,0:0|0:0,0:0:0:0:
362,43,72966,2,0,L|452:49,1,75,2|8,0:0|0:0,0:0:0:0:
305,208,73339,1,0,0:0:0:0:
305,208,73432,1,0,0:0:0:0:
305,208,73525,6,0,P|298:157|302:109,1,75,2|0,0:0|0:0,0:0:0:0:
362,43,73898,1,8,0:0:0:0:
231,100,74084,1,0,0:0:0:0:
231,100,74177,1,0,0:0:0:0:
231,100,74270,2,0,L|156:93,1,75,0|0,0:0|0:0,0:0:0:0:
200,192,74643,1,10,0:0:0:0:
270,35,74829,6,0,P|261:98|345:157,1,150,4|0,0:0|0:0,0:0:0:0:
470,53,75388,1,8,0:0:0:0:
425,175,75575,1,8,0:0:0:0:
335,79,75761,2,0,L|371:69,1,37.5,8|0,0:0|0:0,0:0:0:0:
248,119,75947,2,0,L|211:109,1,37.5,8|0,0:0|0:0,0:0:0:0:
124,58,76134,2,0,P|117:20|125:-3,1,37.5,8|0,0:0|0:0,0:0:0:0:
220,74,76320,2,0,P|219:92|212:110,1,37.5,8|0,0:0|0:0,0:0:0:0:
100,155,76506,6,0,P|104:192|124:224,1,75,4|0,0:0|0:0,0:0:0:0:
237,288,76879,1,8,0:0:0:0:
315,207,77065,1,2,0:0:0:0:
315,207,77159,1,0,0:0:0:0:
315,207,77252,2,0,L|403:200,1,75,0|2,0:0|0:0,0:0:0:0:
460,107,77624,2,0,L|362:102,1,75,8|0,0:0|0:0,0:0:0:0:
267,75,77997,5,0,0:0:0:0:
315,207,78183,1,0,0:0:0:0:
361,109,78370,1,8,0:0:0:0:
207,167,78556,1,2,0:0:0:0:
207,167,78649,1,0,0:0:0:0:
207,167,78742,1,0,0:0:0:0:
249,64,78929,2,0,P|210:55|171:63,1,75,2|8,0:0|0:0,0:0:0:0:
112,128,79301,1,0,0:0:0:0:
221,239,79488,6,0,P|222:201|207:167,1,75,0|0,0:0|0:0,0:0:0:0:
117,221,79860,1,8,0:0:0:0:
207,167,80047,2,0,L|219:128,2,37.5,2|0|0,0:0|0:0|0:0,0:0:0:0:
164,312,80419,1,2,0:0:0:0:
283,353,80606,1,8,0:0:0:0:
390,291,80792,1,0,0:0:0:0:
390,291,80885,1,0,0:0:0:0:
390,291,80978,6,0,P|439:293|484:286,1,75,2|0,0:0|0:0,0:0:0:0:
432,109,81351,2,0,P|383:107|338:114,1,75,2|0,0:0|0:0,0:0:0:0:
292,171,81631,1,0,0:0:0:0:
275,180,81724,2,0,L|277:97,1,75,2|0,0:0|0:0,0:0:0:0:
172,29,82096,1,2,0:0:0:0:
92,152,82283,1,0,0:0:0:0:
92,152,82376,1,0,0:0:0:0:
92,152,82469,6,0,L|77:51,2,75,4|0|8,0:0|0:0|0:0,0:0:0:0:
204,306,83028,1,4,0:0:0:0:
204,306,83401,1,0,0:0:0:0:
166,228,83587,1,8,0:0:0:0:
332,230,83773,1,0,0:0:0:0:
332,230,83867,1,0,0:0:0:0:
332,230,83960,5,4,0:0:0:0:
166,228,84146,1,8,3:0:0:0:
248,81,84332,1,8,3:0:0:0:
248,296,84519,1,4,0:0:0:0:
248,296,84891,1,0,0:0:0:0:
166,228,85078,1,0,3:0:0:0:
157,201,85171,1,0,3:0:0:0:
154,173,85264,1,0,3:0:0:0:
155,145,85357,1,0,3:0:0:0:
162,118,85450,6,0,L|74:117,1,75,4|0,0:0|0:0,0:0:0:0:
21,171,85730,1,0,0:0:0:0:
21,171,85823,2,0,P|2:118|16:72,1,75,4|0,0:0|0:0,0:0:0:0:
70,46,86103,1,0,0:0:0:0:
70,46,86196,2,0,P|89:99|75:145,1,75,4|0,0:0|0:0,0:0:0:0:
166,249,86568,1,4,0:0:0:0:
299,145,86755,1,0,0:0:0:0:
299,145,86848,1,0,0:0:0:0:
299,145,86941,5,0,3:0:0:0:
297,248,87127,1,0,0:0:0:0:
450,204,87314,2,0,P|401:195|366:198,1,75,4|0,0:0|0:0,0:0:0:0:
297,248,87593,1,0,3:2:0:0:
297,248,87686,6,0,L|243:257,1,37.5,0|0,3:2|3:2,0:0:0:0:
142,165,87873,2,0,L|196:174,1,37.5,0|0,3:2|3:2,0:0:0:0:
268,105,88059,1,0,3:0:0:0:
295,102,88152,1,0,3:0:0:0:
323,99,88245,1,8,3:0:0:0:
351,96,88338,1,8,3:0:0:0:
378,92,88431,5,10,0:0:0:0:
445,190,88618,2,0,P|454:229|445:268,1,75
327,200,88991,5,4,0:0:0:0:
378,92,89177,2,0,P|407:64|445:53,1,75,2|0,0:0|0:0,0:0:0:0:
327,200,89550,2,0,L|229:194,1,75,6|0,0:0|0:0,0:0:0:0:
149,79,89922,5,6,0:0:0:0:
161,226,90109,1,0,0:0:0:0:
243,143,90295,1,6,0:0:0:0:
251,292,90481,1,8,0:0:0:0:
251,292,90575,1,8,0:0:0:0:
251,292,90668,1,12,0:0:0:0:
28,150,90854,5,0,3:0:0:0:
52,149,90947,1,0,3:0:0:0:
77,149,91040,1,0,3:0:0:0:
102,148,91133,1,0,0:0:0:0:
127,148,91226,1,0,0:0:0:0:
152,147,91319,1,0,0:0:0:0:
176,147,91413,2,0,P|190:200|187:228,1,78.7499975967408,2|0,0:0|0:0,0:0:0:0:
149,307,91786,6,0,P|211:313|229:306,1,75,4|0,0:0|0:0,0:0:0:0:
279,244,92065,1,0,0:0:0:0:
279,244,92159,2,0,L|274:162,1,75,0|0,0:0|0:0,0:0:0:0:
232,51,92531,1,8,0:0:0:0:
122,168,92718,6,0,P|115:214|117:246,1,75,0|0,0:0|0:0,0:0:0:0:
208,331,93090,1,0,0:0:0:0:
355,264,93277,2,0,B|308:257|308:257|253:271,1,75,8|0,0:0|0:0,0:0:0:0:
208,331,93556,1,0,0:0:0:0:
208,331,93649,2,0,B|169:339|134:330,1,75,0|0,0:0|0:0,0:0:0:0:
164,158,94022,2,0,L|181:256,1,75,8|0,0:0|0:0,0:0:0:0:
257,176,94301,1,0,0:0:0:0:
257,176,94395,6,0,L|269:102,1,75,0|0,0:0|0:0,0:0:0:0:
238,270,94767,2,0,P|191:248|168:217,1,75,8|0,0:0|0:0,0:0:0:0:
164,158,95047,1,0,0:0:0:0:
164,158,95140,1,0,0:0:0:0:
238,270,95326,1,0,0:0:0:0:
96,257,95513,1,8,0:0:0:0:
257,176,95699,6,0,P|315:159|403:207,1,150,4|0,0:0|0:0,0:0:0:0:
316,260,96258,1,8,0:0:0:0:
285,72,96444,2,0,P|228:44|158:58,1,112.5,4|0,0:0|0:0,0:0:0:0:
115,110,96817,1,0,0:0:0:0:
119,255,97003,1,8,0:0:0:0:
147,252,97096,1,0,0:0:0:0:
175,250,97189,1,0,0:0:0:0:
203,248,97283,1,0,0:0:0:0:
231,246,97375,5,4,0:0:0:0:
241,100,97561,1,0,0:0:0:0:
355,189,97749,1,8,0:0:0:0:
176,172,97935,2,0,P|146:113|148:92,1,75,4|0,0:0|0:0,0:0:0:0:
268,196,98308,5,0,0:0:0:0:
241,100,98494,1,8,0:0:0:0:
101,171,98680,2,0,L|196:172,1,75,4|0,0:0|0:0,0:0:0:0:
339,108,99053,5,0,0:0:0:0:
268,196,99239,1,8,0:0:0:0:
246,25,99426,2,0,P|247:71|238:107,1,75,4|0,0:0|0:0,0:0:0:0:
121,193,99798,1,0,0:0:0:0:
184,100,99985,1,8,0:0:0:0:
212,99,100078,1,0,0:0:0:0:
240,99,100171,1,0,0:0:0:0:
268,98,100264,1,0,0:0:0:0:
296,97,100357,6,0,L|381:86,1,75,4|0,0:0|0:0,0:0:0:0:
441,11,100730,1,8,0:0:0:0:
448,138,100916,1,8,0:0:0:0:
448,138,101009,1,8,0:0:0:0:
448,138,101103,1,8,0:0:0:0:
367,64,101289,1,0,0:0:0:0:
344,219,101475,1,8,0:0:0:0:
263,53,101662,6,0,P|181:65|266:91,1,225,4|0,0:0|0:0,0:0:0:0:
345,40,102407,1,2,0:0:0:0:
254,285,102780,1,2,0:0:0:0:
231,191,102966,1,2,0:0:0:0:
263,95,103152,1,2,0:0:0:0:
256,192,103339,5,2,0:0:0:0:
256,192,103432,12,0,110792,0:0:0:0:
