osu file format v14

[General]
AudioFilename: audio.mp3
AudioLeadIn: 0
PreviewTime: 64395
Countdown: 0
SampleSet: Soft
StackLeniency: 0.7
Mode: 0
LetterboxInBreaks: 0
WidescreenStoryboard: 0

[Editor]
DistanceSpacing: 1.2
BeatDivisor: 2
GridSize: 4
TimelineZoom: 1

[Metadata]
Title:landscape
TitleUnicode:landscape
Artist:yanaginagi
ArtistUnicode:やなぎなぎ
Creator:Hokichi
Version:easy
Source:
Tags:hoki shortthu betastar sidetail boss bossandy short ver polyomino shinya saito
BeatmapID:1583350
BeatmapSetID:750583

[Difficulty]
HPDrainRate:3
CircleSize:3
OverallDifficulty:2
ApproachRate:4
SliderMultiplier:0.8
SliderTickRate:1

[Events]
//Background and Video events
0,0,"bg.jpg",0,0
//Break Periods
2,51365,54689
//Storyboard Layer 0 (Background)
//Storyboard Layer 1 (Fail)
//Storyboard Layer 2 (Pass)
//Storyboard Layer 3 (Foreground)
//Storyboard Sound Samples

[TimingPoints]
482,372.670807453416,4,2,2,20,1,0
482,-100,4,2,2,20,0,0
854,-100,4,2,1,20,0,0
10171,-100,4,2,2,5,0,0
10544,-100,4,2,2,7,0,0
10916,-100,4,2,2,10,0,0
11289,-100,4,2,2,13,0,0
11662,-100,4,2,2,15,0,0
12034,-100,4,2,2,18,0,0
12407,-100,4,2,2,20,0,0
13152,-100,4,2,2,23,0,0
14457,-100,4,2,2,23,0,0
14550,-100,4,2,1,5,0,0
14643,-100,4,2,1,20,0,0
15388,-100,4,2,1,40,0,0
25637,-100,4,2,1,40,0,0
26196,-100,4,2,1,5,0,0
26382,-100,4,2,1,15,0,0
26568,-100,4,2,1,20,0,0
26755,-100,4,2,1,25,0,0
26941,-100,4,2,1,30,0,0
27127,-100,4,2,1,35,0,0
27322,372.670807453416,4,2,2,40,1,0
27322,-100,4,2,2,40,0,0
39239,372.670807453416,4,2,1,40,1,0
51165,-100,4,2,1,40,0,0
53401,-100,4,2,2,40,0,0
53587,-100,4,2,1,40,0,0
55637,-100,4,2,2,40,0,0
55823,-100,4,2,1,40,0,0
57127,-100,4,2,1,40,0,0
63090,-100,4,2,1,40,0,0
64580,-100,4,2,1,40,0,1
69053,-100,4,2,2,40,0,1
70544,-100,4,2,1,40,0,1
74829,-100,4,2,1,40,0,0
76506,-100,4,2,1,40,0,1
80978,-100,4,2,2,40,0,1
82469,-100,4,2,1,40,0,1
86940,-100,4,2,1,40,0,0
88431,-100,4,2,2,40,0,1
90854,-100,4,2,1,40,0,1
91412,-100,4,2,1,40,0,0
91693,-100,4,2,1,5,0,0
91786,-100,4,2,1,40,0,0
103339,-100,4,2,2,60,0,0
110792,-100,4,2,1,5,0,0

[Colours]
Combo1 : 166,137,123
Combo2 : 2,215,130
Combo3 : 74,177,253
Combo4 : 164,255,62
Combo5 : 255,255,102
SliderBorder : 255,255,255
SliderTrackOverride : 0,34,15

[HitObjects]
204,52,482,6,0,P|148:20|92:24,2,120,2|2|0,0:0|0:0|0:0,0:0:0:0:
128,108,1972,2,0,P|112:184|152:256,1,160,2|2,0:0|0:0,0:0:0:0:
324,336,3463,6,0,B|376:348|412:324|412:324|444:332,2,120,2|2|0,0:0|0:0|0:0,0:0:0:0:
360,248,4954,2,0,P|374:211|372:164,1,80,0|0,0:0|0:0,0:0:0:0:
308,100,5699,2,0,P|293:63|296:16,1,80,0|0,0:0|0:0,0:0:0:0:
212,72,6444,6,0,B|180:92|136:96|96:80|96:80|52:80|24:112,1,200,2|0,0:0|0:0,0:0:0:0:
108,228,7935,2,0,P|184:236|264:204,2,160,2|2|2,0:0|0:0|0:0,0:0:0:0:
256,192,9798,12,2,12407,0:0:0:0:
428,344,14643,6,0,P|448:307|452:252,1,80,0|8,3:0|3:2,0:0:0:0:
420,180,15388,5,4,0:0:0:0:
468,96,15761,2,0,P|404:84|332:144,1,160,8|8,0:0|0:0,0:0:0:0:
272,212,16879,1,0,0:0:0:0:
228,124,17252,2,0,L|236:36,2,80,8|0|8,0:0|0:0|0:0,0:0:0:0:
160,192,18370,6,0,B|121:211|83:192|83:192|45:172|7:192,1,160,0|0,0:0|0:0,0:0:0:0:
124,108,19674,2,0,B|162:88|200:108|200:108|238:127|276:108,1,160,4|4,0:0|0:0,0:0:0:0:
404,36,20978,1,8,3:2:0:0:
468,108,21351,6,0,L|460:236,1,120,4|4,0:0|0:0,0:0:0:0:
452,324,22283,1,0,0:0:0:0:
368,372,22655,2,0,P|292:349|208:376,1,160,4|0,0:0|0:0,0:0:0:0:
80,328,23960,1,8,0:0:0:0:
104,236,24332,6,0,P|100:196|68:160,1,80,4|8,0:0|0:0,0:0:0:0:
140,92,25078,2,0,P|196:116|268:92,1,120,8|4,0:0|0:0,0:0:0:0:
251,107,27322,5,2,0:0:0:0:
292,192,27694,2,0,P|336:152|328:52,1,160,8|8,0:0|0:0,0:0:0:0:
245,16,28812,1,0,0:0:0:0:
168,72,29185,2,0,L|8:52,1,160,8|8,0:0|0:0,0:0:0:0:
44,140,30303,5,0,0:0:0:0:
0,224,30676,2,0,L|160:244,2,160,8|8|8,0:0|0:0|0:0,0:0:0:0:
28,316,32539,2,0,L|108:326,1,80,0|8,0:0|0:0,0:0:0:0:
204,332,33285,5,0,0:0:0:0:
300,332,33657,2,0,P|372:300|392:212,1,160,8|8,0:0|0:0,0:0:0:0:
300,236,34775,1,0,0:0:0:0:
204,244,35148,2,0,P|227:170|298:139,1,160,8|8,0:0|0:0,0:0:0:0:
295,44,36266,6,0,P|153:104|106:252,1,320,0|0,0:0|0:0,0:0:0:0:
296,228,38502,2,0,L|376:232,1,80,0|0,3:2|3:2,0:0:0:0:
436,308,39239,5,4,0:0:0:0:
484,224,39612,2,0,L|464:60,1,160,8|8,0:0|0:0,0:0:0:0:
380,108,40730,1,0,0:0:0:0:
324,28,41103,2,0,B|277:28|246:43|246:43|215:28|169:28,1,160,8|8,0:0|0:0,0:0:0:0:
112,108,42221,5,0,0:0:0:0:
172,184,42593,2,0,B|218:184|249:168|249:168|280:184|326:184,1,160,8|8,0:0|0:0,0:0:0:0:
380,108,43711,1,2,0:0:0:0:
424,192,44084,2,0,P|411:236|377:267,2,80,8|0|8,0:0|0:0|0:0,0:0:0:0:
327,184,45202,6,0,L|348:24,1,160,4|0,0:0|0:0,0:0:0:0:
256,52,46320,1,8,0:0:0:0:
164,25,46693,2,0,L|185:184,1,160,0|0,0:0|0:0,0:0:0:0:
108,240,47811,1,8,0:0:0:0:
196,280,48183,6,0,B|235:299|273:280|273:280|311:260|349:280,1,160,4|0,0:0|0:0,0:0:0:0:
424,340,49301,1,8,0:0:0:0:
444,244,49674,2,0,L|436:64,1,160,0|0,0:0|0:0,0:0:0:0:
256,144,51165,5,4,0:0:0:0:
248,156,56009,5,8,0:3:0:0:
200,240,56382,2,0,P|160:256|120:248,1,80,0|8,3:0|0:3,0:0:0:0:
56,184,57127,6,0,L|48:104,1,80,4|0,0:0|0:0,0:0:0:0:
132,56,57873,2,0,L|212:84,1,80,0|0,0:0|0:3,0:0:0:0:
304,82,58618,2,0,L|380:56,1,80,0|8,0:0|0:3,0:0:0:0:
464,104,59363,2,0,L|456:184,1,80,0|8,0:0|0:2,0:0:0:0:
360,180,60109,5,4,0:0:0:0:
392,268,60481,1,8,0:3:0:0:
296,252,60854,2,0,L|304:332,1,80,0|0,0:0|0:0,0:0:0:0:
212,304,61600,1,4,0:0:0:0:
132,356,61972,1,8,0:3:0:0:
64,288,62345,1,0,3:2:0:0:
108,204,62718,1,8,3:2:0:0:
204,212,63090,6,0,L|344:228,2,120,0|0|0,0:0|0:0|0:0,0:0:0:0:
108,204,64581,5,6,0:0:0:0:
31,263,64954,2,0,P|10:189|52:124,1,160,8|8,0:0|0:0,0:0:0:0:
108,204,66072,1,0,0:0:0:0:
148,116,66444,2,0,P|108:48|28:32,1,160,8|8,0:0|0:0,0:0:0:0:
52,125,67562,5,0,0:0:0:0:
108,204,67935,2,0,P|186:203|240:142,1,160,8|8,0:0|0:0,0:0:0:0:
268,56,69053,2,0,L|356:36,1,80,2|2,0:0|0:0,0:0:0:0:
400,116,69798,2,0,L|478:133,1,80,2|2,0:0|0:0,0:0:0:0:
460,228,70544,5,4,0:0:0:0:
468,324,70916,2,0,P|395:295|364:223,1,160,8|8,0:0|0:0,0:0:0:0:
424,148,72034,1,0,0:0:0:0:
328,128,72407,2,0,L|152:140,1,160,8|8,0:0|0:0,0:0:0:0:
72,156,73525,5,2,0:0:0:0:
96,64,73898,1,8,0:0:0:0:
4,92,74270,2,0,P|-20:164|0:216,1,120,0|4,0:0|0:0,0:0:0:0:
136,196,75388,1,8,0:0:0:0:
232,216,75761,2,0,P|272:217|320:208,1,80,8|8,0:0|0:0,0:0:0:0:
400,176,76506,5,4,0:0:0:0:
372,84,76879,2,0,P|300:108|216:92,1,160,8|8,0:0|0:0,0:0:0:0:
144,32,77997,1,0,0:0:0:0:
48,12,78370,2,0,B|44:56|63:89|63:89|44:120|48:166,1,160,8|8,0:0|0:0,0:0:0:0:
144,148,79488,5,0,0:0:0:0:
232,184,79860,2,0,P|309:183|363:127,1,160,8|8,0:0|0:0,0:0:0:0:
272,96,80978,2,0,P|230:92|184:76,1,80,2|2,0:0|0:0,0:0:0:0:
112,28,81724,2,0,P|70:31|24:48,1,80,2|2,0:0|0:0,0:0:0:0:
4,136,82469,5,4,0:0:0:0:
40,276,83028,2,0,B|96:296|96:296|156:284,1,120,4|8,0:0|0:0,0:0:0:0:
248,260,83960,2,0,B|308:248|308:248|364:268,2,120,4|4|0,0:0|0:0|3:0,0:0:0:0:
184,188,85450,5,4,0:0:0:0:
96,148,85823,1,4,0:0:0:0:
76,52,86196,2,0,B|117:40|151:65|151:65|185:91|226:78,1,160,4|0,0:0|3:0,0:0:0:0:
324,68,87314,1,4,0:0:0:0:
420,56,87686,2,0,L|440:144,1,80,0|0,3:2|3:0,0:0:0:0:
388,212,88432,5,2,0:0:0:0:
304,164,88804,2,0,L|286:85,2,80,0|2|2,0:0|0:0|0:0,0:0:0:0:
252,244,89922,1,2,0:0:0:0:
336,292,90295,2,0,L|353:370,2,80,2|12|0,0:0|0:0|3:0,0:0:0:0:
252,244,91413,5,2,0:0:0:0:
252,148,91786,2,0,P|194:95|117:104,1,160,4|8,0:0|0:0,0:0:0:0:
48,172,92904,1,0,0:0:0:0:
60,268,93277,2,0,L|68:356,2,80,8|0|8,0:0|0:0|0:0,0:0:0:0:
144,224,94395,6,0,B|183:243|221:224|221:224|259:204|297:224,1,160,0|0,0:0|0:0,0:0:0:0:
416,304,95699,2,0,B|378:284|340:304|340:304|302:323|264:304,1,160,4|4,0:0|0:0,0:0:0:0:
144,224,97003,1,8,0:0:0:0:
68,168,97376,6,0,L|75:48,1,120,4|4,0:0|0:0,0:0:0:0:
168,80,98308,1,0,0:0:0:0:
256,116,98680,2,0,P|332:139|420:120,1,160,4|4,0:0|0:0,0:0:0:0:
492,244,99985,1,8,0:0:0:0:
471,336,100357,6,0,P|432:345|387:344,1,80,4|8,0:0|0:0,0:0:0:0:
316,288,101103,2,0,L|324:168,1,120,8|4,0:0|0:0,0:0:0:0:
132,156,102407,2,0,L|124:276,1,120,2|2,0:0|0:0,0:0:0:0:
116,372,103339,5,2,0:0:0:0:
256,192,103525,12,0,110792,0:0:0:0:
