osu file format v14

[General]
AudioFilename: audio.mp3
AudioLeadIn: 0
PreviewTime: 57322
Countdown: 0
SampleSet: Soft
StackLeniency: 0.7
Mode: 0
LetterboxInBreaks: 0
WidescreenStoryboard: 1

[Editor]
Bookmarks: 7580,15962,30080,52139,72433,86330
DistanceSpacing: 0.9
BeatDivisor: 2
GridSize: 4
TimelineZoom: 0.7999997

[Metadata]
Title:here and there
TitleUnicode:here and there
Artist:yanaginagi
ArtistUnicode:やなぎなぎ
Creator:tasuke912
Version:Normal
Source:キノの旅 -the Beautiful World- the Animated Series
Tags:Kino no tabi kino's journey
BeatmapID:1444353
BeatmapSetID:681885

[Difficulty]
HPDrainRate:4
CircleSize:3.5
OverallDifficulty:4
ApproachRate:5
SliderMultiplier:1.2
SliderTickRate:1

[Events]
//Background and Video events
0,0,"bg.png",0,0
//Break Periods
//Storyboard Layer 0 (Background)
//Storyboard Layer 1 (Fail)
//Storyboard Layer 2 (Pass)
//Storyboard Layer 3 (Foreground)
//Storyboard Sound Samples

[TimingPoints]
1845,441.176470588235,4,2,1,60,1,0
1845,-100,4,2,1,60,0,0
8021,-100,4,2,1,40,0,0
8903,-100,4,2,1,60,0,0
44197,-100,4,2,1,40,0,0
51256,-100,4,2,1,60,0,0
58315,-100,4,2,1,70,0,1
86550,-100,4,2,3,70,0,0
86661,-100,4,2,3,5,0,0

[Colours]
Combo1 : 124,222,205
Combo2 : 255,128,128
Combo3 : 214,189,116
Combo4 : 155,213,145

[HitObjects]
214,104,1845,5,2,0:0:0:0:
214,104,2065,2,0,L|80:96,1,120
48,125,2727,2,0,P|30:181|48:237,1,120
143,185,3609,2,0,P|151:272|93:337,2,180,2|0|0,0:0|0:0|0:0,0:0:0:0:
214,104,5374,5,2,0:0:0:0:
214,104,5594,2,0,L|349:93,1,120
383,73,6256,2,0,P|374:136|402:202,1,120
481,249,7139,2,0,P|476:307|422:359,1,120,2|0,0:0|0:0,0:0:0:0:
331,341,8021,2,0,B|237:364|251:308|154:334,1,180
116,373,8903,6,0,L|125:252,1,120,4|8,0:0|0:0,0:0:0:0:
128,199,9565,1,0,0:0:0:0:
131,145,9786,2,0,P|188:134|268:148,1,120,0|8,0:0|0:0,0:0:0:0:
346,187,10668,2,0,P|353:129|330:74,2,120,0|8|0,0:0|0:0|0:0,0:0:0:0:
254,245,11992,1,8,0:0:0:0:
163,186,12433,6,0,P|156:128|179:73,1,120,0|8,0:0|0:0,0:0:0:0:
227,48,13094,1,0,0:0:0:0:
279,34,13315,2,0,L|403:28,1,120,0|8,0:0|0:0,0:0:0:0:
452,122,14197,2,0,L|511:118,2,60,0|0|8,0:0|0:0|0:0,0:0:0:0:
353,166,15080,2,0,L|357:225,1,60
399,260,15521,2,0,L|395:319,1,60,8|0,0:0|0:0,0:0:0:0:
358,359,15962,6,0,P|302:339|226:343,1,120,4|0,0:0|0:0,0:0:0:0:
135,356,16844,2,0,L|63:361,2,60
167,313,17506,2,0,P|183:265|164:188,1,120
130,161,18168,1,0,0:0:0:0:
76,151,18389,2,0,P|45:113|140:77,1,180
232,100,19492,6,0,P|291:108|350:99,1,120,2|0,0:0|0:0,0:0:0:0:
453,66,20374,2,0,L|515:58,2,60
439,118,21036,1,0,0:0:0:0:
426,170,21256,2,0,B|365:183|365:183|330:176,2,90,2|2|2,0:0|0:0|0:0,0:0:0:0:
479,165,22139,2,0,P|494:215|469:279,1,120
380,335,23021,6,0,L|246:323,1,120,4|8,0:0|0:0,0:0:0:0:
157,290,23903,2,0,L|72:300,2,60,0|0|8,0:0|0:0|0:0,0:0:0:0:
193,248,24565,2,0,P|201:190|179:134,1,120
140,97,25227,1,8,0:0:0:0:
186,70,25447,2,0,L|312:53,1,120
357,43,26109,1,8,0:0:0:0:
300,134,26550,6,0,P|283:186|305:257,1,120,0|8,0:0|0:0,0:0:0:0:
339,283,27212,1,0,0:0:0:0:
390,300,27433,2,0,L|510:290,1,120,0|8,0:0|0:0,0:0:0:0:
507,182,28315,2,0,L|387:192,1,120,0|8,0:0|0:0,0:0:0:0:
335,175,28977,2,0,P|320:127|338:54,1,120,2|8,0:0|0:0,0:0:0:0:
373,23,29639,1,8,0:0:0:0:
266,7,30080,6,0,L|146:1,1,120,4|0,0:0|0:0,0:0:0:0:
61,68,30962,2,0,L|1:71,2,60
111,88,31624,2,0,P|128:125|112:204,1,120
70,232,32286,1,0,0:0:0:0:
19,253,32506,2,0,P|6:331|85:331,1,180
184,285,33609,6,0,P|242:275|301:285,1,120,2|0,0:0|0:0,0:0:0:0:
345,317,34271,2,0,L|365:182,1,120
316,169,34933,2,0,L|308:103,1,60
342,67,35374,2,0,P|385:59|426:76,2,90,2|2|2,0:0|0:0|0:0,0:0:0:0:
308,109,36256,2,0,L|161:98,1,120
95,43,37139,6,0,P|79:100|95:157,1,120,4|8,0:0|0:0,0:0:0:0:
190,207,38021,2,0,L|274:214,2,60,0|0|8,0:0|0:0|0:0,0:0:0:0:
146,238,38683,2,0,L|22:245,1,120
1,292,39344,1,8,0:0:0:0:
25,340,39565,2,0,L|144:347,1,120
196,363,40227,1,8,0:0:0:0:
309,348,40668,6,0,P|287:295|313:226,1,120,2|12,0:0|0:0,0:0:0:0:
402,192,41550,2,0,L|473:183,2,60,0|0|8,0:0|0:0|0:0,0:0:0:0:
374,145,42212,1,0,0:0:0:0:
355,94,42433,2,0,L|223:83,1,120,0|12,0:0|0:0,0:0:0:0:
181,80,43094,1,0,0:0:0:0:
132,104,43315,2,0,B|117:165|117:165|133:224,1,120,0|8,0:0|0:0,0:0:0:0:
230,265,44197,6,0,L|289:260,1,60,0|0,1:0|1:0,0:0:0:0:
230,169,44859,2,0,P|156:204|142:304,1,180,2|0,0:0|0:0,0:0:0:0:
170,338,45742,1,0,0:0:0:0:
219,359,45962,2,0,L|346:353,1,120
392,356,46624,2,0,P|415:302|406:244,1,120
368,206,47286,1,0,0:0:0:0:
409,106,47727,6,0,P|423:76|444:52,1,60,0|0,1:0|1:0,0:0:0:0:
512,136,48389,2,0,P|456:203|368:206,1,180,2|0,0:0|0:0,0:0:0:0:
323,175,49271,1,0,0:0:0:0:
286,134,49492,2,0,L|163:126,1,120,2|0,0:0|0:0,0:0:0:0:
112,115,50153,2,0,P|86:167|100:224,1,120,2|0,0:0|0:0,0:0:0:0:
147,251,50815,1,0,0:0:0:0:
117,354,51256,6,0,P|173:337|232:346,1,120,4|0,0:0|0:0,0:0:0:0:
282,367,51918,1,2,0:0:0:0:
335,359,52139,2,0,L|348:225,1,120
408,151,53021,2,0,P|353:131|295:144,1,120,2|0,0:0|0:0,0:0:0:0:
249,172,53683,1,2,0:0:0:0:
197,157,53903,2,0,L|190:27,1,120,0|2,0:0|0:0,0:0:0:0:
102,100,54786,6,0,P|81:158|101:220,1,120,4|8,0:0|0:0,0:0:0:0:
201,236,55668,2,0,L|276:248,2,60,0|0|8,0:0|0:0|0:0,0:0:0:0:
163,274,56330,2,0,P|185:219|171:161,1,120,0|0,1:0|1:0,0:0:0:0:
136,120,56992,1,0,1:0:0:0:
169,332,58315,6,0,P|223:354|281:342,1,120,4|8,0:0|0:0,0:0:0:0:
320,304,58977,1,0,0:0:0:0:
370,285,59197,2,0,L|385:147,1,120,0|8,0:0|0:0,0:0:0:0:
466,97,60080,2,0,P|417:65|352:64,1,120,0|8,0:0|0:0,0:0:0:0:
310,88,60742,1,0,0:0:0:0:
278,131,60962,2,0,L|147:122,1,120,0|8,0:0|0:0,0:0:0:0:
63,173,61844,6,0,P|55:97|84:47,1,120,2|8,0:0|0:0,0:0:0:0:
118,30,62506,1,0,0:0:0:0:
171,19,62727,2,0,P|226:40|259:88,1,120,0|8,0:0|0:0,0:0:0:0:
158,122,63609,2,0,L|143:269,1,120,2|8,0:0|0:0,0:0:0:0:
176,345,64492,2,0,L|271:336,1,60
278,306,64933,2,0,L|373:315,1,60,8|0,0:0|0:0,0:0:0:0:
383,340,65374,6,0,P|379:264|426:201,1,120,4|8,0:0|0:0,0:0:0:0:
448,206,66036,1,0,0:0:0:0:
501,200,66256,2,0,L|512:61,1,120,0|8,0:0|0:0,0:0:0:0:
412,31,67139,2,0,P|359:56|300:51,1,120,0|8,0:0|0:0,0:0:0:0:
250,30,67800,1,0,0:0:0:0:
198,47,68021,2,0,L|183:173,1,120,0|8,0:0|0:0,0:0:0:0:
132,259,68903,6,0,P|190:271|246:253,1,120,2|8,0:0|0:0,0:0:0:0:
282,211,69565,1,0,0:0:0:0:
304,161,69786,2,0,L|401:151,2,60,0|0|8,0:0|0:0|0:0,0:0:0:0:
251,149,70447,1,0,0:0:0:0:
210,113,70668,2,0,P|200:56|238:12,1,120,2|8,0:0|0:0,0:0:0:0:
291,0,71330,1,0,0:0:0:0:
345,12,71550,2,0,P|383:55|373:113,1,120,0|8,0:0|0:0,0:0:0:0:
307,199,72433,6,0,P|285:254|299:311,1,120,4|8,0:0|0:0,0:0:0:0:
346,337,73094,1,0,0:0:0:0:
398,323,73315,2,0,L|474:335,2,60,0|0|8,0:0|0:0|0:0,0:0:0:0:
382,270,73977,2,0,B|365:192|365:192|377:144,1,120
389,99,74639,1,8,0:0:0:0:
472,30,75080,2,0,P|423:-1|364:-4,1,120,0|8,0:0|0:0,0:0:0:0:
281,67,75962,6,0,L|152:35,1,120,2|8,0:0|0:0,0:0:0:0:
112,24,76624,1,0,0:0:0:0:
63,46,76844,2,0,L|3:55,2,60,0|0|8,0:0|0:0|0:0,0:0:0:0:
94,90,77506,2,0,P|106:148|98:207,1,120
63,248,78168,1,8,0:0:0:0:
30,290,78389,2,0,L|175:280,1,120
195,253,79050,2,0,L|263:259,1,60,8|0,0:0|0:0,0:0:0:0:
290,298,79492,6,0,P|284:240|311:187,1,120,4|8,0:0|0:0,0:0:0:0:
356,156,80153,1,0,0:0:0:0:
410,156,80374,2,0,L|433:63,2,60,0|0|8,0:0|0:0|0:0,0:0:0:0:
385,261,81256,1,2,0:0:0:0:
295,320,81697,1,8,0:0:0:0:
283,212,82139,1,0,0:0:0:0:
385,261,82580,2,0,L|452:252,1,60,8|0,0:0|0:0,0:0:0:0:
486,286,83021,6,0,L|498:131,1,120,4|8,0:0|0:0,0:0:0:0:
498,112,83683,1,0,0:0:0:0:
468,66,83903,2,0,P|419:47|341:73,1,120,0|8,0:0|0:0,0:0:0:0:
260,114,84786,1,2,0:0:0:0:
171,52,85227,1,8,0:0:0:0:
171,52,85447,2,0,P|152:113|175:177,1,120
213,193,86109,2,0,L|201:277,1,60,8|0,0:0|0:0,0:0:0:0:
196,305,86550,5,6,0:0:0:0:
256,192,86771,12,2,89197,0:0:0:0:
