osu file format v14

[General]
AudioFilename: audio.mp3
AudioLeadIn: 0
PreviewTime: 57322
Countdown: 0
SampleSet: Soft
StackLeniency: 0.7
Mode: 0
LetterboxInBreaks: 0
WidescreenStoryboard: 1

[Editor]
Bookmarks: 7580,15962,30080,52139,72433,86330
DistanceSpacing: 1.2
BeatDivisor: 4
GridSize: 4
TimelineZoom: 0.7999997

[Metadata]
Title:here and there
TitleUnicode:here and there
Artist:yanaginagi
ArtistUnicode:やなぎなぎ
Creator:tasuke912
Version:Hard
Source:キノの旅 -the Beautiful World- the Animated Series
Tags:Kino no tabi kino's journey
BeatmapID:1447405
BeatmapSetID:681885

[Difficulty]
HPDrainRate:4
CircleSize:3.8
OverallDifficulty:6
ApproachRate:7
SliderMultiplier:1.45
SliderTickRate:1

[Events]
//Background and Video events
0,0,"bg.png",0,0
//Break Periods
//Storyboard Layer 0 (Background)
//Storyboard Layer 1 (Fail)
//Storyboard Layer 2 (Pass)
//Storyboard Layer 3 (Foreground)
//Storyboard Sound Samples

[TimingPoints]
1845,441.176470588235,4,2,1,60,1,0
1845,-111.111111111111,4,2,1,60,0,0
8021,-111.111111111111,4,2,1,40,0,0
8903,-111.111111111111,4,2,1,60,0,0
44197,-111.111111111111,4,2,1,40,0,0
51256,-111.111111111111,4,2,1,60,0,0
58315,-100,4,2,1,70,0,1
86550,-100,4,2,3,70,0,0
86661,-100,4,2,3,5,0,0

[Colours]
Combo1 : 124,222,205
Combo2 : 255,128,128
Combo3 : 214,189,116
Combo4 : 155,213,145

[HitObjects]
130,147,1845,5,2,0:0:0:0:
214,140,2065,2,0,L|336:127,1,65.2499980087281
355,96,2506,1,0,0:0:0:0:
348,180,2727,2,0,B|334:250|373:241|363:308,1,130.499996017456
279,290,3389,6,0,L|206:280,1,65.2499980087281,0|2,0:0|0:0,0:0:0:0:
153,221,3830,2,0,L|80:231,1,65.2499980087281
33,294,4271,2,0,P|4:237|24:172,1,130.499996017456
101,148,4933,2,0,L|165:139,1,65.2499980087281
232,191,5374,5,2,0:0:0:0:
152,221,5594,2,0,P|139:286|172:351,1,130.499996017456
247,326,6256,2,0,L|381:311,1,130.499996017456
459,330,6918,2,0,L|469:246,1,65.2499980087281,0|2,0:0|0:0,0:0:0:0:
391,225,7359,2,0,L|383:160,1,65.2499980087281
458,120,7800,1,0,0:0:0:0:
437,37,8021,2,0,B|345:75|340:11|245:54,1,195.749994026184
195,121,8903,6,0,P|145:103|171:35,1,130.499996017456,0|8,0:0|0:0,0:0:0:0:
246,53,9565,1,0,0:0:0:0:
279,131,9786,2,0,L|286:265,1,130.499996017456,0|8,0:0|0:0,0:0:0:0:
293,345,10447,6,0,P|260:342|231:327,1,65.2499980087281
155,288,10889,2,0,P|122:290|93:305,1,65.2499980087281,0|8,0:0|0:0,0:0:0:0:
54,380,11330,2,0,P|17:344|26:251,1,130.499996017456
84,220,11992,2,0,L|92:147,1,65.2499980087281,8|0,0:0|0:0,0:0:0:0:
73,71,12433,5,0,0:0:0:0:
154,93,12653,2,0,L|235:87,1,65.2499980087281,0|8,0:0|0:0,0:0:0:0:
283,33,13094,5,0,0:0:0:0:
305,114,13314,2,0,L|299:195,1,65.2499980087281,0|0,0:0|0:0,0:0:0:0:
358,241,13756,5,8,0:0:0:0:
277,263,13976,2,0,L|196:257,1,65.2499980087281,0|0,0:0|0:0,0:0:0:0:
150,317,14418,5,0,0:0:0:0:
128,236,14638,2,0,L|134:155,1,65.2499980087281,8|0,0:0|0:0,0:0:0:0:
138,128,14969,1,0,0:0:0:0:
138,128,15080,1,0,0:0:0:0:
163,46,15300,1,0,0:0:0:0:
220,110,15521,1,8,0:0:0:0:
246,30,15742,1,0,0:0:0:0:
195,189,15962,6,0,P|258:186|299:137,1,130.499996017456,4|0,0:0|0:0,0:0:0:0:
328,57,16624,1,0,0:0:0:0:
382,121,16844,2,0,L|467:115,2,65.2499980087281
355,201,17506,2,0,L|346:280,1,65.2499980087281
340,350,17947,1,0,0:0:0:0:
417,314,18168,1,0,0:0:0:0:
347,265,18389,2,0,P|284:248|220:260,1,130.499996017456
176,331,19050,2,0,L|92:321,1,65.2499980087281
27,337,19492,6,0,P|33:286|99:235,1,130.499996017456,2|0,0:0|0:0,0:0:0:0:
173,221,20153,1,0,0:0:0:0:
116,157,20374,2,0,L|103:82,2,65.2499980087281
199,139,21036,1,0,0:0:0:0:
199,139,21146,1,0,0:0:0:0:
199,139,21256,2,0,L|303:127,1,97.8749970130921,2|2,0:0|0:0,0:0:0:0:
327,157,21697,2,0,L|406:166,1,65.2499980087281,0|2,0:0|0:0,0:0:0:0:
465,207,22139,2,0,P|478:173|474:137,1,65.2499980087281
413,87,22580,2,0,P|400:53|404:17,1,65.2499980087281
484,45,23021,6,0,L|326:60,1,130.499996017456,4|8,0:0|0:0,0:0:0:0:
269,69,23683,1,0,0:0:0:0:
191,103,23903,1,0,0:0:0:0:
196,18,24124,1,0,0:0:0:0:
269,69,24344,1,8,0:0:0:0:
191,103,24565,2,0,P|176:161|196:235,1,130.499996017456
275,246,25227,1,8,0:0:0:0:
297,164,25447,2,0,L|439:150,1,130.499996017456
441,233,26109,1,8,0:0:0:0:
441,233,26550,6,0,B|425:307|466:291|450:374,1,130.499996017456,0|8,0:0|0:0,0:0:0:0:
369,342,27212,2,0,P|337:337|286:346,1,65.2499980087281
223,367,27653,1,0,0:0:0:0:
241,283,27874,2,0,P|247:251|245:218,1,65.2499980087281,8|0,0:0|0:0,0:0:0:0:
168,182,28315,2,0,L|319:159,1,130.499996017456,0|8,0:0|0:0,0:0:0:0:
377,188,28977,2,0,P|381:157|371:122,1,65.2499980087281,2|0,0:0|0:0,0:0:0:0:
312,63,29418,1,8,0:0:0:0:
394,42,29639,1,8,0:0:0:0:
452,103,29859,1,0,0:0:0:0:
289,143,30080,6,0,L|148:134,1,130.499996017456,4|0,0:0|0:0,0:0:0:0:
82,171,30742,1,0,0:0:0:0:
82,86,30962,2,0,P|109:55|156:45,2,65.2499980087281
82,171,31624,2,0,L|69:260,1,65.2499980087281
41,314,32065,1,0,0:0:0:0:
119,346,32286,1,0,0:0:0:0:
155,269,32506,2,0,B|224:249|219:289|286:266,1,130.499996017456
361,234,33168,2,0,L|378:167,1,65.2499980087281
315,112,33609,6,0,P|367:88|446:116,1,130.499996017456,2|0,0:0|0:0,0:0:0:0:
463,186,34271,1,0,0:0:0:0:
477,269,34492,2,0,L|491:355,2,65.2499980087281
397,240,35153,1,0,0:0:0:0:
397,240,35264,1,0,0:0:0:0:
397,240,35374,2,0,L|279:230,1,97.8749970130921,2|2,0:0|0:0,0:0:0:0:
270,263,35815,2,0,L|174:268,1,65.2499980087281,0|2,0:0|0:0,0:0:0:0:
131,308,36256,2,0,P|122:261|137:216,1,65.2499980087281
176,177,36697,2,0,P|189:143|185:107,1,65.2499980087281
105,135,37138,6,0,L|263:150,1,130.499996017456,4|8,0:0|0:0,0:0:0:0:
308,190,37800,1,0,0:0:0:0:
308,105,38021,1,0,0:0:0:0:
234,147,38242,1,0,0:0:0:0:
308,190,38462,1,8,0:0:0:0:
381,146,38683,2,0,P|391:116|388:83,1,65.2499980087281
329,23,39124,1,0,0:0:0:0:
308,105,39344,1,8,0:0:0:0:
247,44,39565,2,0,P|166:42|102:39,1,130.499996017456
39,4,40227,1,8,0:0:0:0:
39,4,40668,6,0,P|40:73|81:116,1,130.499996017456,2|4,0:0|0:0,0:0:0:0:
164,110,41330,1,0,0:0:0:0:
116,39,41550,2,0,P|174:32|254:22,1,130.499996017456,0|8,0:0|0:0,0:0:0:0:
330,13,42212,1,0,0:0:0:0:
294,89,42433,2,0,P|282:153|301:215,1,130.499996017456,0|8,0:0|0:0,0:0:0:0:
381,238,43094,2,0,P|342:287|279:293,1,130.499996017456,2|0,0:0|0:0,0:0:0:0:
219,231,43756,1,8,0:0:0:0:
294,89,44197,6,0,L|300:17,1,65.2499980087281,0|0,1:0|1:0,0:0:0:0:
130,39,44859,2,0,P|136:131|220:165,1,195.749994026184,2|0,0:0|0:0,0:0:0:0:
204,82,45742,1,0,0:0:0:0:
130,39,45962,2,0,P|65:30|-1:42,1,130.499996017456
2,126,46624,2,0,P|67:135|133:123,1,130.499996017456
204,82,47286,1,0,0:0:0:0:
196,252,47727,6,0,L|190:324,1,65.2499980087281,0|0,1:0|1:0,0:0:0:0:
360,302,48389,2,0,P|354:210|270:176,1,195.749994026184,2|0,0:0|0:0,0:0:0:0:
286,259,49272,1,0,0:0:0:0:
360,302,49492,2,0,P|425:311|491:299,1,130.499996017456,2|0,0:0|0:0,0:0:0:0:
488,215,50154,2,0,P|423:206|357:218,1,130.499996017456,2|0,0:0|0:0,0:0:0:0:
285,258,50815,2,0,P|276:227|279:194,1,65.2499980087281
335,132,51256,6,0,P|350:92|285:46,1,130.499996017456
253,122,51918,1,2,0:0:0:0:
168,110,52139,2,0,L|13:92,1,130.499996017456
6,173,52800,1,0,0:0:0:0:
33,253,53021,2,0,L|162:237,1,130.499996017456,2|0,0:0|0:0,0:0:0:0:
246,223,53683,1,2,0:0:0:0:
213,300,53903,2,0,L|225:384,1,65.2499980087281
307,359,54344,2,0,L|297:294,1,65.2499980087281,2|0,0:0|0:0,0:0:0:0:
246,223,54786,6,0,P|224:171|263:92,1,130.499996017456,0|8,0:0|0:0,0:0:0:0:
329,81,55447,1,0,0:0:0:0:
310,163,55668,2,0,L|378:184,2,65.2499980087281,0|0|8,0:0|0:0|0:0,0:0:0:0:
248,104,56330,5,0,1:0:0:0:
248,104,56771,5,0,1:0:0:0:
208,247,56991,1,0,1:0:0:0:
248,104,58315,6,0,P|180:84|110:101,1,145,4|8,0:0|0:0,0:0:0:0:
77,182,58977,1,0,0:0:0:0:
122,255,59197,2,0,P|173:302|169:372,1,145,2|8,0:0|0:0,0:0:0:0:
88,338,59859,1,0,0:0:0:0:
11,294,60080,2,0,L|20:127,1,145,2|8,0:0|0:0,0:0:0:0:
24,62,60742,1,0,0:0:0:0:
97,108,60962,2,0,B|168:139|172:90|237:120,1,145,2|8,0:0|0:0,0:0:0:0:
305,175,61624,1,0,0:0:0:0:
310,170,61734,1,0,0:0:0:0:
313,163,61844,6,0,P|322:97|266:41,1,145,2|8,0:0|0:0,0:0:0:0:
185,51,62506,1,0,0:0:0:0:
237,120,62727,2,0,P|234:191|232:268,1,145,0|8,0:0|0:0,0:0:0:0:
229,352,63389,1,0,0:0:0:0:
153,309,63609,2,0,P|115:282|165:215,1,145,0|8,0:0|0:0,0:0:0:0:
304,311,64492,1,0,0:0:0:0:
310,224,64712,1,0,0:0:0:0:
231,264,64933,1,8,0:0:0:0:
237,177,65153,1,0,0:0:0:0:
379,274,65374,6,0,P|397:226|342:145,1,145,4|8,0:0|0:0,0:0:0:0:
279,102,66036,1,0,0:0:0:0:
237,177,66256,2,0,B|167:197|173:149|90:177,1,145,2|8,0:0|0:0,0:0:0:0:
24,226,66918,1,0,0:0:0:0:
11,139,67139,2,0,P|45:98|138:95,1,145,2|8,0:0|0:0,0:0:0:0:
193,151,67800,1,0,0:0:0:0:
257,92,68021,2,0,P|280:166|232:228,1,145,2|8,0:0|0:0,0:0:0:0:
184,280,68683,1,0,0:0:0:0:
184,280,68793,1,0,0:0:0:0:
184,280,68903,6,0,P|240:270|338:284,1,145,2|8,0:0|0:0,0:0:0:0:
397,330,69565,1,0,0:0:0:0:
408,243,69786,2,0,L|418:168,1,72.5
334,145,70227,2,0,L|324:73,1,72.5,8|0,0:0|0:0,0:0:0:0:
400,27,70668,2,0,L|417:170,1,145,0|8,0:0|0:0,0:0:0:0:
484,226,71330,1,0,0:0:0:0:
402,256,71550,1,0,0:0:0:0:
402,256,71661,1,0,0:0:0:0:
402,256,71771,1,0,0:0:0:0:
417,170,71992,1,8,0:0:0:0:
426,335,72212,6,0,P|391:338|357:326,1,72.5,0|4,0:0|0:0,0:0:0:0:
310,251,72653,1,0,0:0:0:0:
236,297,72874,1,8,0:0:0:0:
281,370,73094,1,0,0:0:0:0:
356,325,73315,2,0,P|392:285|375:191,1,145,0|8,0:0|0:0,0:0:0:0:
301,162,73977,1,0,0:0:0:0:
371,111,74197,2,0,L|445:103,1,72.5,2|0,0:0|0:0,0:0:0:0:
488,28,74639,2,0,L|415:20,1,72.5,8|0,0:0|0:0,0:0:0:0:
330,35,75080,2,0,P|288:92|299:161,1,145,0|8,0:0|0:0,0:0:0:0:
381,199,75742,6,0,L|457:191,1,72.5,0|2,0:0|0:0,0:0:0:0:
504,261,76183,1,0,0:0:0:0:
471,341,76403,1,8,0:0:0:0:
418,271,76624,1,0,0:0:0:0:
383,350,76844,2,0,P|348:354|312:349,1,72.5
244,294,77286,1,8,0:0:0:0:
322,257,77506,2,0,P|269:212|199:220,1,145
155,295,78168,1,8,0:0:0:0:
198,370,78389,2,0,P|267:378|321:333,1,145
291,249,79050,2,0,P|283:215|291:180,1,72.5,8|0,0:0|0:0,0:0:0:0:
320,96,79492,6,0,P|371:144|370:215,1,145,4|8,0:0|0:0,0:0:0:0:
291,249,80153,1,0,0:0:0:0:
213,209,80374,2,0,B|159:193|113:220|113:220|95:201|65:193,1,145,0|8,0:0|0:0,0:0:0:0:
3,153,81036,1,0,0:0:0:0:
7,239,81256,2,0,L|19:383,1,145,2|8,0:0|0:0,0:0:0:0:
103,361,81918,1,2,0:0:0:0:
189,371,82139,2,0,P|168:304|104:274,1,145,0|8,0:0|0:0,0:0:0:0:
29,317,82800,1,0,0:0:0:0:
103,361,83021,6,0,L|273:343,1,145,4|8,0:0|0:0,0:0:0:0:
333,335,83683,1,0,0:0:0:0:
381,263,83903,2,0,L|472:255,2,72.5,0|0|8,0:0|0:0|0:0,0:0:0:0:
304,220,84565,1,0,0:0:0:0:
304,220,84675,1,0,0:0:0:0:
303,219,84786,2,0,P|280:153|308:88,1,145,2|8,0:0|0:0,0:0:0:0:
393,70,85447,1,2,0:0:0:0:
415,154,85668,2,0,L|379:156,2,36.25
433,239,86109,2,0,L|469:241,2,36.25,8|0|0,0:0|0:0|0:0,0:0:0:0:
302,219,86550,5,6,0:0:0:0:
256,192,86771,12,2,89197,0:0:0:0:
