osu file format v14

[General]
AudioFilename: audio.mp3
AudioLeadIn: 0
PreviewTime: 57322
Countdown: 0
SampleSet: Soft
StackLeniency: 0.7
Mode: 0
LetterboxInBreaks: 0
WidescreenStoryboard: 1

[Editor]
Bookmarks: 7580,15962,30080,52139,72433,86330
DistanceSpacing: 0.9
BeatDivisor: 2
GridSize: 4
TimelineZoom: 0.7999997

[Metadata]
Title:here and there
TitleUnicode:here and there
Artist:yanaginagi
ArtistUnicode:やなぎなぎ
Creator:tasuke912
Version:Easy
Source:キノの旅 -the Beautiful World- the Animated Series
Tags:Kino no tabi kino's journey
BeatmapID:1442161
BeatmapSetID:681885

[Difficulty]
HPDrainRate:3
CircleSize:3
OverallDifficulty:2
ApproachRate:3
SliderMultiplier:0.999999999999999
SliderTickRate:1

[Events]
//Background and Video events
0,0,"bg.png",0,0
//Break Periods
//Storyboard Layer 0 (Background)
//Storyboard Layer 1 (Fail)
//Storyboard Layer 2 (Pass)
//Storyboard Layer 3 (Foreground)
//Storyboard Sound Samples

[TimingPoints]
1845,441.176470588235,4,2,1,60,1,0
1845,-100,4,2,1,60,0,0
8021,-100,4,2,1,40,0,0
8903,-100,4,2,1,60,0,0
44197,-100,4,2,1,40,0,0
51256,-100,4,2,1,60,0,0
58315,-100,4,2,1,70,0,1
86550,-100,4,2,3,70,0,0
86661,-100,4,2,3,5,0,0

[Colours]
Combo1 : 124,222,205
Combo2 : 255,128,128
Combo3 : 214,189,116
Combo4 : 155,213,145

[HitObjects]
90,194,1845,6,0,B|197:170|179:223|289:189,1,200,2|0,0:0|0:0,0:0:0:0:
315,104,3168,1,0,0:0:0:0:
225,97,3609,2,0,P|254:36|382:44,1,200,2|0,0:0|0:0,0:0:0:0:
404,119,4933,1,0,0:0:0:0:
343,187,5374,6,0,B|330:237|357:278|357:278|305:253|256:279,1,200,2|0,0:0|0:0,0:0:0:0:
181,327,6697,1,0,0:0:0:0:
101,283,7139,2,0,L|94:149,1,99.9999999999999,2|0,0:0|0:0,0:0:0:0:
66,98,8021,2,0,L|17:109,2,50
153,118,8903,6,0,B|209:139|209:139|278:99|360:138,1,200,4|0,0:0|0:0,0:0:0:0:
413,188,10227,1,8,0:0:0:0:
328,219,10668,2,0,P|307:268|316:314,1,99.9999999999999,0|8,0:0|0:0,0:0:0:0:
383,370,11550,2,0,P|404:321|395:275,1,99.9999999999999,0|8,0:0|0:0,0:0:0:0:
413,188,12433,6,0,L|195:199,1,200
128,229,13756,1,8,0:0:0:0:
45,192,14197,2,0,L|32:86,2,99.9999999999999,0|8|0,0:0|0:0|0:0,0:0:0:0:
55,281,15521,1,8,0:0:0:0:
128,229,15962,6,0,B|200:212|200:212|339:240,1,200,4|0,0:0|0:0,0:0:0:0:
404,275,17286,1,0,0:0:0:0:
395,184,17727,2,0,P|450:138|522:149,2,150
476,226,19492,6,0,P|394:273|313:219,1,200,2|0,0:0|0:0,0:0:0:0:
323,132,20815,1,0,0:0:0:0:
404,93,21256,2,0,P|348:48|263:68,2,150,2|2|0,0:0|0:0|0:0,0:0:0:0:
395,185,23021,6,0,L|385:318,1,99.9999999999999,4|8,0:0|0:0,0:0:0:0:
298,300,23903,2,0,L|305:200,1,99.9999999999999,0|8,0:0|0:0,0:0:0:0:
242,134,24786,2,0,P|285:111|334:115,2,99.9999999999999,0|8|0,0:0|0:0|0:0,0:0:0:0:
220,221,26109,1,8,0:0:0:0:
204,309,26550,6,0,L|76:318,1,99.9999999999999,0|8,0:0|0:0,0:0:0:0:
33,371,27433,2,0,P|16:315|32:266,1,99.9999999999999,0|8,0:0|0:0,0:0:0:0:
100,225,28315,2,0,B|108:144|77:158|85:76,2,150,0|2|8,0:0|0:0|0:0,0:0:0:0:
104,316,30080,6,0,B|157:315|183:263|183:263|235:282|292:250,1,200,4|0,0:0|0:0,0:0:0:0:
318,175,31403,1,0,0:0:0:0:
328,85,31844,2,0,P|258:104|228:171,2,150
400,138,33609,6,0,P|385:234|288:258,1,200,2|0,0:0|0:0,0:0:0:0:
225,205,34933,1,0,0:0:0:0:
158,144,35374,2,0,L|9:160,2,150,2|2|0,0:0|0:0|0:0,0:0:0:0:
242,110,37139,6,0,P|246:159|224:204,1,99.9999999999999,4|8,0:0|0:0,0:0:0:0:
158,265,38021,2,0,P|154:314|176:358,1,99.9999999999999,0|8,0:0|0:0,0:0:0:0:
243,298,38903,2,0,L|370:302,2,99.9999999999999,0|8|0,0:0|0:0|0:0,0:0:0:0:
158,265,40227,1,8,0:0:0:0:
90,205,40668,6,0,L|83:97,1,99.9999999999999,2|8,0:0|0:0,0:0:0:0:
168,76,41550,2,0,L|174:175,1,99.9999999999999,0|8,0:0|0:0,0:0:0:0:
157,264,42433,2,0,P|229:250|264:187,2,150,0|2|8,0:0|0:0|0:0,0:0:0:0:
79,220,44197,6,0,L|-7:231,1,50,0|0,1:0|1:0,1:0:0:0:
29,136,44859,2,0,L|192:115,1,150,2|0,0:0|0:0,0:0:0:0:
256,160,45962,2,0,P|262:88|214:33,2,150
193,225,47727,6,0,L|133:230,1,50,0|0,1:0|1:0,1:0:0:0:
117,315,48389,2,0,L|277:301,1,150,2|0,0:0|0:0,0:0:0:0:
340,250,49492,2,0,P|350:331|301:384,2,150,2|2|0,0:0|0:0|0:0,0:0:0:0:
267,199,51256,6,0,L|281:100,1,99.9999999999999
349,41,52139,2,0,P|297:12|248:18,1,99.9999999999999
196,79,53021,2,0,P|147:88|99:75,2,99.9999999999999
258,14,54344,1,0,0:0:0:0:
281,99,54786,6,0,B|298:149|257:169|283:227|283:227|328:303|431:282|445:200|445:200|431:295|519:336,1,499.999999999999,4|0,0:0|0:0,0:0:0:0:
360,185,58315,6,0,L|233:172,1,99.9999999999999,4|8,0:0|0:0,0:0:0:0:
182,219,59197,2,0,P|171:180|191:118,1,99.9999999999999,0|8,0:0|0:0,0:0:0:0:
266,81,60080,2,0,L|365:70,2,99.9999999999999,0|8|0,0:0|0:0|0:0,0:0:0:0:
186,39,61403,1,8,0:0:0:0:
100,12,61844,6,0,P|96:58|132:111,1,99.9999999999999,0|8,0:0|0:0,0:0:0:0:
200,144,62727,2,0,P|207:194|194:242,1,99.9999999999999,0|8,0:0|0:0,0:0:0:0:
108,267,63609,2,0,B|85:310|105:364|105:364|164:366|194:330,1,200
273,286,64933,1,8,0:0:0:0:
351,330,65374,6,0,L|468:320,1,99.9999999999999,2|8,0:0|0:0,0:0:0:0:
450,231,66256,2,0,L|350:239,1,99.9999999999999,0|8,0:0|0:0,0:0:0:0:
273,286,67139,2,0,P|260:238|277:190,2,99.9999999999999,0|8|0,0:0|0:0|0:0,0:0:0:0:
351,330,68462,1,8,0:0:0:0:
428,285,68903,6,0,P|440:237|424:188,1,99.9999999999999,2|8,0:0|0:0,0:0:0:0:
348,142,69786,2,0,P|334:97|345:47,1,99.9999999999999,0|8,0:0|0:0,0:0:0:0:
422,93,70668,2,0,L|186:107,1,200
146,154,71992,1,8,0:0:0:0:
65,114,72433,6,0,P|56:163|75:208,1,99.9999999999999,4|8,0:0|0:0,0:0:0:0:
151,255,73315,2,0,P|160:304|141:349,1,99.9999999999999,0|8,0:0|0:0,0:0:0:0:
57,381,74197,1,2,0:0:0:0:
71,292,74639,2,0,B|46:248|79:181|74:206|108:156|73:88,1,200,8|8,0:0|0:0,0:0:0:0:
5,45,75962,6,0,P|48:14|110:16,1,99.9999999999999,2|8,0:0|0:0,0:0:0:0:
160,70,76844,2,0,P|208:82|257:70,1,99.9999999999999,0|8,0:0|0:0,0:0:0:0:
326,126,77727,2,0,L|305:243,2,99.9999999999999,2|8|0,0:0|0:0|0:0,0:0:0:0:
341,37,79050,1,8,0:0:0:0:
409,95,79492,6,0,B|450:151|450:151|433:309,1,200
425,370,80815,1,8,0:0:0:0:
353,316,81256,2,0,P|305:304|256:309,1,99.9999999999999,2|8,0:0|0:0,0:0:0:0:
173,346,82139,1,0,0:0:0:0:
94,306,82580,1,8,0:0:0:0:
7,330,83021,6,0,B|-4:274|35:238|35:238|76:200|66:147,1,200,2|0,0:0|0:0,0:0:0:0:
23,69,84344,1,8,0:0:0:0:
113,70,84786,2,0,P|173:31|267:49,2,150,2|0|8,0:0|0:0|0:0,0:0:0:0:
66,148,86550,5,6,0:0:0:0:
256,192,86771,12,2,89197,0:0:0:0:
