osu file format v14

[General]
AudioFilename: audio.mp3
AudioLeadIn: 0
PreviewTime: 62306
Countdown: 0
SampleSet: Soft
StackLeniency: 0.3
Mode: 0
LetterboxInBreaks: 0
WidescreenStoryboard: 0

[Editor]
DistanceSpacing: 1.1
BeatDivisor: 2
GridSize: 4
TimelineZoom: 1

[Metadata]
Title:can cry
TitleUnicode:can cry
Artist:yanaginagi
ArtistUnicode:やなぎなぎ
Creator:Nyukai
Version:Mephistopheles
Source:CRYSTAR -クライスタ-
Tags:未明の君と薄明の魔法 mimei no kimi to hakumei no maho mahō mahou video game videogame japanese j-pop jpop pop rock jrock j-rock collab collaboration akareh pikaqours mrmenda BLTNLeo ps4 pc playstation 4 short version
BeatmapID:3211474
BeatmapSetID:1572850

[Difficulty]
HPDrainRate:5.5
CircleSize:4
OverallDifficulty:8.5
ApproachRate:9.2
SliderMultiplier:1.8
SliderTickRate:1

[Events]
//Background and Video events
0,0,"bg.jpg",0,0
//Break Periods
//Storyboard Layer 0 (Background)
//Storyboard Layer 1 (Fail)
//Storyboard Layer 2 (Pass)
//Storyboard Layer 3 (Foreground)
//Storyboard Layer 4 (Overlay)
//Storyboard Sound Samples

[TimingPoints]
1328,326.086956521739,4,2,1,40,1,0
1328,-222.22222222222,4,2,1,40,0,0
9154,-500,4,2,1,40,0,0
11599,-399.999999999994,4,2,1,5,0,0
12414,-399.999999999994,4,2,1,10,0,0
13393,-399.999999999994,4,2,1,20,0,0
14371,-399.999999999994,4,2,1,5,0,0
15675,-222.222222222221,4,2,1,40,0,0
26110,-222.222222222221,4,2,2,40,0,0
31246,-222.222222222221,4,2,2,5,0,0
31327,-222.222222222221,4,2,2,40,0,0
35811,-181.818181818181,4,2,1,5,0,0
35893,-181.818181818181,4,2,1,50,0,0
36545,-100,4,2,1,60,0,0
39154,-250,4,2,1,40,0,0
41110,-250,4,2,1,60,0,0
41762,-100,4,2,1,60,0,0
42659,-100,4,2,1,5,0,0
42741,-100,4,2,1,60,0,0
46898,-100,4,2,1,5,0,0
46980,-100,4,2,1,60,0,0
50485,-100,4,2,1,5,0,0
50567,-100,4,2,1,60,0,0
52197,-90.9090909090909,4,2,1,70,0,0
53094,-90.9090909090909,4,2,1,5,0,0
53175,-90.9090909090909,4,2,1,70,0,0
56681,-90.9090909090909,4,2,1,5,0,0
56762,-90.9090909090909,4,2,1,70,0,0
58311,-90.9090909090909,4,2,1,5,0,0
58393,-90.9090909090909,4,2,1,70,0,0
61491,-133.333333333333,4,2,1,40,0,0
62550,-133.333333333333,4,2,1,5,0,0
62632,-100,4,2,1,80,0,1
68746,-100,4,2,1,5,0,1
68827,-100,4,2,1,80,0,1
69887,-100,4,2,1,5,0,1
69969,-100,4,2,1,80,0,1
75594,-100,4,2,1,5,0,1
75675,-100,4,2,1,80,0,1
81137,-100,4,2,1,5,0,1
81219,-100,4,2,1,80,0,1
87414,-200,4,2,1,50,0,0
88719,-400,4,2,1,50,0,0
88800,-400,4,2,1,20,0,0

[Colours]
Combo1 : 218,185,240
Combo2 : 231,65,235

[HitObjects]
264,122,1328,5,2,0:0:0:0:
297,260,1654,1,2,0:0:0:0:
397,96,1980,1,2,0:0:0:0:
208,214,2306,1,2,0:0:0:0:
366,363,2632,2,0,P|400:294|364:224,1,161.999995056153,2|0,0:0|0:0,0:0:0:0:
266,125,3610,1,2,0:0:0:0:
227,286,3936,6,0,B|147:254|147:318|67:286,1,161.999995056153,2|0,0:0|0:0,0:0:0:0:
71,288,5241,1,2,0:0:0:0:
198,121,5893,1,2,0:0:0:0:
277,290,6545,6,0,B|321:312|321:312|428:276,1,161.999995056153,2|2,0:0|0:0,0:0:0:0:
461,157,7849,1,2,0:0:0:0:
249,255,8501,1,2,0:0:0:0:
66,79,9154,6,0,B|222:35|157:139|328:77,1,270,2|0,0:0|0:0,0:0:0:0:
256,192,11762,12,0,14371,0:0:0:0:
361,175,15675,5,2,0:0:0:0:
361,175,15838,2,0,P|375:210|364:253,1,80.9999975280763,2|2,0:0|0:0,0:0:0:0:
257,341,16654,2,0,B|218:325|218:325|130:342,1,121.499996292114,2|0,0:0|0:0,0:0:0:0:
119,342,17632,1,2,0:0:0:0:
101,189,17958,1,2,0:0:0:0:
287,285,18284,5,2,0:0:0:0:
287,285,20567,1,2,0:0:0:0:
287,285,20730,1,0,0:0:0:0:
157,368,20893,5,2,0:0:0:0:
92,293,21056,2,0,P|81:254|98:211,1,80.9999975280763,0|2,0:0|0:0,0:0:0:0:
188,111,21708,1,0,0:0:0:0:
188,111,21871,2,0,B|258:92|231:135|312:114,1,121.499996292114,2|2,0:0|0:0,0:0:0:0:
304,110,22849,1,2,0:0:0:0:
401,218,23175,1,0,0:0:0:0:
278,354,23501,6,0,P|212:354|142:291,1,161.999995056153,2|0,0:0|0:0,0:0:0:0:
197,143,24480,1,2,0:0:0:0:
197,143,26110,5,2,0:0:0:0:
300,80,26273,2,0,L|395:68,2,80.9999975280763,0|2|0,0:0|0:0|0:0,0:0:0:0:
260,220,27088,2,0,B|300:208|300:208|351:225,1,80.9999975280763,10|0,0:0|0:0,0:0:0:0:
422,318,27577,1,2,0:0:0:0:
422,318,27741,2,0,B|381:331|381:331|342:319,1,80.9999975280763,8|2,0:0|0:0,0:0:0:0:
254,295,28230,1,0,0:0:0:0:
187,361,28393,1,10,0:0:0:0:
187,361,28556,1,0,0:0:0:0:
54,278,28719,6,0,L|64:197,1,80.9999975280763,2|8,0:0|0:0,0:0:0:0:
173,124,29208,2,0,L|183:204,1,80.9999975280763,2|0,0:0|0:0,0:0:0:0:
254,295,29697,2,0,P|292:285|341:301,1,80.9999975280763,8|0,0:0|0:0,0:0:0:0:
411,358,30186,1,0,0:0:0:0:
479,280,30349,1,10,0:0:0:0:
479,280,30512,2,0,P|489:242|475:200,1,80.9999975280763,0|2,0:0|0:0,0:0:0:0:
401,80,31001,2,0,L|330:88,1,60.7499981460572,8|0,0:0|0:0,0:0:0:0:
291,95,31327,6,0,P|254:109|213:93,1,80.9999975280763,2|8,0:0|0:0,0:0:0:0:
120,57,31817,2,0,L|65:50,2,40.4999987640381,2|0|0,0:0|0:0|0:0,0:0:0:0:
168,171,32306,1,10,0:0:0:0:
168,171,32469,2,0,B|179:208|179:208|169:249,1,80.9999975280763
262,352,32958,1,10,0:0:0:0:
262,352,33121,2,0,L|358:339,1,80.9999975280763,2|0,0:0|0:0,0:0:0:0:
435,301,33610,1,10,0:0:0:0:
435,301,33773,1,0,0:0:0:0:
328,214,33936,6,0,P|316:175|330:134,1,80.9999975280763,2|8,0:0|0:0,0:0:0:0:
361,54,34425,1,2,0:0:0:0:
161,162,34751,1,0,0:0:0:0:
161,162,34914,1,8,0:0:0:0:
161,162,35241,2,0,L|168:215,1,40.4999987640381,2|0,0:0|0:0,0:0:0:0:
225,317,35567,2,0,B|255:307|255:307|298:313,1,60.7499981460572,8|0,0:0|0:0,0:0:0:0:
327,325,35893,5,0,1:0:0:0:
355,336,35974,1,0,1:0:0:0:
386,338,36056,1,0,1:0:0:0:
416,330,36137,1,0,1:0:0:0:
441,313,36219,2,0,L|446:272,1,24.7500007553101,8|8,0:0|0:0,0:0:0:0:
358,207,36382,2,0,L|361:231,1,24.7500007553101,8|8,0:0|0:0,0:0:0:0:
450,175,36545,5,2,1:2:0:0:
344,88,36708,1,0,0:0:0:0:
269,246,36871,1,8,0:0:0:0:
435,87,37034,1,0,0:0:0:0:
383,294,37197,1,2,1:2:0:0:
257,144,37360,1,0,1:0:0:0:
130,272,37523,2,0,B|117:317|117:317|136:362,1,90,8|0,0:0|0:0,0:0:0:0:
306,356,37849,5,2,1:2:0:0:
181,209,38012,1,0,1:0:0:0:
354,202,38175,1,8,0:0:0:0:
211,364,38338,1,0,0:0:0:0:
270,139,38501,1,2,1:2:0:0:
126,281,38664,1,0,1:0:0:0:
373,384,38827,2,0,L|384:294,1,90,12|0,0:0|0:0,0:0:0:0:
477,69,39154,6,0,B|423:50|423:50|363:68|363:68|297:54,1,180,6|0,1:2|0:0,0:0:0:0:
175,188,40132,2,0,P|259:163|348:216,1,180,2|0,0:0|0:0,0:0:0:0:
369,295,41110,5,8,0:0:0:0:
426,151,41273,1,0,1:0:0:0:
245,280,41436,1,0,1:0:0:0:
245,280,41762,5,6,1:2:0:0:
166,344,41925,1,0,1:0:0:0:
216,180,42088,1,2,0:0:0:0:
322,218,42251,1,0,1:0:0:0:
137,252,42414,2,0,L|-7:233,1,135,10|0,0:0|0:0,0:0:0:0:
3,235,42741,1,0,1:0:0:0:
162,72,42904,2,0,P|178:114|168:157,1,90,10|0,0:0|0:0,0:0:0:0:
166,344,43230,5,8,0:0:0:0:
322,218,43393,2,0,L|426:204,1,90,2|0,1:2|1:0,0:0:0:0:
290,46,43719,1,10,0:0:0:0:
236,255,43882,1,0,1:0:0:0:
409,92,44045,1,8,0:0:0:0:
206,138,44208,1,10,0:0:0:0:
206,138,44289,1,0,1:0:0:0:
206,138,44371,6,0,L|116:126,1,90,2|0,1:2|1:0,0:0:0:0:
27,204,44697,1,2,0:0:0:0:
157,211,44860,1,0,1:0:0:0:
25,118,45023,2,0,B|12:163|12:163|31:215,1,90,10|0,0:0|1:0,0:0:0:0:
175,348,45349,1,2,0:0:0:0:
374,296,45512,6,0,L|362:206,1,90,8|0,0:0|0:0,0:0:0:0:
216,35,45838,1,10,0:0:0:0:
136,177,46001,2,0,L|124:267,1,90,0|0,1:0|1:0,0:0:0:0:
140,301,46246,1,0,1:0:0:0:
140,301,46327,1,10,1:2:0:0:
239,202,46491,1,0,1:0:0:0:
318,349,46654,2,0,P|362:370|444:329,1,135,10|0,0:0|0:0,0:0:0:0:
450,304,46980,5,2,1:2:0:0:
318,258,47143,1,0,1:0:0:0:
450,220,47306,1,2,0:0:0:0:
318,349,47469,1,0,1:0:0:0:
339,185,47632,2,0,B|323:140|323:140|341:97,1,90,10|0,0:0|1:0,0:0:0:0:
476,32,47958,1,0,1:0:0:0:
450,220,48121,6,0,B|466:265|466:265|448:308,1,90,10|0,0:0|0:0,0:0:0:0:
228,339,48447,1,8,0:0:0:0:
135,206,48610,2,0,L|225:194,1,90,2|0,1:2|1:0,0:0:0:0:
421,152,48936,1,10,0:0:0:0:
317,83,49099,1,0,1:0:0:0:
303,283,49262,1,8,0:0:0:0:
413,64,49425,1,8,0:0:0:0:
413,64,49507,1,8,0:0:0:0:
413,64,49588,5,10,0:0:0:0:
401,265,49751,1,0,1:0:0:0:
231,113,49914,1,2,0:0:0:0:
421,152,50077,1,0,1:0:0:0:
242,219,50241,2,0,B|158:202|196:252|98:228,1,135,10|0,0:0|0:0,0:0:0:0:
111,230,50567,1,2,0:0:0:0:
39,74,50730,1,8,0:0:0:0:
39,74,51056,5,2,0:0:0:0:
124,42,51219,1,2,0:0:0:0:
253,172,51545,1,2,0:0:0:0:
123,239,51871,1,2,0:0:0:0:
246,58,52197,5,6,1:2:0:0:
311,263,52360,1,0,0:0:0:0:
123,155,52523,1,8,0:0:0:0:
381,101,52686,1,0,0:0:0:0:
202,280,52849,2,0,B|174:315|174:315|275:293,1,148.50000453186,2|0,1:2|0:0,0:0:0:0:
311,263,53175,1,8,0:0:0:0:
437,210,53338,2,0,B|454:256|454:256|440:303,1,99.0000030212403,2|0,0:0|1:0,0:0:0:0:
286,368,53664,5,0,1:0:0:0:
244,209,53827,2,0,B|225:162|225:162|245:117,1,99.0000030212403,10|0,0:0|0:0,0:0:0:0:
431,49,54154,1,2,1:2:0:0:
431,49,54235,1,0,1:0:0:0:
431,49,54317,1,0,1:0:0:0:
437,210,54480,1,8,0:0:0:0:
244,117,54643,1,0,1:0:0:0:
244,117,54724,1,8,0:0:0:0:
244,117,54806,6,0,L|140:104,1,99.0000030212403,2|0,1:2|0:0,0:0:0:0:
38,43,55132,1,8,0:0:0:0:
58,240,55295,1,2,0:0:0:0:
198,225,55458,2,0,L|296:212,1,99.0000030212403,0|0,0:0|1:0,0:0:0:0:
218,31,55784,1,8,0:0:0:0:
94,141,55947,2,0,P|50:157|-7:136,1,99.0000030212403,2|0,0:0|0:0,0:0:0:0:
218,31,56273,5,0,1:0:0:0:
334,122,56436,2,0,B|382:112|382:112|484:165,1,148.50000453186,10|0,0:0|0:0,0:0:0:0:
494,190,56762,1,2,0:0:0:0:
443,48,56925,1,0,1:0:0:0:
413,267,57088,1,8,0:0:0:0:
244,192,57251,1,0,0:0:0:0:
244,192,57333,1,8,0:0:0:0:
244,192,57414,5,6,1:2:0:0:
328,55,57577,1,0,0:0:0:0:
328,236,57741,1,8,0:0:0:0:
204,80,57904,1,0,0:0:0:0:
360,156,58067,2,0,P|424:123|488:155,1,148.50000453186,2|0,1:2|0:0,0:0:0:0:
507,191,58393,1,8,0:0:0:0:
387,305,58556,2,0,P|346:318|289:305,1,99.0000030212403,2|0,0:0|0:0,0:0:0:0:
159,206,58882,5,0,1:0:0:0:
322,105,59045,2,0,L|335:203,1,99.0000030212403,10|0,0:0|0:0,0:0:0:0:
199,372,59371,2,0,L|212:274,1,99.0000030212403,2|0,0:0|1:0,0:0:0:0:
247,79,59697,1,8,0:0:0:0:
298,273,59860,1,0,0:0:0:0:
298,273,59942,1,0,0:0:0:0:
298,273,60023,5,14,1:2:0:0:
178,127,60186,2,0,L|80:114,1,99.0000030212403,0|0,1:0|1:0,0:0:0:0:
86,268,60512,1,14,0:0:0:0:
279,178,60675,2,0,L|377:165,1,99.0000030212403,0|0,1:0|0:0,0:0:0:0:
488,346,61001,1,14,0:0:0:0:
297,273,61164,1,0,1:0:0:0:
297,273,61491,5,2,0:0:0:0:
217,326,61654,2,0,P|188:336|141:322,1,67.5000025749208
46,279,61980,2,0,L|55:358,1,67.5000025749208,2|0,0:0|0:0,0:0:0:0:
189,249,62306,2,0,P|211:201|180:138,1,101.250003862381,2|0,0:0|0:0,0:0:0:0:
168,80,62632,6,0,B|268:52|239:113|357:81,1,180,6|8,1:2|0:0,0:0:0:0:
500,244,63121,1,0,0:0:0:0:
458,40,63284,1,2,1:2:0:0:
288,214,63447,1,0,0:0:0:0:
474,146,63610,1,8,0:0:0:0:
297,51,63773,1,0,0:0:0:0:
387,277,63936,6,0,B|400:318|400:318|387:363,1,90,2|0,1:2|0:0,0:0:0:0:
170,241,64262,2,0,B|155:196|155:196|168:153,1,90,8|0,0:0|0:0,0:0:0:0:
384,65,64588,1,2,1:2:0:0:
298,269,64751,1,0,1:0:0:0:
198,72,64914,2,0,L|94:84,1,90,8|0,0:0|0:0,0:0:0:0:
27,340,65241,6,0,L|131:328,1,90,2|0,1:2|0:0,0:0:0:0:
389,307,65567,1,8,0:0:0:0:
185,187,65730,1,0,0:0:0:0:
268,380,65893,1,2,1:2:0:0:
361,167,66056,1,0,1:0:0:0:
105,247,66219,1,8,0:0:0:0:
339,361,66382,1,0,0:0:0:0:
272,133,66545,6,0,L|260:29,1,90,2|0,1:2|0:0,0:0:0:0:
105,247,66871,2,0,L|94:336,1,90,8|0,0:0|0:0,0:0:0:0:
299,255,67197,1,2,1:2:0:0:
164,136,67360,1,0,1:0:0:0:
197,346,67523,1,10,0:0:0:0:
375,145,67686,1,0,0:0:0:0:
375,145,67768,1,8,0:0:0:0:
375,145,67849,5,6,1:2:0:0:
395,335,68012,1,0,0:0:0:0:
470,141,68175,1,10,0:0:0:0:
299,255,68338,1,0,0:0:0:0:
470,141,68501,2,0,L|452:283,1,135,2|0,1:2|0:0,0:0:0:0:
395,335,68827,1,8,0:0:0:0:
345,208,68991,1,2,0:0:0:0:
197,346,69154,6,0,P|154:360|96:332,1,90,0|0,1:0|0:0,0:0:0:0:
22,265,69480,1,8,0:0:0:0:
176,136,69643,2,0,B|239:158|239:110|307:134,1,135,2|0,0:0|0:0,0:0:0:0:
345,208,69969,2,0,L|334:297,1,90,2|8,0:0|0:0,0:0:0:0:
126,353,70295,1,2,0:0:0:0:
126,353,70376,1,8,0:0:0:0:
126,353,70458,6,0,L|115:264,1,90,2|0,1:2|0:0,0:0:0:0:
78,65,70784,1,8,0:0:0:0:
236,231,70947,1,2,0:0:0:0:
2,161,71110,1,2,1:2:0:0:
236,42,71273,1,0,1:0:0:0:
114,263,71436,1,8,0:0:0:0:
149,18,71599,1,0,0:0:0:0:
249,315,71762,6,0,P|291:328|346:304,1,90,2|0,1:2|1:0,0:0:0:0:
422,156,72088,1,8,0:0:0:0:
475,352,72251,1,0,1:0:0:0:
275,167,72414,1,10,0:0:0:0:
492,262,72577,1,0,1:0:0:0:
304,339,72741,1,8,0:0:0:0:
482,80,72904,1,2,1:2:0:0:
482,80,72985,1,2,1:2:0:0:
482,80,73067,6,0,B|437:54|392:65|392:65|367:102|304:93,1,180,6|8,1:2|0:0,0:0:0:0:
96,120,73556,1,2,0:0:0:0:
312,176,73719,1,2,1:2:0:0:
206,26,73882,1,0,1:0:0:0:
159,253,74045,1,8,0:0:0:0:
315,94,74208,1,0,0:0:0:0:
96,120,74371,6,0,L|7:109,1,90,2|0,1:2|0:0,0:0:0:0:
45,338,74697,2,0,L|134:327,1,90,8|0,0:0|0:0,0:0:0:0:
348,281,75023,1,2,1:2:0:0:
162,208,75186,1,0,1:0:0:0:
311,358,75349,2,0,P|358:367|435:295,1,135,8|0,0:0|0:0,0:0:0:0:
459,242,75675,6,0,B|490:194|490:194|452:62,1,180,6|8,1:2|0:0,0:0:0:0:
263,189,76164,1,0,0:0:0:0:
332,24,76327,1,2,1:2:0:0:
387,215,76491,1,0,1:0:0:0:
211,89,76654,1,8,0:0:0:0:
412,10,76817,1,0,0:0:0:0:
314,248,76980,5,2,1:2:0:0:
252,22,77143,1,0,1:0:0:0:
113,250,77306,2,0,P|70:264|17:240,1,90,8|0,0:0|0:0,0:0:0:0:
162,33,77632,2,0,L|251:22,1,90,2|0,1:2|1:0,0:0:0:0:
438,24,77958,1,10,0:0:0:0:
310,208,78121,1,0,1:0:0:0:
310,208,78202,1,8,0:0:0:0:
310,208,78284,5,6,1:2:0:0:
441,317,78447,1,0,0:0:0:0:
257,363,78610,1,8,0:0:0:0:
421,184,78773,1,0,0:0:0:0:
211,264,78936,2,0,L|121:253,1,90,2|0,1:2|1:0,0:0:0:0:
44,87,79262,2,0,L|133:76,1,90,8|0,0:0|0:0,0:0:0:0:
381,57,79588,5,2,1:2:0:0:
332,271,79751,1,0,0:0:0:0:
261,70,79914,1,8,0:0:0:0:
458,196,80077,1,2,0:0:0:0:
203,204,80241,1,0,1:0:0:0:
466,105,80404,2,0,P|480:64|461:14,1,90,2|8,1:2|0:0,0:0:0:0:
273,141,80730,1,0,0:0:0:0:
304,344,80893,6,0,L|446:327,1,135,6|0,1:2|0:0,0:0:0:0:
500,274,81219,1,8,0:0:0:0:
329,215,81382,2,0,L|239:225,1,90,2|0,0:0|1:0,0:0:0:0:
65,247,81708,1,0,1:0:0:0:
130,134,81871,1,10,0:0:0:0:
206,328,82034,1,0,0:0:0:0:
16,148,82197,5,2,1:2:0:0:
242,121,82360,1,0,0:0:0:0:
118,364,82523,1,8,0:0:0:0:
130,134,82686,1,0,1:0:0:0:
291,299,82849,2,0,L|380:288,1,90,10|0,0:0|1:0,0:0:0:0:
488,186,83175,1,8,0:0:0:0:
293,36,83338,1,8,0:0:0:0:
293,36,83420,1,8,0:0:0:0:
293,36,83501,6,0,P|278:73|302:129,1,90,2|0,1:2|1:0,0:0:0:0:
488,186,83827,2,0,P|500:138|486:100,1,90,8|0,0:0|1:0,0:0:0:0:
258,248,84154,1,10,0:0:0:0:
389,50,84317,1,0,1:0:0:0:
421,295,84480,1,10,0:0:0:0:
249,117,84643,1,0,1:0:0:0:
303,357,84806,5,8,0:0:0:0:
411,162,84969,1,0,1:0:0:0:
184,187,85132,1,10,0:0:0:0:
421,295,85295,1,0,1:0:0:0:
312,68,85458,2,0,L|222:57,1,90,10|0,0:0|1:0,0:0:0:0:
182,287,85784,2,0,L|271:276,1,90,10|0,0:0|1:0,0:0:0:0:
503,187,86110,5,10,0:0:0:0:
312,68,86273,1,0,1:0:0:0:
378,376,86436,5,8,0:0:0:0:
435,105,86599,1,8,0:0:0:0:
238,342,86762,5,8,0:0:0:0:
220,108,86925,1,8,0:0:0:0:
456,346,87088,5,10,0:0:0:0:
312,68,87251,1,8,0:0:0:0:
181,281,87414,6,0,P|140:297|88:274,1,90,2|2,0:0|0:0,0:0:0:0:
101,123,88067,1,0,0:0:0:0:
101,123,88230,2,0,L|196:111,1,90,2|0,0:0|0:0,0:0:0:0:
286,93,88719,6,0,B|308:150|289:196|289:196|285:237|342:274|380:224|356:186|356:186|316:147|293:94,1,360,2|2,0:0|0:0,0:0:0:0:
