osu file format v14

[General]
AudioFilename: audio.mp3
AudioLeadIn: 0
PreviewTime: 141176
Countdown: 0
SampleSet: Soft
StackLeniency: 0.7
Mode: 0
LetterboxInBreaks: 0
WidescreenStoryboard: 0

[Editor]
Bookmarks: 1376,23318,45261,67204,94633,116576,138518,165947,166033,187890,209833,229033,256461,278404,300347,308575
DistanceSpacing: 0.9
BeatDivisor: 4
GridSize: 32
TimelineZoom: 1.9

[Metadata]
Title:Zoetrope (void multiplex remix)
TitleUnicode:Zoetrope (void multiplex remix)
Artist:yanaginagi
ArtistUnicode:やなぎなぎ
Creator:Realazy
Version:Reminiscence
Source:AMNESIA
Tags:Luscent Kalibe cyberfunk drum n bass dnb エウアル euaru アムネシア opening electronic japanese anime
BeatmapID:2427952
BeatmapSetID:1163861

[Difficulty]
HPDrainRate:5
CircleSize:4.5
OverallDifficulty:8.7
ApproachRate:9.2
SliderMultiplier:2
SliderTickRate:1

[Events]
//Background and Video events
0,0,"zoetrope.jpg",0,0
//Break Periods
//Storyboard Layer 0 (Background)
//Storyboard Layer 1 (Fail)
//Storyboard Layer 2 (Pass)
//Storyboard Layer 3 (Foreground)
//Storyboard Layer 4 (Overlay)
//Storyboard Sound Samples

[TimingPoints]
1376,342.857142857143,4,2,1,55,1,0
1376,-100,4,2,1,55,0,0
1718,-166.666666666667,4,2,1,55,0,0
2576,-125,4,2,1,55,0,0
3433,-111.111111111111,4,2,1,55,0,0
3776,-250,4,2,1,55,0,0
4118,-100,4,2,1,55,0,0
4461,-142.857142857143,4,2,1,55,0,0
5661,-100,4,2,1,55,0,0
6861,-83.3333333333333,4,2,1,55,0,0
7204,-133.333333333333,4,2,1,55,0,0
8404,-105.263157894737,4,2,1,55,0,0
8490,-133.333333333333,4,2,1,55,0,0
9604,-90.9090909090909,4,2,1,55,0,0
9947,-133.333333333333,4,2,1,55,0,0
11661,-117.647058823529,4,2,1,55,0,0
14747,-285.714285714283,4,2,1,55,0,0
14918,-200,4,2,1,55,0,0
15090,-117.647058823529,4,2,1,55,0,0
17833,-117.647058823529,4,2,1,60,0,0
21947,-100,4,2,1,70,0,0
22376,-222.222222222222,4,2,1,70,0,0
22547,-166.666666666667,4,2,1,70,0,0
22718,-125,4,2,1,70,0,0
22976,-50,4,2,1,70,0,0
23318,-80,4,2,1,70,0,0
24518,-133.333333333333,4,2,1,70,0,0
24861,-100,4,2,1,70,0,0
25547,-80,4,2,1,70,0,0
27090,-133.333333333333,4,2,1,70,0,0
27776,-66.6666666666667,4,2,1,70,0,0
28804,-80,4,2,1,70,0,0
30004,-133.333333333333,4,2,1,70,0,0
30347,-100,4,2,1,70,0,0
31033,-80,4,2,1,70,0,0
32747,-133.333333333333,4,2,1,70,0,0
33261,-66.6666666666667,4,2,1,70,0,0
34290,-80,4,2,1,70,0,0
35490,-133.333333333333,4,2,1,70,0,0
35833,-100,4,2,1,70,0,0
36347,-80,4,2,1,70,0,0
38061,-133.333333333333,4,2,1,70,0,0
38747,-66.6666666666667,4,2,1,70,0,0
39776,-79.9999999999999,4,2,1,70,0,0
40976,-133.333333333333,4,2,1,70,0,0
41318,-100,4,2,1,70,0,0
41833,-79.9999999999999,4,2,1,70,0,0
43547,-133.333333333333,4,2,1,60,0,0
45604,-90.9090909090909,4,2,1,60,0,0
46976,-71.4285714285714,4,2,1,60,0,0
47490,-133.333333333333,4,2,1,60,0,0
48004,-100,4,2,1,60,0,0
48347,-83.3333333333333,4,2,1,60,0,0
48861,-133.333333333333,4,2,1,60,0,0
49376,-90.9090909090909,4,2,1,60,0,0
49890,-71.4285714285714,4,2,1,60,0,0
50747,-100,4,2,1,60,0,0
51090,-83.3333333333333,4,2,1,60,0,0
51604,-133.333333333333,4,2,1,60,0,0
52118,-100,4,2,1,60,0,0
52633,-76.9230769230769,4,2,1,60,0,0
53147,-100,4,2,1,60,0,0
53490,-76.9230769230769,4,2,1,60,0,0
54176,-181.818181818181,4,2,1,60,0,0
54518,-76.9230769230769,4,2,1,60,0,0
54861,-125,4,2,1,60,0,0
55204,-83.3333333333333,4,2,1,60,0,0
55718,-76.9230769230769,4,2,1,60,0,0
55890,-166.666666666667,4,2,1,60,0,0
56233,-83.3333333333333,4,2,1,60,0,0
57090,-111.111111111111,4,2,1,60,0,0
57261,-83.3333333333333,4,2,1,60,0,0
58633,-111.111111111111,4,2,1,60,0,0
58976,-83.3333333333333,4,2,1,60,0,0
62233,-133.333333333333,4,2,1,60,0,0
62404,-83.3333333333333,4,2,1,60,0,0
62747,-133.333333333333,4,2,1,60,0,0
62918,-83.3333333333333,4,2,1,60,0,0
64461,-76.9230769230769,4,2,1,60,0,0
67204,-76.9230769230769,4,2,1,50,0,0
69947,-76.9230769230769,4,2,1,70,0,0
70976,-250,4,2,1,80,0,0
71147,-166.666666666667,4,2,1,80,0,0
71318,-125,4,2,1,80,0,0
71490,-71.4285714285714,4,2,1,80,0,0
71918,-71.4285714285714,4,2,1,5,0,0
72004,-500,4,2,1,60,0,0
72690,-66.6666666666667,4,2,1,90,0,1
73376,-100,4,2,1,90,0,1
73718,-80,4,2,1,90,0,1
74404,-71.4285714285714,4,2,1,90,0,1
75433,-80,4,2,1,90,0,1
76290,-133.333333333333,4,2,1,90,0,1
76804,-66.6666666666667,4,2,1,90,0,1
77318,-80,4,2,1,90,0,1
78176,-66.6666666666667,4,2,1,90,0,1
78690,-100,4,2,1,90,0,1
79204,-80,4,2,1,90,0,1
80061,-100,4,2,1,90,0,1
80576,-100,4,2,1,90,0,1
80918,-66.6666666666667,4,2,1,90,0,1
82118,-80,4,2,1,90,0,1
83661,-200,4,2,1,70,0,0
84004,-57.1428571428571,4,2,1,90,0,1
84347,-100,4,2,1,90,0,1
84690,-80,4,2,1,90,0,1
85376,-71.4285714285714,4,2,1,90,0,1
85890,-80,4,2,1,90,0,1
86404,-80,4,2,1,90,0,1
87433,-66.6666666666667,4,2,1,90,0,1
87776,-80,4,2,1,90,0,1
91890,-133.333333333333,4,2,1,90,0,1
92233,-100,4,2,1,90,0,1
92576,-80,4,2,1,90,0,1
92918,-66.6666666666667,4,2,1,90,0,1
94633,-90.9090909090909,4,2,1,70,0,0
95490,-125,4,2,1,70,0,0
95661,-90.9090909090909,4,2,1,70,0,0
95833,-125,4,2,1,70,0,0
96004,-90.9090909090909,4,2,1,70,0,0
99604,-76.9230769230769,4,2,1,70,0,0
100118,-90.9090909090909,4,2,1,70,0,0
101318,-125,4,2,1,70,0,0
101490,-90.9090909090909,4,2,1,70,0,0
105604,-100,4,2,1,70,0,0
105947,-90.9090909090909,4,2,1,70,0,0
106290,-83.3333333333333,4,2,1,70,0,0
106633,-76.9230769230769,4,2,1,70,0,0
107833,-125,4,2,1,70,0,0
108004,-76.9230769230769,4,2,1,70,0,0
108347,-76.9230769230769,4,2,1,70,0,0
108690,-83.3333333333333,4,2,1,70,0,0
109033,-90.9090909090909,4,2,1,70,0,0
109376,-100,4,2,1,70,0,0
109718,-90.9090909090909,4,2,1,70,0,0
110576,-76.9230769230769,4,2,1,70,0,0
111090,-90.9090909090909,4,2,1,70,0,0
114776,-117.647058823529,4,2,1,70,0,0
115204,-111.111111111111,4,2,1,70,0,0
115718,-90.9090909090909,4,2,1,70,0,0
116061,-76.9230769230769,4,2,1,70,0,0
116233,-100,4,2,1,70,0,0
116404,-142.857142857143,4,2,1,70,0,0
116576,-200,4,2,1,60,0,0
126176,-100,4,2,1,60,0,0
126861,-166.666666666667,4,2,1,60,0,0
127547,-133.333333333333,4,2,1,70,0,0
138518,-133.333333333333,4,2,1,50,0,0
140576,-666.666666666658,4,2,1,50,0,0
141261,-666.666666666658,4,2,1,70,0,0
141776,-250,4,2,1,70,0,0
142290,-111.111111111111,4,2,1,80,0,0
142461,-90.9090909090909,4,2,1,80,0,0
142633,-76.9230769230769,4,2,1,80,0,0
142804,-66.6666666666667,4,2,1,80,0,0
143233,-66.6666666666667,4,2,1,5,0,0
143318,-500,4,2,1,60,0,0
143833,-100,4,2,1,70,0,0
144004,-83.3333333333333,4,2,1,90,0,1
144690,-125,4,2,1,90,0,1
144947,-86.9565217391304,4,2,1,90,0,1
145204,-66.6666666666667,4,2,1,90,0,1
145376,-86.9565217391304,4,2,1,90,0,1
146233,-100,4,2,1,90,0,1
146404,-76.9230769230769,4,2,1,90,0,1
146576,-71.4285714285714,4,2,1,90,0,1
147433,-166.666666666667,4,2,1,90,0,1
147947,-100,4,2,1,90,0,1
148118,-90.9090909090909,4,2,1,90,0,1
148976,-111.111111111111,4,2,1,90,0,1
149318,-90.9090909090909,4,2,1,90,0,1
149490,-83.3333333333333,4,2,1,90,0,1
150347,-111.111111111111,4,2,1,90,0,1
150518,-83.3333333333333,4,2,1,90,0,1
151376,-125,4,2,1,90,0,1
151718,-100,4,2,1,90,0,1
151890,-83.3333333333333,4,2,1,90,0,1
152061,-100,4,2,1,90,0,1
152233,-83.3333333333333,4,2,1,90,0,1
153090,-166.666666666667,4,2,1,90,0,1
153261,-111.111111111111,4,2,1,90,0,1
153433,-83.3333333333333,4,2,1,90,0,1
153604,-71.4285714285714,4,2,1,90,0,1
153947,-285.714285714284,4,2,1,90,0,1
154118,-80,4,2,1,90,0,1
154461,-100,4,2,1,90,0,1
154976,-200,4,2,1,70,0,0
155318,-66.6666666666667,4,2,1,90,0,1
155661,-90.9090909090909,4,2,1,90,0,1
156004,-76.9230769230769,4,2,1,90,0,1
156176,-111.111111111111,4,2,1,90,0,1
156347,-83.3333333333333,4,2,1,90,0,1
158404,-125,4,2,1,90,0,1
158576,-83.3333333333333,4,2,1,90,0,1
163204,-133.333333333333,4,2,1,90,0,1
163547,-100,4,2,1,90,0,1
163890,-83.3333333333333,4,2,1,90,0,1
164233,-80,4,2,1,90,0,1
164576,-66.6666666666667,4,2,1,70,0,0
165947,-80,4,2,1,80,0,0
166290,-166.666666666667,4,2,1,80,0,0
166976,-83.3333333333333,4,2,1,80,0,0
167147,-133.333333333333,4,2,1,80,0,0
167490,-100,4,2,1,80,0,0
168004,-80,4,2,1,80,0,0
168176,-100,4,2,1,80,0,0
168347,-400,4,2,1,80,0,0
169033,-100,4,2,1,80,0,0
169376,-66.6666666666667,4,2,1,80,0,0
169718,-66.6666666666667,4,2,1,80,0,0
170405,-66.6666666666667,4,2,1,80,0,0
171433,-100,4,2,1,80,0,0
171776,-80,4,2,1,80,0,0
172290,-100,4,2,1,80,0,0
172461,-66.6666666666667,4,2,1,80,0,0
172633,-117.647058823529,4,2,1,80,0,0
172976,-100,4,2,1,80,0,0
173490,-100,4,2,1,80,0,0
173662,-80,4,2,1,80,0,0
173833,-133.333333333333,4,2,1,80,0,0
175376,-133.333333333333,4,2,1,80,0,0
175890,-83.3333333333333,4,2,1,80,0,0
176233,-66.6666666666667,4,2,1,80,0,0
176576,-57.1428571428571,4,2,1,80,0,0
176918,-100,4,2,1,80,0,0
179318,-133.333333333333,4,2,1,80,0,0
179661,-100,4,2,1,80,0,0
180690,-80,4,2,1,80,0,0
181718,-100,4,2,1,80,0,0
185147,-133.333333333333,4,2,1,70,0,0
185318,-133.333333333333,4,2,1,73,0,0
185490,-133.333333333333,4,2,1,76,0,0
185661,-133.333333333333,4,2,1,79,0,0
185833,-133.333333333333,4,2,1,82,0,0
186004,-133.333333333333,4,2,1,85,0,0
186176,-133.333333333333,4,2,1,88,0,0
186347,-133.333333333333,4,2,1,91,0,0
186518,-133.333333333333,4,2,1,95,0,0
187890,-181.818181818181,4,2,1,55,0,0
198176,-133.333333333333,4,2,1,60,0,0
206918,-90.9090909090909,4,2,1,60,0,0
209833,-166.666666666667,4,2,1,60,0,0
212233,-200,4,2,1,60,0,0
213947,-166.666666666667,4,2,1,60,0,0
220804,-133.333333333333,4,2,1,70,0,0
222861,-200,4,2,1,70,0,0
223547,-100,4,2,1,80,0,0
228347,-100,4,2,1,50,0,0
229033,-250,4,2,1,50,0,0
231518,-250,4,2,1,5,0,0
231604,-125,4,2,1,50,0,0
233147,-125,4,2,1,70,0,0
234176,-250,4,2,1,60,0,0
234518,-83.3333333333333,4,2,1,90,0,1
238633,-71.4285714285714,4,2,1,90,0,1
238976,-83.3333333333333,4,2,1,90,0,1
240518,-71.4285714285714,4,2,1,90,0,1
240861,-83.3333333333333,4,2,1,90,0,1
244118,-71.4285714285714,4,2,1,90,0,1
244461,-100,4,2,1,90,0,1
244633,-71.4285714285714,4,2,1,90,0,1
244976,-100,4,2,1,90,0,1
245490,-200,4,2,1,70,0,0
245833,-66.6666666666667,4,2,1,90,0,1
246176,-83.3333333333333,4,2,1,90,0,1
253718,-166.666666666667,4,2,1,90,0,1
254061,-111.111111111111,4,2,1,90,0,1
254404,-83.3333333333333,4,2,1,90,0,1
254747,-66.6666666666667,4,2,1,90,0,1
255776,-80,4,2,1,90,0,1
256118,-66.6666666666667,4,2,1,90,0,1
256461,-90.9090909090909,4,2,1,80,0,0
258176,-66.6666666666667,4,2,1,80,0,0
258518,-111.111111111111,4,2,1,80,0,0
258861,-57.1428571428571,4,2,1,80,0,0
259204,-90.9090909090909,4,2,1,80,0,0
261261,-50,4,2,1,80,0,0
261604,-100,4,2,1,80,0,0
261947,-90.9090909090909,4,2,1,80,0,0
264004,-125,4,2,1,80,0,0
264690,-90.9090909090909,4,2,1,80,0,0
266747,-125,4,2,1,80,0,0
267433,-90.9090909090909,4,2,1,80,0,0
269147,-66.6666666666667,4,2,1,80,0,0
269489,-111.111111111111,4,2,1,80,0,0
269832,-57.1428571428571,4,2,1,80,0,0
270175,-90.9090909090909,4,2,1,80,0,0
271033,-125,4,2,1,80,0,0
271204,-71.4285714285714,4,2,1,80,0,0
271376,-50,4,2,1,80,0,0
271547,-90.9090909090909,4,2,1,80,0,0
274976,-71.4285714285714,4,2,1,80,0,0
275661,-90.9090909090909,4,2,1,80,0,0
278404,-125,4,2,0,60,0,0
289376,-200,4,2,0,50,0,0
303261,-200,4,2,0,40,0,0
304461,-200,4,2,0,30,0,0
305833,-200,4,2,0,20,0,0
307204,-200,4,2,0,10,0,0
308576,-200,4,2,0,5,0,0

[Colours]
Combo1 : 211,105,105
Combo2 : 175,177,218
Combo3 : 174,222,165
Combo4 : 239,174,126

[HitObjects]
431,87,1376,6,0,B|486:121|477:0|385:8|341:69,1,200,4|0,1:0|0:0,0:0:0:0:
165,143,1890,6,0,B|157:155|157:155|38:136,1,119.999996337891,2|0,1:2|0:0,0:0:0:0:
52,138,2318,1,0,0:0:0:0:
52,138,2404,1,2,1:0:0:0:
198,217,2576,2,0,L|244:201,2,40
52,341,2918,2,0,B|66:305|66:305|60:253,1,80,2|0,1:0|0:0,0:0:0:0:
223,200,3261,5,0,0:0:0:0:
45,346,3433,2,0,B|37:308|77:296|77:296|155:320,1,134.999995880127,2|0,1:2|0:0,0:0:0:0:
224,379,3776,6,0,B|230:360|230:360|227:342|227:342|236:309,1,60,2|0,1:2|0:0,0:0:0:0:
336,252,4118,6,0,B|372:245|372:245|294:274,1,100,2|0,1:0|0:0,0:0:0:0:
296,263,4376,2,0,L|307:321,1,50,2|0,0:2|1:0,0:0:0:0:
139,205,4633,2,0,B|110:184|73:201|73:201|63:235|26:253,1,139.999995727539,2|0,1:2|0:0,0:0:0:0:
58,183,5061,1,0,0:0:0:0:
54,179,5147,2,0,P|38:159|61:106,1,69.9999978637696,2|0,1:0|0:0,0:0:0:0:
173,17,5490,6,0,P|190:21|214:39,1,34.9999989318848
316,134,5661,2,0,B|361:148|361:148|389:78,1,100,2|0,1:0|1:0,0:0:0:0:
251,227,6004,1,0,0:0:0:0:
380,98,6176,2,0,P|351:134|382:174,1,100,2|0,1:0|0:0,0:0:0:0:
438,223,6433,1,0,0:0:0:0:
446,227,6518,5,2,0:0:0:0:
465,118,6690,1,0,0:0:0:0:
415,25,6861,6,0,B|474:8|513:60|513:60|473:37|426:49,1,179.999994506836,2|0,1:0|0:0,0:0:0:0:
380,98,7204,5,2,0:0:0:0:
265,148,7376,2,0,P|242:120|268:48,1,112.500004291535,2|0,1:0|0:0,0:0:0:0:
272,40,7718,6,0,P|284:52|284:92,1,37.5000014305115
396,180,7890,2,0,P|419:152|411:105,1,75.0000028610231,2|0,1:2|0:0,0:0:0:0:
199,93,8233,5,2,0:0:0:0:
135,178,8404,2,0,B|86:217|8:227|-44:127|75:134|52:162,1,189.999994926453,2|0,1:0|0:0,0:0:0:0:
184,296,8918,6,0,P|212:318|256:309,1,75.0000028610231,2|0,0:0|0:0,0:0:0:0:
307,259,9176,1,0,0:0:0:0:
312,256,9261,2,0,P|331:227|312:182,1,75.0000028610231
494,45,9604,6,0,B|452:48|417:22|417:22|415:28|415:28|451:56|444:105,1,165.000005035401,2|0,1:0|0:0,0:0:0:0:
371,89,9947,1,2,0:0:0:0:
492,162,10118,6,0,P|462:183|413:172,1,75.0000028610231,2|0,1:0|0:0,0:0:0:0:
492,162,10461,1,0,0:0:0:0:
315,224,10633,2,0,P|279:219|253:190,1,75.0000028610231,2|0,1:0|0:0,0:0:0:0:
214,130,10890,1,0,0:0:0:0:
211,119,10976,5,0,0:0:0:0:
273,165,11147,1,2,0:0:0:0:
293,241,11318,1,0,0:0:0:0:
347,296,11490,1,0,0:0:0:0:
473,285,11661,6,0,B|482:262|508:250|508:250|420:232|460:321|413:374|347:372|294:303|374:280,1,297.500005674362,2|0,0:0|0:0,1:0:0:0:
269,208,12347,6,0,B|261:196|261:196|185:208,1,85.0000016212464,0|0,1:0|0:0,0:0:0:0:
301,103,12690,2,0,B|289:95|289:95|301:19,1,85.0000016212464,0|0,1:0|0:0,0:0:0:0:
390,147,13033,2,0,B|398:135|398:135|474:147,1,85.0000016212464,0|0,1:0|0:0,0:0:0:0:
178,218,13376,6,0,B|158:241|158:241|135:127,1,127.50000243187,0|0,1:0|0:0,0:0:0:0:
111,37,13718,6,0,P|74:48|66:89,1,85.0000016212464,0|0,1:0|0:0,0:0:0:0:
138,145,14061,2,0,P|177:138|190:100,1,85.0000016212464,0|0,1:0|0:0,0:0:0:0:
405,18,14404,2,0,B|401:10|401:10|472:4|472:4|490:53,1,127.50000243187,0|0,1:0|0:0,0:0:0:0:
489,62,14747,6,0,L|479:92,1,17.4999994659424,0|0,1:0|0:0,0:0:0:0:
420,103,14918,2,0,L|429:146,1,25
502,202,15090,6,0,B|517:216|517:216|426:196,1,85.0000016212464,0|0,1:0|0:0,0:0:0:0:
304,172,15433,1,0,1:0:0:0:
442,201,15604,6,0,P|419:205|397:222,1,42.5000008106232
271,313,15776,6,0,P|232:318|211:271,1,85.0000016212464,0|0,1:0|0:0,0:0:0:0:
239,218,16033,1,0,0:0:0:0:
247,214,16118,2,0,P|286:209|307:256,1,85.0000016212464,0|0,1:0|0:0,0:0:0:0:
216,354,16461,1,0,1:0:0:0:
11,278,16633,6,0,B|-2:263|-2:263|81:280,1,85.0000016212464,2|0,0:0|1:0,0:0:0:0:
131,299,16890,1,0,0:0:0:0:
138,293,16976,2,0,L|145:244,1,42.5000008106232
144,95,17147,6,0,B|121:107|109:120|109:120|105:142|121:166,1,85.0000016212464,0|0,1:0|0:0,0:0:0:0:
368,289,17490,2,0,B|391:277|403:264|403:264|407:242|391:218,1,85.0000016212464,0|0,1:0|0:0,0:0:0:0:
437,43,17833,5,4,1:0:0:0:
352,76,18004,1,0,1:0:0:0:
296,152,18176,1,0,1:0:0:0:
104,100,18347,5,2,1:0:0:0:
204,148,18518,1,0,1:0:0:0:
248,256,18690,1,0,1:0:0:0:
388,328,18861,5,2,1:0:0:0:
281,358,19033,1,0,1:0:0:0:
388,328,19204,1,2,1:2:0:0:
144,232,19376,5,2,1:0:0:0:
276,280,19547,1,0,1:0:0:0:
144,232,19718,1,0,1:0:0:0:
340,116,19890,5,2,1:0:0:0:
412,248,20061,1,0,1:0:0:0:
208,136,20233,5,8,1:0:0:0:
120,324,20404,1,0,1:0:0:0:
0,68,20576,5,4,3:2:0:0:
17,55,20661,1,0,3:0:0:0:
50,47,20747,1,0,3:0:0:0:
85,56,20833,1,0,3:0:0:0:
114,90,20918,1,2,3:0:0:0:
110,136,21004,1,2,3:0:0:0:
68,167,21090,1,0,3:0:0:0:
58,149,21176,1,2,3:0:0:0:
69,130,21261,5,2,3:0:0:0:
104,110,21347,1,0,3:0:0:0:
141,122,21433,1,2,3:0:0:0:
162,157,21518,1,2,3:0:0:0:
145,200,21604,1,2,3:0:0:0:
154,248,21690,1,2,3:0:0:0:
189,280,21776,1,2,3:0:0:0:
241,274,21861,1,2,3:0:0:0:
311,219,21947,6,0,B|316:210|316:210|219:197,1,100,12|0,0:0|0:0,0:0:0:0:
20,112,22290,5,2,0:0:0:0:
20,112,22376,2,0,L|53:101,1,22.4999993133545,2|0,0:0|0:0,0:0:0:0:
173,20,22547,5,0,0:0:0:0:
189,32,22633,2,0,L|177:82,1,29.9999990844727
325,210,22804,6,0,B|321:200|321:200|325:178|325:178|314:148,1,40,0|0,1:0|0:0,0:0:0:0:
460,60,22976,6,0,B|486:16|486:16|508:27|508:27|527:82|527:82|524:146|443:175|390:108,1,300,12|0,0:2|0:0,0:0:0:0:
306,11,23318,5,4,1:0:0:0:
229,64,23489,1,0,0:0:0:0:
131,84,23661,2,0,B|110:63|110:63|140:51,1,62.5,10|0,0:1|0:0,0:0:0:0:
287,0,23833,5,0,0:0:0:0:
320,83,24005,1,0,0:0:0:0:
403,122,24176,2,0,B|407:153|407:153|378:146,1,62.5,2|0,1:0|0:0,0:0:0:0:
219,48,24347,1,8,0:0:0:0:
405,231,24518,2,0,L|507:209,1,75.0000028610231,2|0,0:1|1:0,0:0:0:0:
218,304,24861,5,2,0:2:0:0:
218,304,24947,1,2,0:2:0:0:
218,304,25033,2,0,B|248:344|248:344|286:311,1,100,10|0,0:1|0:0,0:0:0:0:
143,97,25376,1,0,0:0:0:0:
304,180,25547,6,0,B|266:130|266:130|219:171,1,125,2|8,1:0|0:0,0:0:0:0:
312,249,25890,2,0,L|386:243,1,62.5,2|0,0:1|0:0,0:0:0:0:
9,376,26061,5,0,1:0:0:0:
57,239,26232,1,0,0:0:0:0:
46,107,26404,1,10,0:1:0:0:
0,170,26576,5,2,0:3:0:0:
18,176,26661,1,2,0:3:0:0:
114,292,26833,5,2,0:3:0:0:
132,286,26918,1,2,1:3:0:0:
258,133,27090,5,10,0:1:0:0:
334,106,27261,2,0,L|324:180,2,75.0000028610231,2|0|0,0:1|1:0|0:0,0:0:0:0:
51,90,27776,6,0,B|78:53|78:53|138:85|140:162|78:204,1,225.000008583069,10|0,0:1|0:0,0:1:0:0:
24,246,28118,5,2,0:0:0:0:
198,161,28290,1,2,1:2:0:0:
198,161,28376,1,2,0:0:0:0:
198,161,28461,1,2,0:0:0:0:
380,252,28633,1,10,0:0:0:0:
512,315,28804,5,0,1:0:0:0:
397,254,28976,1,0,0:0:0:0:
267,274,29147,2,0,B|240:294|240:294|268:296,1,62.5,10|0,0:1|0:0,0:0:0:0:
414,264,29318,5,0,0:0:0:0:
352,142,29490,1,0,0:0:0:0:
229,94,29661,2,0,B|195:97|195:97|218:114,1,62.5,2|0,1:0|0:0,0:0:0:0:
408,83,29833,1,8,0:0:0:0:
183,185,30004,6,0,B|148:171|148:171|112:180,1,75.0000028610231,2|0,0:1|1:0,0:0:0:0:
336,26,30347,5,2,0:0:0:0:
336,26,30433,1,2,0:0:0:0:
336,26,30518,2,0,B|331:67|331:67|338:79|338:79|333:123,1,100,10|0,0:1|0:0,0:0:0:0:
182,47,30861,1,0,0:0:0:0:
409,263,31033,6,0,B|403:315|403:315|412:330|412:330|405:385,1,125,2|8,1:0|0:0,0:0:0:0:
263,261,31376,2,0,L|338:252,1,62.5,2|0,0:1|0:0,0:0:0:0:
199,375,31547,5,0,1:0:0:0:
55,317,31718,1,0,0:0:0:0:
26,170,31890,1,10,0:1:0:0:
85,118,32061,5,2,0:3:0:0:
94,128,32147,1,2,0:3:0:0:
129,342,32318,5,2,0:3:0:0:
125,354,32404,1,2,1:3:0:0:
205,220,32576,5,10,0:1:0:0:
260,271,32747,2,0,L|333:257,2,75.0000028610231,2|0|0,0:1|1:0|0:0,0:0:0:0:
396,79,33261,6,0,L|407:153,1,75.0000028610231,10|0,0:1|0:0,0:0:0:0:
405,63,33433,1,0,1:0:0:0:
438,229,33604,5,2,0:0:0:0:
280,193,33776,1,10,0:0:0:0:
182,295,33947,5,2,1:2:0:0:
25,321,34118,1,10,0:0:0:0:
18,76,34290,5,4,1:0:0:0:
153,108,34461,1,0,0:0:0:0:
280,60,34633,2,0,P|300:72|277:71,1,62.5,10|0,0:1|0:0,0:0:0:0:
142,40,34804,5,0,0:0:0:0:
242,135,34975,1,0,0:0:0:0:
376,157,35147,2,0,P|386:178|368:163,1,62.5,2|0,1:0|0:0,0:0:0:0:
405,63,35318,1,8,1:0:0:0:
452,231,35490,2,0,P|473:252|520:245,1,75.0000028610231,2|0,0:1|1:0,0:0:0:0:
267,346,35833,5,2,0:0:0:0:
267,346,35918,1,2,0:0:0:0:
267,346,36004,2,0,B|314:361|314:361|357:334,1,100,10|0,0:1|0:0,0:0:0:0:
160,247,36347,1,0,0:0:0:0:
350,182,36518,6,0,B|291:163|291:163|237:196,1,125,2|8,1:0|0:0,0:0:0:0:
303,263,36861,2,0,L|371:257,1,62.5,2|0,0:1|0:0,0:0:0:0:
492,41,37033,5,0,1:0:0:0:
343,88,37204,1,0,0:0:0:0:
189,49,37376,1,10,0:1:0:0:
269,22,37547,5,2,0:3:0:0:
283,29,37633,1,2,0:3:0:0:
425,107,37804,5,2,0:3:0:0:
439,99,37890,1,2,1:3:0:0:
284,194,38061,5,8,0:1:0:0:
216,157,38233,2,0,P|178:154|144:167,2,75.0000028610231,2|0|0,0:1|1:0|0:0,0:0:0:0:
448,314,38747,6,0,B|464:362|464:362|398:387|346:343|368:266,1,225.000008583069,10|0,0:1|0:0,0:0:0:0:
431,237,39090,5,2,0:0:0:0:
266,267,39261,1,2,1:2:0:0:
266,267,39347,1,2,0:0:0:0:
266,267,39433,1,2,0:0:0:0:
102,297,39604,1,10,0:0:0:0:
3,315,39776,5,0,1:0:0:0:
168,374,39947,1,0,0:0:0:0:
134,201,40118,2,0,B|124:172|124:172|119:202,1,62.5,10|0,0:1|0:0,0:0:0:0:
102,297,40290,5,0,0:0:0:0:
267,356,40461,1,0,0:0:0:0:
384,290,40633,2,0,B|373:260|373:260|369:291,1,62.5,2|0,1:0|0:0,0:0:0:0:
442,361,40804,1,8,0:0:0:0:
485,170,40976,2,0,B|475:206|475:206|491:239,1,75.0000028610231,2|0,0:1|1:0,0:0:0:0:
313,48,41318,5,2,0:0:0:0:
313,48,41404,1,2,0:0:0:0:
313,48,41490,2,0,P|353:76|402:80,1,100,10|0,0:1|0:0,0:0:0:0:
203,68,41833,1,0,0:0:0:0:
383,157,42004,6,0,P|320:146|268:113,1,125,2|8,1:0|0:0,0:0:0:0:
195,231,42347,2,0,P|165:221|134:220,1,62.5,2|0,0:1|0:0,0:0:0:0:
39,147,42518,5,0,1:0:0:0:
194,152,42689,1,0,0:0:0:0:
271,280,42861,1,10,0:1:0:0:
234,349,43032,5,2,0:3:0:0:
222,343,43118,1,2,0:3:0:0:
116,154,43289,5,2,0:3:0:0:
115,141,43375,1,2,1:3:0:0:
22,288,43547,5,10,0:1:0:0:
88,244,43718,2,0,L|102:321,1,75.0000028610231,2|0,0:1|0:0,0:0:0:0:
102,318,44061,1,0,0:0:0:0:
207,249,44233,1,2,0:0:0:0:
207,249,44404,1,0,0:0:0:0:
317,310,44576,5,2,0:0:0:0:
348,315,44747,5,2,0:0:0:0:
402,303,44918,5,2,0:0:0:0:
459,228,45090,5,2,0:0:0:0:
423,122,45261,5,4,3:2:0:0:
408,107,45604,6,0,B|374:98|337:117|335:162|335:162|363:214,1,165.000005035401,8|0,1:0|0:0,0:0:0:0:
369,221,45947,1,0,0:0:0:0:
163,155,46118,1,0,1:0:0:0:
369,221,46290,2,0,P|337:181|283:187,1,110.000003356934,8|0,1:0|0:0,0:0:0:0:
222,229,46547,1,2,2:0:0:0:
217,238,46633,1,0,1:0:0:0:
72,165,46804,5,0,0:0:0:0:
0,284,46976,2,0,B|9:253|9:253|7:243|7:243|24:198|24:198|81:177|119:243|81:273,1,209.999993591309,10|0,1:0|0:0,0:0:0:0:
81,270,47318,1,0,0:0:0:0:
258,364,47490,6,0,L|266:327,1,37.5000014305115,0|0,1:0|0:0,0:0:0:0:
318,268,47661,1,8,1:0:0:0:
197,304,47833,1,0,0:0:0:0:
449,283,48004,5,0,1:0:0:0:
449,283,48090,2,0,P|493:307|466:351,1,100,2|0,1:3|0:0,0:0:0:0:
464,364,48347,2,0,P|431:371|443:273,1,179.999994506836,10|0,1:0|0:0,0:0:0:0:
449,283,48690,1,0,0:0:0:0:
427,15,48861,6,0,L|436:67,1,37.5000014305115,0|0,1:0|0:0,0:0:0:0:
370,83,49033,1,8,1:0:0:0:
343,196,49204,1,0,0:0:0:0:
470,167,49376,6,0,B|496:126|456:104|456:104|452:99|452:99|370:83,1,165.000005035401,0|0,1:0|0:0,0:0:0:0:
289,69,49718,1,8,1:0:0:0:
53,4,49890,2,0,B|84:3|91:40|91:40|70:75|70:75|73:80|73:80|50:119|50:119|62:162|107:154,1,209.999993591309,2|0,1:0|0:0,0:0:0:0:
289,69,50233,6,0,B|280:61|280:61|224:74,1,69.9999978637696,0|0,1:0|0:0,0:0:0:0:
152,102,50404,1,8,1:0:0:0:
295,158,50576,1,0,0:0:0:0:
151,204,50747,5,0,1:0:0:0:
151,204,50833,2,0,B|120:166|120:166|171:134,1,100,2|0,1:3|0:0,0:0:0:0:
223,187,51090,2,0,B|262:203|262:203|326:162|287:81|243:100,1,179.999994506836,8|0,1:0|0:0,0:0:0:0:
241,103,51433,1,0,0:0:0:0:
236,270,51604,6,0,L|242:308,1,37.5000014305115,0|0,1:0|0:0,0:0:0:0:
294,356,51776,1,8,1:0:0:0:
172,326,51947,1,0,0:0:0:0:
373,308,52118,6,0,B|405:319|405:319|423:232,1,100,0|0,1:0|0:0,0:0:0:0:
432,180,52376,1,0,0:0:0:0:
436,164,52461,1,8,1:0:0:0:
322,22,52633,2,0,B|296:3|296:3|247:12|247:12|203:34|186:82|233:125,1,194.999991073609,2|0,1:0|0:0,0:0:0:0:
232,108,52976,2,0,P|247:138|240:184,1,64.9999970245363,0|0,1:0|0:0,0:0:0:0:
128,316,53147,6,0,B|94:352|38:336|38:336|76:333|95:311,1,150,10|0,1:0|0:0,0:0:0:0:
38,255,53490,5,0,1:0:0:0:
136,304,53661,1,2,0:0:0:0:
222,376,53833,2,0,P|323:280|290:234,1,194.999991073609,10|0,1:0|0:0,0:0:0:0:
239,161,54176,6,0,L|251:86,1,55.0000016784668,2|0,0:0|3:0,0:0:0:0:
213,83,54433,1,0,1:0:0:0:
148,114,54518,2,0,B|91:139|91:139|22:144|11:67|56:53,1,194.999991073609,10|0,1:0|0:0,0:0:0:0:
193,0,54861,6,0,L|251:13,1,40,6|0,1:0|0:0,0:0:0:0:
512,232,55204,6,0,B|515:176|456:135|408:165|408:165|423:210,1,179.999994506836,6|0,1:0|0:0,0:0:0:0:
423,207,55547,1,2,0:0:0:0:
256,384,55718,6,0,P|240:357|250:323,1,64.9999970245363,0|0,1:0|0:0,0:0:0:0:
304,216,55890,6,0,P|288:205|272:180,1,29.9999990844727,8|0,1:0|0:0,0:0:0:0:
224,144,56061,2,0,P|234:133|248:112,1,29.9999990844727,2|0,0:0|0:0,0:0:0:0:
260,0,56233,5,4,0:0:0:0:
260,0,56576,1,0,1:0:0:0:
361,76,56747,2,0,P|416:73|395:15,1,119.999996337891,2|0,1:0|1:0,0:0:0:0:
409,21,57090,5,0,0:0:0:0:
327,154,57261,2,0,P|378:163|396:101,1,119.999996337891,2|0,1:0|0:0,0:0:0:0:
332,79,57518,1,0,0:0:0:0:
332,79,57604,1,0,1:0:0:0:
209,211,57776,6,0,B|151:225|151:225|141:159,1,119.999996337891,2|0,1:0|0:0,0:0:0:0:
42,226,58118,1,0,0:0:0:0:
279,255,58290,5,0,1:0:0:0:
279,255,58376,2,0,B|310:309|310:309|261:351,1,119.999996337891,2|0,1:0|0:0,0:0:0:0:
250,359,58633,1,0,1:0:0:0:
355,39,58976,6,0,B|311:33|311:33|386:65,1,119.999996337891,2|0,1:0|0:0,0:0:0:0:
200,120,59318,1,0,1:0:0:0:
380,62,59490,6,0,P|426:102|395:162,1,119.999996337891,2|0,1:0|1:0,0:0:0:0:
281,29,59833,1,0,0:0:0:0:
413,237,60004,6,0,B|361:254|361:254|334:173,1,119.999996337891,2|0,1:0|1:0,0:0:0:0:
318,120,60261,1,2,0:0:0:0:
318,120,60347,1,0,1:0:0:0:
413,237,60518,5,2,1:0:0:0:
303,311,60690,2,0,P|251:320|164:217,1,179.999994506836,0|0,1:0|0:0,0:0:0:0:
150,238,61033,2,0,P|177:188|243:195,1,119.999996337891,2|0,1:0|0:0,0:0:0:0:
315,301,61376,2,0,P|288:351|222:344,1,119.999996337891,2|2,1:0|0:0,0:0:0:0:
231,277,61633,1,0,1:0:0:0:
238,268,61718,1,4,1:0:0:0:
19,26,62061,5,0,1:0:0:0:
180,123,62233,2,0,L|191:87,1,37.5000014305115,2|0,1:0|0:0,0:0:0:0:
191,87,62404,2,0,P|139:101|119:46,1,119.999996337891,0|0,1:0|0:0,0:0:0:0:
314,208,62747,2,0,L|323:255,1,37.5000014305115,2|0,1:0|0:0,0:0:0:0:
381,165,62918,6,0,P|423:202|392:263,1,119.999996337891,2|0,1:2|1:0,0:0:0:0:
244,301,63261,2,0,P|202:264|233:203,1,119.999996337891,2|0,1:0|1:0,0:0:0:0:
427,259,63604,2,0,P|389:307|328:290,1,119.999996337891,2|2,1:2|1:3,0:0:0:0:
191,204,63947,2,0,P|229:156|290:173,1,119.999996337891,0|0,2:0|1:0,0:0:0:0:
404,256,64290,5,2,1:2:0:0:
104,367,64461,5,2,1:0:0:0:
104,367,64547,2,0,B|43:342|43:342|71:257,1,129.999994049073,2|0,1:3|0:0,0:0:0:0:
99,268,64804,1,0,1:0:0:0:
180,89,64976,1,2,1:0:0:0:
180,89,65061,1,2,0:0:0:0:
180,89,65147,1,0,1:0:0:0:
280,141,65318,5,2,0:0:0:0:
180,89,65490,2,0,P|231:108|378:42,1,194.999991073609,0|0,1:0|0:0,0:0:0:0:
512,8,65833,5,0,1:0:0:0:
436,172,66004,1,2,1:2:0:0:
359,66,66176,1,0,1:0:0:0:
480,120,66347,1,0,1:0:0:0:
192,244,66518,5,4,1:0:0:0:
312,196,66690,1,0,1:0:0:0:
236,304,66861,1,0,1:0:0:0:
164,76,67033,1,0,1:0:0:0:
512,8,67204,5,6,1:2:0:0:
512,8,67547,1,2,0:0:0:0:
440,33,67718,1,2,0:0:0:0:
92,51,68233,5,2,0:0:0:0:
92,51,68576,1,2,0:0:0:0:
164,76,68747,1,2,0:0:0:0:
292,35,69261,5,2,0:0:0:0:
292,35,69947,5,2,1:3:0:0:
348,229,70118,1,0,1:0:0:0:
242,143,70290,1,0,1:0:0:0:
273,326,70461,1,8,1:0:0:0:
178,2,70976,6,0,P|187:6|196:7,1,20,8|0,1:0|0:0,0:0:0:0:
431,143,71147,2,0,P|416:141|401:136,1,29.9999990844727,8|0,1:0|0:0,0:0:0:0:
160,243,71318,2,0,P|179:240|197:231,1,40,8|0,1:0|0:0,0:0:0:0:
423,313,71490,6,2,B|458:347|501:343|533:290|514:232|429:212|364:270|419:317|356:362|282:335,1,349.999989318848,8|0,1:0|0:0,0:1:0:0:
278,325,72004,6,8,P|297:324|317:329,1,40,0|0,0:0|0:0,0:3:0:0:
446,369,72690,6,0,B|459:334|459:334|442:300,1,75.0000028610231,6|0,1:0|0:0,0:0:0:0:
385,178,72861,1,0,0:0:0:0:
365,252,73033,1,10,1:2:0:0:
475,131,73204,1,2,0:1:0:0:
331,62,73376,2,0,B|279:53|286:89|235:81,1,100,2|0,0:0|1:0,0:0:0:0:
140,16,73633,1,0,0:0:0:0:
149,0,73718,6,0,P|160:28|160:59,1,62.5,10|0,1:0|0:0,0:0:0:0:
34,165,73890,2,0,P|30:107|86:91,1,125,2|0,0:0|1:0,0:0:0:0:
128,153,74233,1,2,0:0:0:0:
265,198,74404,6,0,B|262:163|262:163|248:194,1,69.9999978637696,10|0,1:0|0:0,0:0:0:0:
177,252,74576,2,0,B|248:254|219:288|308:294,1,139.999995727539,2|0,0:0|0:0,0:0:0:0:
92,279,74918,1,2,1:0:0:0:
326,368,75090,6,0,B|362:359|362:359|388:379,1,69.9999978637696,10|0,1:2|0:0,0:0:0:0:
498,243,75261,1,2,0:0:0:0:
496,251,75318,1,2,0:0:0:0:
494,259,75376,1,2,0:0:0:0:
492,267,75433,2,0,B|431:280|431:280|380:242,1,125,2|0,1:0|0:0,0:0:0:0:
250,137,75776,1,10,1:0:0:0:
111,300,75947,5,2,0:0:0:0:
181,273,76118,1,2,0:0:0:0:
122,225,76290,2,0,B|113:211|113:211|123:193,1,37.5000014305115,2|0,1:0|0:0,0:0:0:0:
245,352,76461,5,10,1:2:0:0:
363,289,76633,1,2,0:0:0:0:
506,337,76804,6,0,B|513:386|513:386|439:325|439:325|466:250,1,225.000008583069,2|0,1:0|0:0,0:0:0:0:
416,172,77147,6,0,P|452:163|480:139,1,75.0000028610231,10|0,1:0|0:0,0:0:0:0:
363,288,77318,6,0,B|289:302|289:302|264:219|344:218|304:129,1,250,2|2,0:0|1:0,0:0:0:0:
352,56,77747,1,2,0:3:0:0:
335,51,77833,1,2,0:3:0:0:
480,139,78004,6,0,L|499:64,1,62.5,8|0,1:2|0:2,1:2:0:0:
301,251,78176,6,0,B|269:225|269:225|156:239,1,150.000005722046,0|0,1:0|0:0,0:0:0:0:
380,217,78518,1,10,1:0:0:0:
185,348,78690,1,2,0:0:0:0:
192,361,78776,2,0,B|208:368|208:368|239:362,1,50,2|0,0:3|0:0,0:0:0:0:
93,308,78947,1,2,0:3:0:0:
76,311,79033,1,2,1:0:0:0:
184,74,79204,6,0,L|169:137,1,62.5,10|0,1:2|0:0,0:0:0:0:
238,231,79376,2,0,L|148:212,1,62.5,2|0,0:1|0:1,0:1:0:0:
0,179,79547,2,0,B|72:167|72:167|103:210|103:210|162:223,1,187.5,2|0,1:0|0:0,0:0:0:0:
64,90,79890,1,10,1:0:0:0:
161,328,80061,6,0,B|188:327|207:309|207:309|232:305|256:325,1,100,2|0,0:0|0:0,0:0:0:0:
492,269,80404,1,2,1:0:0:0:
477,289,80490,1,0,1:0:0:0:
463,309,80576,2,0,B|429:265|429:265|435:221,1,100,8|2,1:0|0:1,0:0:0:0:
172,40,80918,5,0,1:0:0:0:
311,98,81090,1,0,0:0:0:0:
431,43,81261,2,0,B|450:61|475:51|475:51|459:51|449:45,1,75.0000028610231,10|0,1:0|0:0,0:0:0:0:
303,110,81433,5,0,0:0:0:0:
164,52,81605,1,0,0:0:0:0:
44,107,81776,2,0,B|24:88|-1:98|-1:98|14:99|25:104,1,75.0000028610231,2|0,1:0|0:0,0:0:0:0:
233,76,81947,1,10,1:2:0:0:
456,52,82118,5,2,0:0:0:0:
456,52,82204,1,2,0:0:0:0:
456,52,82290,2,0,B|502:45|527:99|506:141,1,125,0|0,1:0|0:0,0:0:0:0:
413,356,82633,5,10,1:0:0:0:
483,308,82804,2,0,B|429:267|429:267|373:281,1,125,0|0,1:2|0:2,1:2:0:0:
168,159,83147,5,10,1:0:0:0:
400,200,83318,1,0,1:0:0:0:
168,159,83490,1,10,1:0:0:0:
51,141,83661,6,0,P|69:152|43:147,1,75
49,150,84004,6,0,B|125:141|125:141|122:151|122:151|209:165,1,175.00000166893,10|0,1:0|0:0,0:0:0:0:
417,0,84347,2,0,P|389:19|396:92,1,100,2|2,0:0|1:2,0:0:0:0:
455,160,84604,1,0,1:0:0:0:
455,160,84690,6,0,B|446:128|446:128|435:155,1,62.5,8|0,1:0|0:0,0:0:0:0:
467,298,84861,2,0,B|454:319|454:319|409:275|434:213,1,125,2|0,0:1|1:0,0:0:0:0:
352,311,85204,1,0,0:0:0:0:
143,149,85376,6,0,P|125:129|151:136,1,69.9999978637696,10|0,1:0|0:0,0:0:0:0:
253,200,85547,2,0,B|177:188|198:233|119:222,1,139.999995727539,2|0,0:0|0:0,0:0:0:0:
68,360,85890,5,0,1:0:0:0:
68,360,85976,1,0,1:0:0:0:
15,306,86061,2,0,B|40:284|40:284|69:288,1,62.5,10|0,1:0|0:0,0:0:0:0:
169,363,86233,2,0,B|194:385|194:385|223:380,1,62.5,2|0,0:0|0:0,0:0:0:0:
334,316,86404,5,0,1:0:0:0:
306,194,86576,1,0,0:0:0:0:
393,362,86747,2,0,B|409:336|409:336|406:304,1,62.5,10|0,1:0|0:0,0:0:0:0:
344,165,86918,5,0,0:0:0:0:
318,175,87004,1,2,0:3:0:0:
486,140,87176,1,2,0:3:0:0:
466,128,87261,2,0,B|463:96|463:96|479:70,1,62.5,2|0,1:0|0:0,0:0:0:0:
314,31,87433,6,2,P|277:28|252:54,1,75.0000028610231,10|0,1:2|0:0,0:0:0:0:
206,115,87604,2,2,P|169:117|144:91,1,75.0000028610231,2|0,0:2|0:0,0:0:0:0:
28,53,87776,6,0,B|66:50|94:23|94:23|53:60|66:136,1,187.5,2|0,1:0|0:0,0:0:0:0:
11,202,88118,1,10,1:0:0:0:
80,325,88290,6,0,P|106:307|137:304,1,62.5,2|0,0:0|0:0,0:0:0:0:
131,373,88461,1,0,0:0:0:0:
86,309,88633,6,0,P|112:291|143:288,1,62.5,2|0,1:2|0:0,0:0:0:0:
238,309,88804,1,0,0:0:0:0:
92,293,88976,6,0,P|118:275|149:272,1,62.5,10|0,1:2|0:0,0:0:0:0:
371,176,89147,5,0,1:0:0:0:
421,226,89318,1,0,0:0:0:0:
439,157,89490,1,2,1:0:0:0:
221,232,89661,5,0,0:0:0:0:
159,190,89833,1,0,1:0:0:0:
92,227,90004,1,2,0:1:0:0:
92,227,90090,1,0,0:0:0:0:
92,227,90176,1,0,1:0:0:0:
336,294,90347,5,2,0:1:0:0:
191,81,90518,5,0,1:0:0:0:
118,92,90690,1,0,0:0:0:0:
193,68,90861,1,2,1:0:0:0:
340,188,91033,5,0,0:0:0:0:
442,192,91204,1,0,1:0:0:0:
326,168,91376,1,2,0:1:0:0:
213,233,91547,1,2,1:2:0:0:
156,340,91718,1,2,0:0:0:0:
35,231,91890,6,0,L|41:194,1,37.5000014305115,4|0,1:0|0:0,0:0:0:0:
44,138,92061,2,0,L|50:174,1,37.5000014305115,0|0,1:0|0:0,0:0:0:0:
116,256,92233,6,0,L|125:206,1,50,0|0,1:0|0:0,0:0:0:0:
125,113,92404,2,0,L|134:162,1,50,0|0,1:0|0:0,0:0:0:0:
197,281,92576,6,0,L|208:219,1,62.5,0|0,1:0|0:0,0:0:0:0:
206,88,92747,2,0,L|217:151,1,62.5,0|0,1:0|0:0,0:0:0:0:
278,306,92918,6,0,L|291:232,1,75.0000028610231,0|0,1:0|0:0,0:0:0:0:
287,63,93090,2,0,L|300:136,1,75.0000028610231,0|0,1:0|0:0,0:0:0:0:
414,328,93261,5,2,3:0:0:0:
420,346,93347,1,2,3:0:0:0:
433,359,93433,1,0,3:0:0:0:
458,370,93518,1,0,3:0:0:0:
431,345,93604,1,2,3:0:0:0:
429,298,93690,1,0,3:0:0:0:
451,256,93776,1,2,3:0:0:0:
476,207,93861,1,0,3:0:0:0:
463,150,93947,1,2,3:0:0:0:
368,50,94118,5,2,3:0:0:0:
381,44,94204,1,2,3:0:0:0:
485,58,94290,6,0,B|385:70|385:70|378:82|378:82|267:96,1,225.000008583069,12|0,1:0|0:0,0:0:0:0:
172,93,94633,5,6,1:0:0:0:
85,165,94804,1,0,0:0:0:0:
301,207,94976,5,8,1:0:0:0:
172,93,95147,2,0,B|166:178|240:158|227:249,1,165.000005035401,2|0,1:0|0:0,0:0:0:0:
216,330,95490,6,0,L|264:321,1,40,2|0,1:3|0:0,0:0:0:0:
376,214,95661,6,0,P|394:236|389:278,1,55.0000016784668,10|0,1:0|0:0,0:0:0:0:
470,352,95833,6,0,L|423:336,1,40,2|0,1:0|0:0,0:0:0:0:
319,276,96004,5,0,1:0:0:0:
211,222,96176,1,2,1:0:0:0:
82,316,96347,2,0,P|29:311|37:197,1,165.000005035401,8|0,1:0|0:0,0:0:0:0:
30,210,96690,1,2,0:0:0:0:
255,113,96861,6,0,P|260:94|262:53,1,55.0000016784668,0|0,1:0|0:0,0:0:0:0:
191,35,97033,1,8,1:0:0:0:
325,0,97204,1,0,0:0:0:0:
103,29,97376,5,2,1:0:0:0:
147,131,97547,2,0,B|157:94|157:94|179:77|179:77|191:35,1,110.000003356934,0|8,0:0|1:0,0:0:0:0:
498,131,97890,6,0,B|504:95|462:82|462:82|364:100,1,165.000005035401,2|0,1:0|0:0,0:0:0:0:
355,94,98233,2,0,P|338:118|343:157,1,55.0000016784668,2|0,1:0|0:0,0:0:0:0:
267,271,98404,5,10,1:0:0:0:
383,211,98576,1,2,0:0:0:0:
235,199,98747,5,0,1:0:0:0:
434,278,98918,2,0,B|456:283|456:283|466:288|466:288|510:300,2,55.0000016784668,0|2|10,0:0|0:0|1:0,0:0:0:0:
184,260,99433,5,2,0:0:0:0:
26,328,99604,2,0,B|-27:333|9:402|97:399|143:317,1,194.999991073609,0|0,1:0|0:0,0:0:0:0:
184,260,99947,6,0,L|172:188,1,64.9999970245363,8|0,1:0|0:0,0:0:0:0:
269,8,100118,5,6,1:0:0:0:
168,42,100290,1,0,0:0:0:0:
442,93,100461,5,8,1:0:0:0:
269,8,100633,2,0,B|283:35|283:35|250:138|250:138|265:172,1,165.000005035401,2|0,1:0|0:0,0:0:0:0:
371,215,100976,6,0,B|345:217|345:217|316:224,1,55.0000016784668,2|0,1:0|0:0,0:0:0:0:
197,288,101147,1,8,1:0:0:0:
480,274,101318,6,0,P|491:259|491:229,1,40,2|0,0:3|2:0,0:0:0:0:
448,178,101490,1,0,1:0:0:0:
353,293,101661,2,0,P|373:339|430:335,1,110.000003356934,2|8,2:1|1:0,0:0:0:0:
427,338,102004,5,0,0:0:0:0:
249,213,102176,2,0,P|166:230|121:295,1,165.000005035401,2|0,1:0|0:0,0:0:0:0:
75,354,102518,2,0,P|28:361|21:306,1,110.000003356934,10|0,1:0|0:0,0:0:0:0:
259,217,102861,5,2,1:0:0:0:
128,296,103033,1,0,0:0:0:0:
253,123,103204,5,8,1:0:0:0:
352,214,103376,2,0,P|298:213|272:90,1,165.000005035401,2|0,1:0|0:0,0:0:0:0:
239,111,103718,2,0,P|253:89|280:74,1,55.0000016784668,0|0,1:0|0:0,0:0:0:0:
463,38,103890,5,10,1:0:0:0:
371,96,104061,1,2,0:0:0:0:
144,52,104233,5,0,1:0:0:0:
274,118,104404,1,0,0:0:0:0:
188,232,104576,2,0,B|141:226|141:226|118:232|118:232|12:218,1,165.000005035401,10|0,1:0|0:0,0:0:0:0:
17,218,104918,2,0,P|6:175|55:137,1,110.000003356934,2|0,1:2|0:0,0:0:0:0:
272,300,105261,6,0,P|283:343|211:316,1,165.000005035401,2|0,1:2|0:0,0:0:0:0:
256,192,105604,6,0,B|261:170|261:170|255:153|255:153|268:84,1,100,6|0,1:0|0:0,0:0:0:0:
96,28,105947,6,0,B|54:27|28:2|28:2|51:47|118:45,1,165.000005035401,10|0,1:0|0:0,0:0:0:0:
271,99,106290,6,0,P|326:68|295:30,1,119.999996337891,2|0,1:0|0:0,0:0:0:0:
7,164,106633,6,0,B|-30:207|23:235|23:235|55:225|55:225|71:228|71:228|132:210,1,194.999991073609,10|0,1:0|0:0,0:0:0:0:
256,192,106976,5,2,1:2:0:0:
289,209,107147,1,2,1:0:0:0:
251,227,107318,1,8,1:0:0:0:
199,198,107490,1,0,0:0:0:0:
256,151,107661,1,2,2:0:0:0:
325,186,107833,2,0,P|335:206|330:241,1,40,0|2,1:0|0:0,0:0:0:0:
126,364,108004,6,0,B|81:392|27:354|33:297|33:297|41:287|41:287|42:276|42:276|62:243,1,194.999991073609,10|0,1:0|0:0,0:0:0:0:
140,144,108347,6,0,B|156:124|156:124|46:144,1,129.999994049073,2|0,1:0|0:0,0:0:0:0:
351,181,108690,6,0,B|398:166|427:216|427:216|429:233|429:233|404:272|404:272|411:310,1,179.999994506836,10|0,1:0|0:0,0:0:0:0:
333,369,109033,6,0,P|275:372|257:325,1,110.000003356934,2|0,1:2|1:0,0:0:0:0:
156,123,109376,6,0,B|176:154|229:160|229:160|195:182|200:232,1,150,10|0,1:0|0:0,0:0:0:0:
273,222,109718,5,2,1:2:0:0:
156,123,109890,1,2,0:0:0:0:
327,17,110061,2,0,P|398:30|411:119,1,165.000005035401,10|0,1:0|0:0,0:0:0:0:
402,122,110404,5,2,2:0:0:0:
468,224,110576,1,0,1:0:0:0:
312,136,110747,5,2,1:2:0:0:
208,326,110918,2,0,B|196:337|189:349|189:349|186:330|201:311,1,64.9999970245363,10|0,1:0|0:0,0:0:0:0:
273,232,111090,5,2,1:0:0:0:
422,166,111261,2,0,P|471:173|467:223,1,110.000003356934,2|8,1:2|1:0,0:0:0:0:
404,265,111604,1,2,2:0:0:0:
212,154,111776,2,0,B|145:139|145:139|181:158,1,110.000003356934,2|0,1:0|1:0,0:0:0:0:
196,168,112033,1,2,0:0:0:0:
212,177,112118,1,8,1:0:0:0:
428,91,112290,6,0,L|361:106,1,55.0000016784668,2|0,1:0|0:0,0:0:0:0:
374,103,112461,2,0,B|467:124|467:124|430:62,1,165.000005035401,2|0,1:3|0:0,0:0:0:0:
389,2,112804,1,10,1:0:0:0:
175,222,112976,6,0,B|186:261|241:280|277:231|277:231|287:187,1,165.000005035401,2|0,1:3|0:0,0:0:0:0:
273,183,113318,2,0,B|265:193|265:193|256:240,1,55.0000016784668,0|0,1:0|0:0,0:0:0:0:
428,369,113490,6,0,B|388:381|388:381|341:352|369:310|369:310|410:298,1,165.000005035401,10|0,1:0|0:0,0:0:0:0:
482,284,113833,5,2,1:3:0:0:
373,68,114004,2,0,B|337:63|321:91|321:91|340:124|340:124|330:150,1,110.000003356934,2|8,1:0|1:0,0:0:0:0:
284,196,114347,1,0,0:0:0:0:
121,346,114518,2,0,B|102:356|102:356|36:327|36:327|64:321,1,110.000003356934,2|0,0:0|1:0,0:0:0:0:
108,272,114776,1,2,0:0:0:0:
113,270,114861,2,0,L|163:287,1,42.5000008106232,10|0,1:0|0:0,0:0:0:0:
261,379,115033,2,0,B|251:356|256:340|246:325,1,42.5000008106232,2|0,1:3|0:0,0:0:0:0:
311,173,115204,5,2,1:3:0:0:
234,261,115376,2,0,P|226:217|239:170,1,89.9999972534181,2|8,1:2|1:0,0:0:0:0:
416,59,115718,6,0,B|434:10|490:35|490:35|518:78|483:101,1,165.000005035401,2|0,1:0|0:0,0:0:0:0:
395,183,116061,6,0,P|361:179|331:143,1,64.9999970245363,8|0,1:0|0:0,0:0:0:0:
198,153,116233,6,0,P|180:136|174:96,1,50,2|0,1:0|0:0,0:0:0:0:
99,69,116404,6,0,P|103:53|123:36,1,34.9999989318848,10|0,1:0|0:0,0:0:0:0:
176,2,116576,5,6,1:2:0:0:
176,2,116918,1,2,0:0:0:0:
254,15,117090,1,0,0:0:0:0:
332,29,117261,1,0,0:0:0:0:
410,43,117433,1,2,0:0:0:0:
417,45,117519,1,0,0:0:0:0:
424,47,117604,1,0,0:0:0:0:
332,29,117776,6,0,B|273:27|289:54|236:53,1,100,2|0,0:0|0:0,0:0:0:0:
125,157,118290,1,2,0:0:0:0:
125,157,118461,1,0,0:0:0:0:
290,204,118633,1,2,0:0:0:0:
203,177,118890,1,0,0:0:0:0:
205,183,118976,2,0,L|212:232,2,50,2|0|0,0:0|0:0|0:0,0:0:0:0:
25,353,119661,5,2,0:0:0:0:
84,309,119833,1,0,0:0:0:0:
152,336,120004,1,0,0:0:0:0:
101,384,120176,1,2,0:0:0:0:
101,384,120261,1,2,0:0:0:0:
101,384,120347,1,2,0:0:0:0:
177,344,120518,6,0,B|226:350,1,50,2|0,0:0|0:0,0:0:0:0:
78,292,120861,1,0,0:0:0:0:
78,292,121033,2,0,B|84:242,1,50,2|0,0:0|0:0,0:0:0:0:
14,145,121376,2,0,B|53:175,1,50,2|0,0:0|0:0,0:0:0:0:
173,163,121718,2,0,B|126:181,1,50,2|0,0:0|0:0,0:0:0:0:
97,114,122061,5,0,0:0:0:0:
97,114,122404,1,2,0:0:0:0:
161,68,122576,1,0,0:0:0:0:
235,87,122747,1,0,0:0:0:0:
157,56,122918,5,2,0:0:0:0:
232,76,123090,1,0,0:0:0:0:
322,43,123261,6,0,L|330:142,1,100,2|0,0:0|0:0,0:0:0:0:
424,209,123776,2,0,P|455:231|497:231,1,75,2|0,0:0|0:0,0:0:0:0:
413,213,124118,2,0,P|397:249|405:285,1,75,2|0,0:0|0:0,0:0:0:0:
472,315,124461,2,0,P|436:306|409:304,1,50,2|0,0:0|0:0,0:0:0:0:
287,383,124804,6,0,L|361:371,1,75,2|0,0:0|0:0,0:0:0:0:
346,358,125147,2,0,L|296:365,1,50,2|0,0:0|0:0,0:0:0:0:
206,340,125490,6,0,L|131:328,1,75,2|0,0:0|0:0,0:0:0:0:
147,315,125833,2,0,L|196:322,1,50,2|0,0:0|0:0,0:0:0:0:
282,264,126176,6,0,P|289:241|290:216,1,50,2|0,0:0|0:0,0:0:0:0:
286,190,126347,1,0,0:0:0:0:
201,225,126518,6,0,P|189:203|172:184,1,50,2|0,0:0|0:0,0:0:0:0:
150,169,126689,1,0,0:0:0:0:
273,255,126861,6,0,P|278:240|280:226,1,29.9999990844727,2|0,0:0|0:0,0:0:0:0:
187,224,127033,2,0,P|180:210|171:198,1,29.9999990844727,2|0,0:0|0:0,0:0:0:0:
104,262,127204,2,0,P|89:256|75:254,1,29.9999990844727,2|0,0:0|0:0,0:0:0:0:
73,348,127376,2,0,P|59:354|47:363,1,29.9999990844727,2|0,0:0|0:0,0:0:0:0:
6,384,127547,6,0,L|2:309,1,75.0000028610231,4|0,1:0|0:0,0:0:0:0:
156,372,127890,1,2,1:2:0:0:
156,372,128061,1,0,0:0:0:0:
104,262,128233,2,0,L|177:275,1,75.0000028610231,2|0,1:2|0:0,0:0:0:0:
188,277,128490,1,0,0:0:0:0:
198,279,128576,1,0,1:0:0:0:
315,206,128747,6,0,L|241:215,1,75.0000028610231,2|0,0:0|1:0,0:0:0:0:
373,271,129090,1,0,0:0:0:0:
474,184,129261,2,0,P|439:170|402:170,1,75.0000028610231,2|0,1:2|0:0,0:0:0:0:
512,262,129604,2,0,P|497:227|470:201,1,75.0000028610231,2|0,1:2|0:0,0:0:0:0:
483,344,129861,1,0,0:0:0:0:
483,344,129947,2,0,P|496:309|496:272,1,75.0000028610231,2|0,1:2|0:0,0:0:0:0:
429,96,130290,6,0,L|501:113,1,75.0000028610231,0|0,1:0|0:0,0:0:0:0:
372,37,130633,2,0,P|338:53|301:58,1,75.0000028610231,2|0,1:2|0:0,0:0:0:0:
166,88,130976,1,2,1:2:0:0:
275,152,131147,1,2,0:0:0:0:
275,152,131233,1,2,0:0:0:0:
275,152,131318,1,2,1:2:0:0:
392,289,131490,6,0,P|394:251|381:217,2,75.0000028610231,2|0|0,0:0|1:0|0:0,0:0:0:0:
295,356,132004,2,0,B|230:362|251:330|185:341,1,112.500004291535,2|0,1:2|0:0,0:0:0:0:
166,332,132347,2,0,P|178:297|176:260,1,75.0000028610231,2|0,1:2|0:0,0:0:0:0:
86,192,132604,1,0,0:0:0:0:
86,192,132690,2,0,P|67:244|73:300,1,112.500004291535,2|0,1:2|0:0,0:0:0:0:
84,312,133033,5,2,1:2:0:0:
80,384,133204,1,0,0:0:0:0:
180,332,133376,5,2,1:2:0:0:
176,260,133547,1,0,0:0:0:0:
268,208,133719,5,2,1:2:0:0:
272,280,133890,1,0,0:0:0:0:
362,224,134061,5,2,1:2:0:0:
201,161,134233,2,0,B|191:174|191:174|161:183|126:172,1,75.0000028610231,2|0,0:0|1:0,0:0:0:0:
309,119,134576,2,0,B|302:103|302:103|309:73|336:48,1,75.0000028610231,2|0,0:0|1:0,0:0:0:0:
376,238,134918,2,0,B|392:240|392:240|415:261|423:297,1,75.0000028610231,2|0,0:0|1:0,0:0:0:0:
268,208,135261,1,2,0:0:0:0:
268,208,135347,1,2,0:0:0:0:
268,208,135433,1,2,1:2:0:0:
466,205,135604,1,0,0:0:0:0:
410,156,135776,6,0,L|421:82,1,75.0000028610231,2|0,1:2|0:0,0:0:0:0:
481,220,136118,1,0,1:0:0:0:
309,119,136290,6,0,L|319:44,1,75.0000028610231,2|0,0:0|1:0,0:0:0:0:
379,182,136633,1,2,0:0:0:0:
258,273,136804,1,2,1:2:0:0:
258,273,136976,1,2,0:0:0:0:
176,205,137147,5,0,1:0:0:0:
379,182,137318,1,0,1:0:0:0:
461,250,137490,1,0,1:0:0:0:
258,273,137661,1,0,1:0:0:0:
110,145,137833,5,2,1:2:0:0:
333,109,138004,1,2,1:2:0:0:
368,332,138176,1,0,1:0:0:0:
145,368,138347,1,2,1:2:0:0:
29,384,138518,5,4,1:0:0:0:
286,271,138861,5,0,0:0:0:0:
222,254,139033,1,2,0:0:0:0:
268,158,139547,5,2,0:0:0:0:
214,42,139890,5,0,0:0:0:0:
307,14,140061,1,2,0:0:0:0:
283,31,140576,6,0,L|235:21,1,44.999998626709,2|0,0:0|0:0,0:0:0:0:
121,113,141261,5,12,1:0:0:0:
204,127,141433,1,0,1:0:0:0:
318,149,141604,1,0,1:0:0:0:
216,33,141776,6,0,L|310:15,1,80,10|2,1:0|0:0,0:0:0:0:
303,22,142204,1,2,0:0:0:0:
303,22,142290,6,0,B|300:43|300:43|290:87,1,44.999998626709,14|0,1:0|0:0,0:0:0:0:
128,65,142461,6,0,B|129:93|129:93|141:145,1,55.0000016784668,0|0,1:0|0:0,0:0:0:0:
347,127,142633,6,0,B|344:161|344:161|331:198,1,64.9999970245363,0|0,1:3|0:0,0:0:0:0:
66,218,142804,6,0,B|85:161|85:161|119:127|153:136|161:185|161:185|136:265|136:265|125:322|212:338|224:270,1,375.000014305115,14|0,1:0|0:0,0:0:0:0:
251,138,143318,6,0,L|244:96,1,40,2|0,0:0|0:0,0:0:0:0:
0,19,144004,6,0,B|54:3|89:54|89:54|49:84|65:130,1,179.999994506836,6|0,1:0|0:0,0:0:0:0:
137,113,144347,1,10,1:0:0:0:
312,24,144518,1,2,0:0:0:0:
253,282,144690,6,0,P|244:243|244:204,1,80,2|0,0:3|1:0,0:0:0:0:
244,204,144947,1,2,0:0:0:0:
244,204,145033,2,0,P|217:216|184:220,1,57.5000010967255,8|0,1:0|0:0,0:0:0:0:
407,292,145204,2,0,B|444:324|491:309|491:309|461:310|432:288,1,150.000005722046,2|0,1:0|1:0,0:0:0:0:
492,180,145547,6,0,P|472:166|458:137,1,57.5000010967255,2|0,0:3|0:0,0:0:0:0:
321,269,145718,2,0,P|347:228|357:155,1,115.000002193451,8|0,1:0|0:0,0:0:0:0:
383,68,146061,5,0,0:0:0:0:
492,180,146233,2,0,P|472:195|449:201,1,50,2|0,1:3|0:0,0:0:0:0:
383,68,146404,2,0,P|359:49|310:48,1,64.9999970245363,8|0,1:0|0:0,0:0:0:0:
138,168,146576,5,2,0:0:0:0:
122,175,146633,1,2,0:0:0:0:
106,176,146690,1,2,0:0:0:0:
93,166,146747,2,0,B|160:147|160:147|216:146|243:216|195:247,1,209.999993591309,2|0,1:0|0:0,0:0:0:0:
107,282,147090,5,8,1:0:0:0:
254,384,147261,1,2,0:0:0:0:
500,328,147433,2,0,L|441:315,1,59.9999981689454,2|0,0:0|1:0,0:0:0:0:
379,279,147690,1,0,1:0:0:0:
373,276,147776,2,0,L|353:322,1,29.9999990844727,8|0,1:0|0:0,0:0:0:0:
510,229,147947,6,0,P|503:204|478:187,1,50,2|0,1:3|0:0,0:0:0:0:
280,236,148118,6,0,B|242:222|207:247|207:247|201:256|201:256|162:292|122:275,1,165.000005035401,2|0,1:0|0:0,0:0:0:0:
112,270,148461,1,8,1:0:0:0:
0,109,148633,6,0,B|-18:41|-18:41|-5:-1|37:-9|60:30,1,165.000005035401,2|0,0:0|0:0,0:0:0:0:
58,33,148976,2,0,L|72:89,1,44.999998626709,4|0,1:3|0:0,0:0:0:0:
336,160,149233,1,2,0:0:0:0:
336,160,149318,2,0,L|410:184,1,55.0000016784668,8|0,1:0|0:0,0:0:0:0:
456,224,149490,5,2,1:0:0:0:
408,24,149661,1,2,0:0:0:0:
244,140,149833,5,8,1:0:0:0:
268,204,150004,1,0,0:0:0:0:
304,104,150176,1,2,0:0:0:0:
216,252,150347,2,0,P|208:273|220:320,1,44.999998626709
336,376,150518,6,0,P|307:377|282:361,1,59.9999981689454,10|0,1:0|0:0,0:0:0:0:
132,304,150690,2,0,B|103:310|103:310|98:314|98:314|64:322,1,59.9999981689454,6|0,0:0|0:0,0:0:0:0:
0,268,150861,5,2,1:3:0:0:
96,156,151033,1,2,0:0:0:0:
340,288,151204,5,8,1:0:0:0:
184,184,151376,2,0,P|232:176|264:232,1,120,2|0,0:0|0:0,0:0:0:0:
272,248,151718,2,0,P|256:272|228:288,1,50,0|0,1:0|0:0,0:0:0:0:
96,320,151890,5,8,1:0:0:0:
108,384,152061,2,0,P|88:364|84:336,1,50
168,196,152233,5,2,1:0:0:0:
324,140,152404,1,0,0:0:0:0:
428,268,152576,1,8,1:0:0:0:
324,140,152747,5,0,0:0:0:0:
452,192,152918,1,0,0:0:0:0:
480,328,153090,2,0,P|466:340|446:345,1,29.9999990844727,0|0,1:0|0:0,0:0:0:0:
339,277,153261,6,0,P|338:256|364:231,1,44.999998626709,8|0,1:0|0:0,0:0:0:0:
452,192,153433,6,0,P|479:202|498:231,1,59.9999981689454,2|0,1:3|0:0,0:0:0:0:
360,360,153604,6,0,B|308:356|264:372|264:372|220:336|220:336|248:320|252:288,1,209.999993591309,6|0,1:2|0:0,0:0:0:0:
176,272,153947,1,8,1:0:0:0:
344,72,154118,2,0,B|305:22|305:22|253:58,1,125,2|0,1:0|0:0,0:0:0:0:
256,132,154376,1,2,0:0:0:0:
264,136,154461,2,0,L|324:148,1,50,8|0,1:0|0:0,0:0:0:0:
384,208,154633,5,6,1:0:0:0:
155,136,154804,1,12,0:0:0:0:
450,162,154976,6,0,B|467:153|467:153|496:164|496:164|467:178,1,75,2|0,0:0|0:0,0:0:0:0:
384,208,155318,6,0,B|316:176|309:273|227:226,1,150.000005722046,14|0,1:0|0:0,0:0:0:0:
29,96,155661,2,0,L|89:108,1,55.0000016784668,2|0,0:0|0:0,0:0:0:0:
214,102,155833,5,0,1:0:0:0:
214,102,155918,1,2,0:3:0:0:
214,102,156004,2,0,B|205:137|205:137|207:148|207:148|197:186,1,64.9999970245363,8|0,1:0|0:0,0:0:0:0:
276,262,156176,6,0,P|266:240|269:205,1,44.999998626709,2|0,0:0|0:0,0:0:0:0:
360,120,156347,5,6,1:2:0:0:
197,7,156518,2,0,P|211:45|299:66,1,119.999996337891,2|8,1:0|1:0,0:0:0:0:
36,211,156861,2,0,P|137:203|187:127,1,179.999994506836,2|0,1:3|0:0,0:0:0:0:
171,136,157204,2,0,P|151:156|142:190,1,59.9999981689454,2|0,1:2|0:0,0:0:0:0:
244,313,157376,5,8,1:0:0:0:
388,228,157547,2,0,P|368:208|334:199,1,59.9999981689454,2|0,1:2|0:0,0:0:0:0:
252,234,157718,5,0,1:0:0:0:
363,369,157890,1,2,0:0:0:0:
252,234,158061,2,0,P|183:231|235:306,1,179.999994506836,10|0,1:0|0:0,0:0:0:0:
327,218,158404,6,0,L|316:164,1,40,2|0,0:0|0:0,0:0:0:0:
420,79,158576,2,0,P|474:94|452:150,1,119.999996337891,2|8,1:3|1:0,0:0:0:0:
201,93,158918,1,2,0:3:0:0:
461,145,159090,6,0,B|462:115|424:110|424:110|329:125,1,119.999996337891,4|2,1:2|0:3,0:0:0:0:
291,132,159347,1,2,0:0:0:0:
286,134,159433,1,8,1:0:0:0:
134,285,159604,2,0,B|157:310|157:310|-2:293,1,179.999994506836,2|0,0:0|0:0,0:0:0:0:
0,289,159947,6,0,P|-5:259|17:235,1,59.9999981689454,0|0,1:0|0:0,0:0:0:0:
155,383,160118,2,0,P|210:362|230:307,1,119.999996337891,8|2,1:0|0:3,0:0:0:0:
206,233,160376,1,0,0:0:0:0:
197,223,160461,5,6,3:2:0:0:
275,244,160633,1,0,0:0:0:0:
348,215,160804,1,2,1:3:0:0:
413,82,160976,5,2,0:0:0:0:
197,152,161147,5,2,1:0:0:0:
138,103,161318,1,2,0:0:0:0:
130,95,161404,1,2,0:0:0:0:
126,85,161490,1,0,1:0:0:0:
143,14,161661,1,2,0:3:0:0:
416,72,161833,5,0,1:0:0:0:
320,112,162004,1,0,0:0:0:0:
120,176,162176,5,2,1:3:0:0:
231,218,162347,1,0,0:0:0:0:
387,311,162518,5,2,1:0:0:0:
256,380,162690,1,2,0:0:0:0:
252,376,162776,1,2,0:0:0:0:
248,372,162861,1,2,1:0:0:0:
121,327,163033,1,0,0:0:0:0:
20,200,163204,6,0,L|32:148,1,37.5000014305115,4|0,1:0|0:0,0:0:0:0:
88,216,163376,2,0,L|96:168,1,37.5000014305115,0|0,1:0|0:0,0:0:0:0:
120,104,163547,6,0,L|132:160,1,50,6|0,1:3|0:0,0:0:0:0:
188,88,163719,2,0,L|204:144,1,50,0|0,1:0|0:0,0:0:0:0:
248,244,163890,6,0,B|254:214|254:214|264:180,1,59.9999981689454,6|0,1:3|0:0,0:0:0:0:
324,264,164062,2,0,B|332:236|332:236|336:196,1,59.9999981689454,2|0,1:2|0:0,0:0:0:0:
384,80,164233,6,0,B|388:112|388:112|400:156,1,62.5,2|0,1:3|0:0,0:0:0:0:
472,60,164405,2,0,B|484:92|484:92|484:136,1,62.5,2|0,1:2|0:0,0:0:0:0:
335,205,164576,5,6,3:0:0:0:
284,236,164661,1,2,3:0:0:0:
236,216,164747,1,0,3:0:0:0:
208,176,164833,1,0,3:0:0:0:
184,136,164918,1,2,3:0:0:0:
140,120,165004,1,0,3:0:0:0:
112,132,165090,1,2,3:0:0:0:
100,148,165176,1,0,3:0:0:0:
108,160,165261,5,2,3:2:0:0:
280,116,165433,5,2,0:0:0:0:
448,64,165604,6,0,B|464:32|504:24|504:24|408:16|372:104,1,225.000008583069,8|0,1:2|0:0,0:0:0:0:
344,165,165947,5,6,1:0:0:0:
438,214,166118,1,0,0:0:0:0:
486,316,166290,2,0,P|462:322|476:302,1,59.9999981689454,8|0,1:0|0:0,0:0:0:0:
344,165,166633,5,2,0:1:0:0:
250,116,166804,1,0,1:0:0:0:
202,14,166976,2,0,P|225:7|211:27,1,59.9999981689454,8|0,1:0|0:0,0:0:0:0:
150,66,167147,2,0,B|132:71|113:79|113:79|127:67|144:45,1,75.0000028610231,2|0,0:1|1:0,0:0:0:0:
333,187,167490,5,2,0:0:0:0:
333,187,167576,1,2,0:0:0:0:
333,187,167661,2,0,B|355:193|379:203|379:203|362:188|340:160,1,100,10|0,1:0|0:0,0:0:0:0:
186,356,168004,6,0,P|174:375|192:361,1,62.5,2|0,0:1|0:0,0:0:0:0:
79,299,168176,6,0,P|66:311|82:304,1,50,0|0,1:0|0:0,0:0:0:0:
18,222,168347,6,0,P|5:229|19:227,1,37.5000014305115,10|0,1:0|0:0,0:0:0:0:
13,225,168690,5,2,1:0:0:0:
115,155,168861,1,2,0:0:0:0:
86,3,169033,2,0,B|39:45|43:78|43:78|58:50|48:16,1,150,8|0,1:0|0:0,0:0:0:0:
39,23,169376,6,0,B|25:50|25:50|62:20,1,75.0000028610231,2|0,0:1|0:0,0:0:0:0:
207,142,169547,2,0,B|241:170|241:170|227:143,1,75.0000028610231,0|0,1:0|0:0,0:0:0:0:
20,259,169718,1,8,1:0:0:0:
189,75,169890,6,0,B|155:53|98:81|100:142|123:174|123:174|98:192|97:244,1,225.000008583069,2|0,0:1|0:0,0:0:0:0:
135,295,170233,1,2,0:0:0:0:
135,295,170404,2,0,B|169:317|226:289|224:228|201:196|201:196|226:178|227:126,1,225.000008583069,8|0,1:0|0:0,0:0:0:0:
189,75,170747,5,2,0:1:0:0:
291,209,170919,1,0,1:0:0:0:
291,209,171005,1,0,1:0:0:0:
291,209,171090,1,10,1:0:0:0:
324,2,171262,1,2,0:1:0:0:
377,63,171433,5,2,1:0:0:0:
189,75,171605,1,0,0:0:0:0:
26,82,171776,2,0,B|-11:84|-11:84|11:72,1,62.5,8|0,1:0|0:0,0:0:0:0:
144,16,171947,5,2,0:1:0:0:
144,16,172033,1,2,0:0:0:0:
144,16,172119,1,2,0:0:0:0:
64,151,172290,6,0,B|52:160|47:172|47:172|50:164|51:139,1,50,2|0,1:0|0:0,0:0:0:0:
219,216,172461,6,0,B|232:232|242:245|242:245|236:231|235:200,1,75.0000028610231,10|0,1:0|0:0,0:0:0:0:
78,314,172633,6,0,B|60:327|51:343|51:343|58:329|58:298,1,85.0000016212464,2|0,0:1|1:0,0:0:0:0:
279,356,172976,5,2,0:0:0:0:
279,356,173062,1,2,0:0:0:0:
279,356,173147,2,0,B|269:390|319:398|337:342|256:286,1,150,10|0,1:0|0:0,0:0:0:0:
244,287,173490,6,0,B|231:296|231:296|259:262,1,50,2|0,0:1|0:0,0:0:0:0:
364,229,173661,1,0,1:0:0:0:
375,225,173747,1,0,1:0:0:0:
387,221,173833,2,0,B|416:218|416:218|421:219|421:219|479:214,1,75.0000028610231,10|0,1:0|0:0,0:0:0:0:
249,103,174176,5,2,1:0:0:0:
378,124,174347,1,0,0:0:0:0:
509,150,174519,1,8,1:0:0:0:
437,67,174690,5,2,0:3:0:0:
437,67,174776,1,2,0:3:0:0:
437,67,174861,1,2,0:1:0:0:
461,215,175033,1,0,1:0:0:0:
485,363,175204,1,10,1:0:0:0:
282,311,175376,5,2,0:1:0:0:
282,311,175461,1,2,0:0:0:0:
282,311,175547,2,0,B|310:306|310:306|321:308|321:308|378:301,1,75.0000028610231,0|0,1:0|0:0,0:0:0:0:
147,258,175890,2,0,B|100:251|100:251|86:252|86:252|20:240,1,119.999996337891,10|0,1:0|0:0,0:0:0:0:
284,85,176233,6,0,B|306:55|306:55|295:8,1,75.0000028610231,2|0,0:1|0:0,0:0:0:0:
219,0,176404,2,0,B|195:29|195:29|202:65,1,75.0000028610231,2|0,1:0|0:0,0:0:0:0:
289,196,176576,6,0,B|309:193|329:205|329:205|308:191|301:170,1,87.500000834465,10|0,1:0|0:0,0:0:0:0:
148,135,176747,2,0,B|132:150|107:154|107:154|131:152|148:163,1,87.500000834465,2|0,0:1|0:0,0:0:0:0:
328,311,176918,5,6,1:0:0:0:
328,311,177090,2,0,B|363:332|363:332|392:317|392:317|366:311,1,100,0|0,0:0|1:0,0:0:0:0:
44,354,177433,2,0,B|17:357|17:357|39:333|39:333|79:340,1,100,2|0,0:1|1:0,0:0:0:0:
150,384,177776,5,2,0:0:0:0:
100,240,177947,1,2,1:0:0:0:
182,118,178118,2,0,P|199:78|187:-3,1,100,2|0,0:0|1:0,0:0:0:0:
294,273,178461,5,2,0:1:0:0:
294,273,178547,1,2,0:0:0:0:
294,273,178633,2,0,P|291:328|316:379,1,100,2|0,1:2|0:0,0:0:0:0:
404,127,178976,6,0,B|417:104|417:104|415:72|379:27,1,100,2|0,1:0|0:0,0:0:0:0:
197,200,179318,2,2,B|165:238|163:274|163:274|177:299,1,112.500004291535,2|0,1:0|0:0,0:1:0:0:
167,370,179661,6,0,B|127:376|127:376|135:371,1,50,2|0,1:0|0:0,0:0:0:0:
310,311,179833,2,0,B|350:317|350:317|341:312,1,50,2|0,0:1|0:0,0:0:0:0:
197,200,180004,2,0,B|165:174|165:174|169:183,1,50,2|0,1:1|0:0,0:0:0:0:
322,140,180176,1,2,0:1:0:0:
322,140,180261,1,2,0:0:0:0:
322,140,180347,2,0,B|348:113|348:113|335:28,1,100,0|0,1:0|0:0,0:0:0:0:
111,284,180690,6,0,B|94:294|94:294|137:290,1,62.5,2|0,1:0|0:0,0:0:0:0:
340,238,180861,2,0,B|356:227|356:227|313:231,1,62.5,2|0,0:1|0:0,0:0:0:0:
126,171,181033,2,0,B|106:173|106:173|142:149,1,62.5,2|0,1:0|0:0,0:0:0:0:
338,51,181204,1,2,0:1:0:0:
344,83,181290,1,2,0:0:0:0:
351,110,181376,2,0,B|377:83|377:83|349:-2,1,125,2|0,1:2|0:0,0:0:0:0:
97,198,181718,5,2,1:0:0:0:
0,152,181890,1,0,0:0:0:0:
245,159,182061,5,2,1:0:0:0:
351,110,182233,1,0,0:0:0:0:
197,0,182404,5,2,1:0:0:0:
153,116,182576,1,0,1:0:0:0:
182,249,182747,1,0,1:0:0:0:
257,287,182918,5,2,1:0:0:0:
102,376,183090,1,0,1:0:0:0:
42,323,183261,5,2,1:0:0:0:
244,364,183433,1,2,1:0:0:0:
244,364,183604,1,0,1:0:0:0:
257,287,183776,5,2,1:0:0:0:
480,305,183947,1,2,1:0:0:0:
480,305,184118,1,0,1:0:0:0:
252,95,184290,5,2,1:0:0:0:
495,160,184461,1,2,1:0:0:0:
312,340,184632,1,0,1:0:0:0:
117,269,184803,1,2,1:0:0:0:
259,196,184975,1,0,1:0:0:0:
402,331,185147,5,2,1:0:0:0:
399,319,185233,1,0,1:0:0:0:
399,304,185318,1,0,1:0:0:0:
406,286,185404,1,0,1:0:0:0:
423,271,185490,1,0,1:0:0:0:
448,265,185576,1,0,1:0:0:0:
471,247,185661,1,0,1:0:0:0:
487,217,185747,1,0,1:0:0:0:
490,179,185833,1,0,1:0:0:0:
478,139,185918,1,0,1:0:0:0:
443,110,186004,1,2,1:0:0:0:
394,112,186090,1,0,1:0:0:0:
360,150,186176,1,2,1:0:0:0:
305,162,186261,1,0,1:0:0:0:
246,134,186347,1,2,1:0:0:0:
215,69,186433,1,0,1:0:0:0:
248,2,186518,1,4,1:0:0:0:
256,192,186604,12,4,187890,3:1:0:0:
504,381,188576,6,0,P|483:363|483:324,1,55.0000016784668
378,279,188918,1,2,0:0:0:0:
378,279,189090,2,0,P|436:264|475:219,2,110.000003356934,0|2|2,0:0|0:0|0:0,0:0:0:0:
391,301,190118,6,0,P|365:295|339:266,1,55.0000016784668,2|0,0:0|0:0,0:0:0:0:
241,217,190461,2,0,B|185:213|189:236|131:231,1,110.000003356934,2|0,0:0|0:0,0:0:0:0:
139,236,190976,1,0,0:0:0:0:
40,195,191147,5,0,0:0:0:0:
40,195,191233,1,0,0:0:0:0:
40,195,191318,2,0,P|52:171|86:161,1,55.0000016784668,0|2,0:0|0:0,0:0:0:0:
151,154,191661,1,0,0:0:0:0:
75,89,191833,2,0,P|125:107|152:164,1,110.000003356934,2|0,0:0|0:0,0:0:0:0:
218,190,192347,2,0,P|200:213|173:226,1,55.0000016784668
168,228,192604,1,2,0:3:0:0:
158,224,192690,5,0,0:0:0:0:
213,185,192861,1,2,0:0:0:0:
291,186,193033,1,0,0:0:0:0:
354,229,193204,1,2,0:0:0:0:
472,212,193376,6,0,P|483:201|489:100,1,110.000003356934,2|2,0:3|0:0,0:0:0:0:
488,105,194061,1,0,0:0:0:0:
377,157,194233,1,2,0:0:0:0:
358,37,194404,1,0,0:0:0:0:
415,84,194576,6,0,B|359:74|364:99|301:85,1,110.000003356934,2|0,0:3|0:0,0:0:0:0:
314,93,195090,1,0,0:0:0:0:
206,48,195261,2,0,B|218:22|256:21|256:21|226:35|217:73,2,110.000003356934,2|2|2,0:0|0:0|0:0,0:0:0:0:
193,147,196118,6,0,P|218:143|248:123,1,55.0000016784668,0|0,1:0|0:0,0:0:0:0:
397,213,196461,2,0,P|393:188|373:158,1,55.0000016784668,0|0,1:0|0:0,0:0:0:0:
362,301,196804,5,2,0:3:0:0:
462,254,196976,1,2,0:0:0:0:
281,215,197147,5,2,0:3:0:0:
357,297,197318,2,0,B|275:266|290:366|197:323,1,165.000005035401,2|2,0:0|0:0,0:0:0:0:
39,267,198176,6,0,P|69:258|41:236,1,75.0000028610231,0|0,1:0|3:0,0:0:0:0:
201,191,198518,1,0,3:0:0:0:
77,151,198690,6,0,B|30:162|71:141|-11:157,1,75.0000028610231,0|2,1:0|0:0,0:0:0:0:
8,159,199204,1,2,0:0:0:0:
122,74,199376,2,0,L|117:47,2,18.7500007152558
137,88,199547,2,0,B|190:99|190:99|242:57|186:21,1,150.000005722046,0|2,0:0|0:0,0:0:0:0:
203,178,200061,6,0,P|230:209|269:212,1,75.0000028610231,2|0,0:3|0:0,0:0:0:0:
423,295,200404,2,0,P|454:268|457:229,1,75.0000028610231,2|0,0:3|0:0,0:0:0:0:
508,83,200747,6,0,L|498:52,2,18.7500007152558
482,109,200918,1,0,0:0:0:0:
353,30,201090,2,0,B|376:54|417:66|417:66|367:83|345:119,1,150.000005722046,2|2,0:0|0:0,0:0:0:0:
489,208,201604,6,0,B|462:210|425:225|425:225|428:193|404:151,1,112.500004291535
408,172,201947,1,2,0:0:0:0:
272,284,202118,2,0,L|278:314,2,18.7500007152558
341,255,202290,6,0,P|317:219|273:221,1,75.0000028610231,0|2,0:0|0:0,0:0:0:0:
82,148,202633,2,0,P|46:172|48:216,1,75.0000028610231,0|2,0:0|0:0,0:0:0:0:
43,202,202976,6,0,B|99:268|174:240|142:179|104:219,1,150.000005722046,0|2,0:0|0:0,0:0:0:0:
185,330,203490,2,0,L|192:300,2,18.7500007152558
200,350,203661,2,0,B|229:348|229:348|245:354|245:354|281:352,1,75.0000028610231
443,326,204004,6,0,B|452:312|452:312|449:277,1,37.5000014305115,2|0,1:2|0:0,0:0:0:0:
415,187,204176,2,0,B|412:167|412:167|426:142,1,37.5000014305115,2|0,1:2|0:0,0:0:0:0:
467,99,204347,5,4,0:0:0:0:
455,28,204518,1,0,0:0:0:0:
467,99,204690,1,2,0:0:0:0:
419,195,204861,6,0,B|431:164|389:139|389:139|408:182|371:229,1,150.000005722046,2|0,1:2|0:0,0:0:0:0:
305,313,205376,1,2,0:0:0:0:
221,285,205547,6,0,B|180:286|155:326|155:326|177:284|129:236,1,150.000005722046
105,169,206061,1,2,0:0:0:0:
273,147,206233,6,0,B|239:153|239:153|237:156|237:156|191:165,1,75.0000028610231,2|0,1:3|0:0,0:0:0:0:
316,256,206576,2,0,L|306:310,2,37.5000014305115
474,207,206918,6,0,B|513:224|513:224|432:208,1,110.000003356934,2|4,0:0|0:0,0:0:0:0:
136,221,207776,5,2,0:0:0:0:
230,247,207947,5,2,0:0:0:0:
272,323,208118,5,2,0:0:0:0:
243,384,208290,5,2,0:0:0:0:
256,192,208376,12,4,209833,3:1:0:0:
161,316,210176,5,2,0:0:0:0:
146,313,210347,1,2,0:0:0:0:
87,264,210518,1,0,0:0:0:0:
143,215,210690,1,0,0:0:0:0:
70,260,210861,1,0,0:0:0:0:
146,193,211033,6,0,P|159:135|152:76,1,119.999996337891
159,208,211547,2,0,P|177:184|202:168,1,59.9999981689454,2|0,0:0|0:0,0:0:0:0:
245,100,211890,2,0,P|274:93|303:97,1,59.9999981689454,2|0,0:0|0:0,0:0:0:0:
372,62,212233,2,0,B|430:76|408:89|467:102,3,100,2|2|2|0,0:0|0:0|0:0|0:0,0:0:0:0:
497,191,213433,1,0,0:0:0:0:
499,179,213518,1,0,0:0:0:0:
501,167,213603,1,0,0:0:0:0:
463,101,213947,6,0,L|403:110,1,59.9999981689454,2|0,0:0|0:0,0:0:0:0:
393,121,214290,1,0,0:0:0:0:
279,173,214461,6,0,L|339:182,1,59.9999981689454,2|0,0:0|0:0,0:0:0:0:
347,194,214804,1,0,0:0:0:0:
457,275,214976,6,0,B|405:305|342:293,2,119.999996337891,2|2|2,0:0|0:0|0:0,0:0:0:0:
333,315,215833,1,2,0:0:0:0:
257,264,216004,2,0,P|227:272|197:268,1,59.9999981689454
198,269,216261,1,0,0:0:0:0:
198,269,216347,1,0,0:0:0:0:
120,226,216518,2,0,P|95:173|105:115,1,119.999996337891
152,51,217033,6,0,B|211:59,1,59.9999981689454,2|0,0:0|0:0,0:0:0:0:
236,129,217376,2,0,B|295:137,1,59.9999981689454,2|0,0:0|0:0,0:0:0:0:
320,207,217718,2,0,B|379:215,1,59.9999981689454,2|0,0:0|0:0,0:0:0:0:
478,156,218061,5,2,0:0:0:0:
499,84,218233,1,2,0:0:0:0:
448,31,218404,1,2,0:0:0:0:
426,102,218576,1,2,0:0:0:0:
478,156,218747,1,0,0:0:0:0:
448,31,219090,1,0,0:0:0:0:
490,172,219433,6,0,L|481:231,1,59.9999981689454,2|0,0:0|0:0,0:0:0:0:
405,294,219776,1,0,0:0:0:0:
310,143,220118,6,0,L|301:202,1,59.9999981689454,2|0,0:0|0:0,0:0:0:0:
225,265,220461,1,0,0:0:0:0:
225,265,220633,1,0,0:0:0:0:
139,348,220804,6,0,L|59:334,1,75.0000028610231,2|0,1:2|0:0,0:0:0:0:
145,361,221147,1,0,1:0:0:0:
56,345,221318,1,2,0:0:0:0:
233,280,221490,2,0,B|248:314|248:314|238:350,1,75.0000028610231,0|0,1:0|0:0,0:0:0:0:
43,345,221833,1,2,1:2:0:0:
426,355,222176,5,0,1:0:0:0:
453,270,222347,2,0,L|442:344,1,75.0000028610231,2|0,0:0|1:0,0:0:0:0:
442,257,222690,1,2,0:0:0:0:
491,137,222861,2,0,B|468:151|468:151|465:127,1,50,2|0,1:2|3:0,0:0:0:0:
505,68,223118,1,0,3:0:0:0:
505,68,223204,1,0,1:0:0:0:
103,16,223547,5,4,1:2:0:0:
90,174,223718,1,0,1:0:0:0:
165,72,223890,1,0,1:0:0:0:
205,259,224061,1,8,1:2:0:0:
205,259,224576,6,0,P|226:245|250:243,1,50,4|0,1:2|0:0,0:0:0:0:
308,146,224747,2,0,P|298:124|280:108,1,50,0|0,1:0|0:0,0:0:0:0:
213,267,224918,2,0,P|236:256|260:259,1,50,0|0,1:2|0:0,0:0:0:0:
421,210,225090,2,0,P|445:213|467:226,1,50,8|0,1:2|0:0,0:0:0:0:
247,364,226290,5,2,1:2:0:0:
373,337,226461,1,0,1:0:0:0:
170,306,226633,1,0,1:0:0:0:
425,252,226804,1,8,1:2:0:0:
440,241,227318,6,0,P|417:229|393:224,1,50,4|0,1:2|0:0,0:0:0:0:
334,115,227490,2,0,P|309:118|286:129,1,50,0|0,1:0|0:0,0:0:0:0:
63,308,227661,2,2,P|80:290|102:278,1,50,0|0,1:2|0:0,0:0:0:0:
124,155,227833,2,0,P|148:150|173:153,1,50,0|0,1:0|0:0,0:0:0:0:
173,154,228347,5,0,0:0:0:0:
179,163,228690,1,0,0:0:0:0:
318,268,229033,6,0,B|347:217|299:170|249:185|230:237|272:286|272:286|302:344|264:400|190:386|167:305|223:268|283:282|283:282|342:319|403:287,1,580,2|0,0:0|0:0,0:0:0:0:
435,271,231604,2,0,L|431:316,1,40,2|2,0:0|0:0,0:0:0:0:
511,337,231776,1,2,0:0:0:0:
256,192,231947,12,0,233833,0:0:0:0:
258,159,234176,6,0,L|253:235,1,60,2|0,0:0|0:0,0:0:0:0:
355,289,234518,6,0,B|330:287|330:287|312:290|312:290|269:286,1,59.9999981689454,6|0,1:0|0:0,0:0:0:0:
109,194,234690,2,0,B|134:192|134:192|152:195|152:195|195:191,1,59.9999981689454
375,109,234861,2,0,B|343:98|343:98|359:212|359:212|404:172,1,179.999994506836,10|0,1:2|0:0,0:0:0:0:
487,286,235204,6,0,B|430:279|432:315|369:306,1,119.999996337891,2|0,0:0|1:0,0:0:0:0:
248,370,235461,1,0,0:0:0:0:
259,376,235547,2,0,P|296:369|325:326,1,59.9999981689454,10|0,1:0|0:0,0:0:0:0:
138,264,235718,2,0,P|136:304|163:349,1,59.9999981689454,2|0,0:0|0:0,0:0:0:0:
138,264,235890,5,0,1:0:0:0:
318,223,236061,2,0,L|310:150,1,59.9999981689454,2|0,0:0|0:0,0:0:0:0:
318,223,236233,1,10,1:0:0:0:
46,167,236404,2,0,L|53:239,1,59.9999981689454,2|0,0:0|0:0,0:0:0:0:
43,162,236576,1,0,0:0:0:0:
224,187,236747,6,0,P|240:149|237:104,1,59.9999981689454,2|0,1:0|0:0,0:0:0:0:
65,16,236918,2,0,P|80:59|111:85,1,59.9999981689454,10|0,1:2|0:0,0:0:0:0:
315,68,237090,5,2,0:0:0:0:
326,69,237147,1,2,0:0:0:0:
337,70,237204,1,2,0:0:0:0:
348,72,237261,2,0,B|351:16|292:-25|244:5|244:5|259:50,1,179.999994506836,2|0,1:0|0:0,0:0:0:0:
191,73,237604,5,10,1:0:0:0:
431,204,237776,1,2,0:0:0:0:
346,145,237947,5,2,0:0:0:0:
278,154,238118,1,2,1:0:0:0:
291,273,238290,6,0,L|353:279,1,59.9999981689454,10|0,1:2|0:0,0:0:0:0:
420,306,238461,2,0,L|482:312,1,59.9999981689454,2|0,0:0|0:0,0:0:0:0:
207,367,238633,6,0,B|170:317|201:270|201:270|205:270|205:270|243:220|203:167,1,209.999993591309,2|0,1:0|0:0,0:0:0:0:
117,190,238976,2,0,P|115:226|128:261,1,59.9999981689454,10|0,1:0|0:0,0:0:0:0:
317,207,239147,1,2,0:0:0:0:
319,176,239233,1,2,0:0:0:0:
309,147,239318,1,2,0:0:0:0:
97,37,239490,6,0,P|136:52|188:44,1,59.9999981689454,2|0,1:0|0:0,0:0:0:0:
260,23,239662,1,0,0:0:0:0:
24,131,239833,2,0,P|65:117|124:117,1,59.9999981689454,8|0,1:2|0:0,0:0:0:0:
417,82,240004,6,0,B|399:63|370:55|370:55|347:85|298:77,1,119.999996337891,0|0,1:0|0:0,0:0:0:0:
228,137,240261,1,0,0:0:0:0:
215,139,240347,2,0,B|210:106|210:106|224:52,1,59.9999981689454,10|0,1:0|0:0,0:0:0:0:
395,274,240518,6,0,B|460:234|450:165|414:128|357:131|326:173|345:230,1,209.999993591309,2|0,0:0|0:3,0:0:0:0:
152,324,240861,2,0,P|191:310|246:313,1,59.9999981689454,2|0,1:0|0:0,0:0:0:0:
333,368,241033,2,0,P|301:341|276:292,1,59.9999981689454,10|0,1:2|0:0,0:0:0:0:
280,189,241204,2,0,P|272:229|242:275,1,59.9999981689454,2|0,0:1|0:0,0:0:0:0:
88,375,241376,5,2,1:0:0:0:
206,201,241547,1,0,0:0:0:0:
175,199,241633,1,0,0:0:0:0:
144,197,241719,1,10,1:0:0:0:
290,326,241890,1,2,0:0:0:0:
77,227,242061,5,0,1:0:0:0:
74,238,242147,1,8,1:0:0:0:
232,122,242318,1,0,1:0:0:0:
229,133,242404,1,8,1:0:0:0:
77,33,242576,2,0,B|62:38|62:38|86:43|86:43|139:30,1,59.9999981689454,0|0,1:0|0:0,0:0:0:0:
346,137,242747,6,0,B|359:107|359:107|356:60,1,59.9999981689454,0|0,1:0|0:0,0:0:0:0:
195,11,242918,2,0,B|182:41|182:41|185:88,1,59.9999981689454
194,179,243090,2,0,L|278:173,1,59.9999981689454,10|0,1:0|0:0,0:0:0:0:
432,216,243261,1,2,0:0:0:0:
432,216,243347,1,2,0:0:0:0:
432,216,243433,6,0,B|444:236|444:236|439:311,1,59.9999981689454
276,243,243604,2,0,B|270:266|270:266|285:299,1,59.9999981689454,2|0,1:0|0:0,0:0:0:0:
408,342,243776,1,10,1:2:0:0:
185,384,243947,1,2,0:0:0:0:
43,307,244118,6,0,B|-19:256|9:189|52:160|107:173|130:221|100:273,1,209.999993591309,0|0,1:0|0:3,0:0:0:0:
128,242,244461,2,0,L|68:251,1,50,10|0,1:0|0:0,0:0:0:0:
322,175,244633,6,0,B|384:124|355:57|312:28|257:41|234:89|264:141,1,209.999993591309,0|0,1:2|0:3,1:2:0:0:
237,110,244976,2,0,L|297:119,1,50,10|0,1:0|0:0,0:0:0:0:
433,234,245147,1,0,1:0:0:0:
433,234,245233,1,0,1:0:0:0:
433,234,245318,2,0,L|373:243,1,50,10|0,1:0|0:0,0:0:0:0:
226,320,245490,6,0,B|274:324|274:324|280:317|280:317|251:315,1,75
352,344,245833,6,0,B|310:367|276:338|276:338|235:285|193:313|182:348|209:375|236:383|266:352|266:352|278:322,1,225.000008583069,10|0,1:0|0:0,0:0:0:0:
262,230,246176,2,0,B|228:230|228:230|188:246,1,59.9999981689454,2|0,0:0|0:0,0:0:0:0:
110,353,246347,2,0,B|127:323|127:323|133:280,1,59.9999981689454,2|0,1:0|0:0,0:0:0:0:
72,161,246518,2,0,B|89:190|89:190|122:217,1,59.9999981689454,8|0,1:0|0:0,0:0:0:0:
358,208,246690,6,0,P|359:123|253:50,1,179.999994506836,2|0,0:1|0:0,0:0:0:0:
276,85,247033,2,0,P|325:84|371:42,1,59.9999981689454
383,7,247204,1,10,1:0:0:0:
495,204,247376,5,2,0:0:0:0:
274,159,247547,1,0,0:0:0:0:
144,274,247718,6,0,L|207:266,1,59.9999981689454,0|0,1:0|0:0,0:0:0:0:
269,290,247890,1,10,1:0:0:0:
85,353,248061,2,0,L|148:345,1,59.9999981689454,2|0,0:0|0:0,0:0:0:0:
371,362,248233,5,0,1:0:0:0:
386,285,248404,1,0,0:0:0:0:
337,225,248576,1,10,1:0:0:0:
75,254,248747,5,0,0:0:0:0:
254,159,248918,6,0,L|263:232,1,59.9999981689454,0|2,0:0|0:3,0:0:0:0:
186,125,249090,2,0,L|178:65,1,59.9999981689454,2|0,1:0|0:0,0:0:0:0:
354,67,249261,6,2,P|318:82|265:85,1,59.9999981689454,10|0,1:2|0:0,0:0:0:0:
62,185,249433,2,2,P|98:170|151:167,1,59.9999981689454,2|0,0:2|0:0,0:0:0:0:
390,199,249604,6,0,B|349:172|349:172|362:316,1,179.999994506836,2|0,1:0|0:0,0:0:0:0:
334,368,249947,2,0,L|324:274,1,59.9999981689454,10|0,1:0|0:0,0:0:0:0:
121,260,250118,1,2,0:0:0:0:
121,260,250204,1,2,0:0:0:0:
121,260,250290,2,0,P|154:266|204:254,1,59.9999981689454,2|0,0:0|0:0,0:0:0:0:
250,317,250461,2,0,P|256:284|244:234,1,59.9999981689454,2|0,1:0|0:0,0:0:0:0:
218,131,250633,2,0,L|211:207,2,59.9999981689454,2|0|10,0:0|0:0|1:0,0:0:0:0:
227,96,250890,1,2,0:0:0:0:
236,61,250976,5,0,1:0:0:0:
316,227,251147,1,0,0:0:0:0:
315,48,251318,5,2,1:0:0:0:
395,214,251489,1,0,0:0:0:0:
236,61,251661,5,0,1:0:0:0:
474,201,251833,1,2,0:1:0:0:
474,201,251918,1,2,0:0:0:0:
474,201,252004,1,0,1:0:0:0:
394,35,252176,1,2,0:1:0:0:
272,324,252347,5,0,1:0:0:0:
192,298,252518,1,0,0:0:0:0:
317,185,252690,5,2,1:0:0:0:
334,267,252861,1,0,0:0:0:0:
174,215,253033,5,0,1:0:0:0:
237,159,253204,1,2,0:1:0:0:
237,159,253290,1,2,0:0:0:0:
237,159,253376,1,2,1:2:0:0:
216,370,253547,1,2,0:0:0:0:
423,256,253718,6,0,L|428:207,1,29.9999990844727,4|0,1:0|0:0,0:0:0:0:
501,231,253890,2,0,L|497:263,1,29.9999990844727,0|0,1:0|0:0,0:0:0:0:
348,248,254061,6,0,L|353:199,1,44.999998626709,0|0,1:0|0:0,0:0:0:0:
431,174,254233,2,0,L|425:222,1,44.999998626709,0|0,1:0|0:0,0:0:0:0:
274,239,254404,6,0,L|282:160,1,59.9999981689454,0|0,1:0|0:0,0:0:0:0:
360,134,254576,2,0,L|352:198,1,59.9999981689454,0|0,1:0|0:0,0:0:0:0:
200,229,254747,6,0,L|213:111,1,75.0000028610231,0|0,1:0|0:0,0:0:0:0:
289,93,254918,2,0,L|280:173,1,75.0000028610231,0|0,1:0|0:0,0:0:0:0:
125,376,255090,5,2,3:0:0:0:
83,330,255176,1,2,3:0:0:0:
74,280,255261,1,0,3:0:0:0:
92,240,255347,1,0,3:0:0:0:
111,207,255433,1,2,3:0:0:0:
124,182,255518,1,0,3:0:0:0:
124,161,255604,1,2,3:0:0:0:
121,150,255690,1,2,3:0:0:0:
115,140,255776,6,0,L|124:224,1,62.5,2|0,3:0|0:0,0:0:0:0:
21,53,255947,2,0,L|30:137,1,62.5,2|0,3:0|0:0,0:0:0:0:
251,129,256118,6,0,B|294:31|187:2|187:2|203:83,1,225.000008583069,12|0,1:0|0:0,0:0:0:0:
282,218,256461,6,0,B|311:215|303:205|333:201,1,55.0000016784668,6|0,1:0|0:0,0:0:0:0:
470,164,256633,2,0,B|438:161|446:151|417:148,1,55.0000016784668,2|0,0:1|0:0,0:0:0:0:
337,92,256804,1,8,1:2:0:0:
512,196,256976,6,0,B|457:173|424:238|452:308,1,165.000005035401,2|0,0:1|0:0,0:0:0:0:
501,367,257318,1,0,1:0:0:0:
316,193,257490,6,0,P|312:221|300:245,1,55.0000016784668,10|0,1:0|0:0,0:0:0:0:
316,250,257661,2,0,P|298:271|275:286,1,55.0000016784668,2|0,0:1|0:0,0:0:0:0:
366,332,257833,1,0,0:0:0:0:
100,328,258004,5,2,1:0:0:0:
52,349,258090,1,0,1:0:0:0:
90,315,258176,6,0,B|179:243|132:132|32:212|104:249,1,225.000008583069,10|0,1:0|0:0,0:0:0:0:
223,297,258518,6,0,B|265:284|288:292|288:292|254:300|219:271,1,134.999995880127,2|0,0:0|0:0,0:0:0:0:
109,164,258861,6,0,B|234:175|234:175|229:180|229:180|358:189,1,262.500002503395,10|0,1:2|0:0,0:0:0:0:
465,129,259204,6,0,P|475:103|494:83,1,55.0000016784668,2|0,1:0|0:0,0:0:0:0:
363,93,259376,2,0,P|352:67|333:47,1,55.0000016784668,2|0,0:1|0:0,0:0:0:0:
432,7,259547,1,8,1:0:0:0:
289,152,259718,6,0,B|258:135|258:135|231:170|185:185|132:162,1,165.000005035401,2|0,1:0|0:0,1:0:0:0:
65,132,260061,1,2,1:0:0:0:
109,59,260233,6,0,L|104:5,1,55.0000016784668,10|0,1:0|0:0,0:0:0:0:
0,166,260404,2,0,L|5:220,1,55.0000016784668,2|0,0:1|0:0,0:0:0:0:
56,117,260576,1,0,1:0:0:0:
8,318,260747,6,0,P|32:304|59:298,1,55.0000016784668,2|0,0:1|0:0,0:0:0:0:
149,357,260918,2,0,P|101:329|47:330,1,110.000003356934,10|0,1:0|0:0,0:0:0:0:
166,215,261261,6,0,B|211:219|211:219|215:225|215:225|262:229,1,100,2|0,0:1|0:0,0:0:0:0:
429,245,261433,1,0,1:0:0:0:
272,236,261604,6,0,B|321:240,1,50,2|0,0:1|0:0,0:0:0:0:
438,255,261776,1,8,1:0:0:0:
491,363,261947,6,0,L|436:355,1,55.0000016784668,2|0,1:0|0:0,0:0:0:0:
348,316,262118,2,0,L|293:323,1,55.0000016784668,2|0,0:0|0:0,0:0:0:0:
207,368,262290,1,8,1:0:0:0:
8,277,262461,6,0,B|56:247|121:258|121:258|88:293,1,165.000005035401,2|0,0:1|0:0,1:0:0:0:
33,346,262804,1,0,1:0:0:0:
51,178,262976,6,0,B|40:151|40:151|43:125,1,55.0000016784668,10|0,1:0|0:0,0:0:0:0:
130,164,263147,2,0,B|132:137|132:137|122:111,1,55.0000016784668,2|0,0:1|0:0,0:0:0:0:
70,50,263318,1,0,1:0:0:0:
231,247,263490,6,0,L|296:236,1,55.0000016784668,2|0,0:1|0:0,0:0:0:0:
392,128,263661,2,0,B|445:117|481:149|481:149|444:132|407:138,1,165.000005035401,10|0,1:0|0:0,0:0:0:0:
338,176,264004,5,2,0:1:0:0:
218,1,264176,1,0,1:0:0:0:
231,23,264261,1,0,1:0:0:0:
236,45,264347,2,0,L|156:35,1,80,10|0,1:0|0:0,0:0:0:0:
396,0,264690,6,0,P|410:24|414:51,1,55.0000016784668,2|0,1:0|0:0,0:0:0:0:
338,176,264861,2,0,P|323:199|302:216,1,55.0000016784668,2|0,0:1|0:0,0:0:0:0:
376,114,265033,1,8,1:0:0:0:
501,232,265204,6,0,P|424:243|405:319,1,165.000005035401,2|0,0:1|0:0,0:0:0:0:
475,308,265547,1,0,1:0:0:0:
306,372,265718,6,0,P|297:346|293:318,1,55.0000016784668,10|0,1:0|0:0,0:0:0:0:
218,271,265890,2,0,P|226:245|230:217,1,55.0000016784668,2|0,0:1|0:0,0:0:0:0:
304,112,266061,1,0,1:0:0:0:
324,381,266233,6,0,P|312:355|306:328,1,55.0000016784668,2|0,0:1|0:0,0:0:0:0:
203,188,266404,2,0,P|203:243|186:296,1,110.000003356934,10|0,1:0|1:0,0:0:0:0:
40,345,266747,6,0,B|41:366|41:366|47:348,1,40,2|0,0:1|0:0,0:0:0:0:
64,281,266918,1,8,1:0:0:0:
37,124,267090,2,0,B|16:124|-3:115|-3:115|15:134|30:133,1,80,2|8,1:0|1:0,0:0:0:0:
265,372,267433,6,0,L|273:317,1,55.0000016784668,6|0,1:0|0:0,0:0:0:0:
268,234,267604,2,0,L|260:289,1,55.0000016784668,2|0,0:1|0:0,0:0:0:0:
195,329,267776,1,8,1:0:0:0:
494,229,267947,6,0,B|453:235|426:273|426:273|423:228|393:199,1,165.000005035401,2|0,0:1|0:0,0:0:0:0:
457,164,268290,1,0,1:0:0:0:
225,49,268461,6,0,L|279:56,1,55.0000016784668,10|0,1:0|0:0,0:0:0:0:
358,15,268633,2,0,B|381:66|381:66|353:110,1,110.000003356934,2|0,0:1|0:0,0:0:0:0:
209,36,268976,6,0,L|154:28,1,55.0000016784668,2|0,0:1|0:0,0:0:0:0:
0,88,269147,2,0,B|87:75|87:75|102:211,1,225.000008583069,10|0,1:0|0:0,0:0:0:0:
28,296,269490,6,0,P|25:342|40:298,1,134.999995880127,2|0,0:1|0:0,0:0:0:0:
0,226,269833,6,0,B|69:203|130:260|92:274|153:332|231:304,1,262.500002503395,10|0,1:0|0:0,0:0:0:0:
302,357,270176,6,0,P|328:351|356:351,1,55.0000016784668,2|0,1:0|0:0,0:0:0:0:
512,243,270347,2,0,P|485:249|457:249,1,55.0000016784668,2|0,0:0|0:0,0:0:0:0:
411,305,270518,1,8,1:0:0:0:
475,135,270690,2,0,B|439:132|428:147|428:147|401:167|371:157,1,110.000003356934,2|0,1:0|0:0,0:0:0:0:
236,55,271033,6,0,P|244:73|248:92,1,40,2|0,1:0|0:0,0:0:0:0:
352,138,271204,6,0,P|326:186|322:209,1,69.9999978637696,10|0,1:0|0:0,0:0:0:0:
213,229,271376,6,0,P|249:293|241:353,1,100,2|0,0:1|0:0,0:0:0:0:
300,374,271547,5,0,1:0:0:0:
84,321,271718,6,0,P|110:311|138:310,1,55.0000016784668,2|0,0:1|0:0,0:0:0:0:
204,211,271890,2,0,P|149:211|96:196,1,110.000003356934,10|0,1:0|0:0,0:0:0:0:
249,317,272233,5,2,0:1:0:0:
317,300,272404,1,0,1:0:0:0:
400,209,272576,5,2,0:1:0:0:
468,226,272747,1,8,1:0:0:0:
351,31,272918,5,2,1:0:0:0:
351,31,273090,2,0,P|340:56|340:83,1,55.0000016784668,2|0,0:1|0:0,0:0:0:0:
276,147,273261,1,8,1:0:0:0:
470,88,273433,2,0,B|411:81|428:118|365:108,1,110.000003356934,2|0,0:1|0:0,0:0:0:0:
263,30,273776,5,2,1:0:0:0:
137,49,273947,1,10,1:0:0:0:
4,62,274118,1,2,0:1:0:0:
137,49,274290,1,0,1:0:0:0:
209,148,274461,6,0,B|216:123|216:123|213:94,1,55.0000016784668,2|0,0:1|0:0,0:0:0:0:
151,202,274633,1,10,1:0:0:0:
156,214,274804,1,0,0:0:0:0:
18,79,274976,6,0,L|0:217,1,139.999995727539,2|0,0:1|1:0,0:0:0:0:
54,269,275233,1,0,1:0:0:0:
80,246,275318,2,0,L|62:384,1,139.999995727539,10|0,1:0|0:0,0:0:0:0:
286,268,275661,6,0,P|277:294|278:323,1,55.0000016784668,2|0,1:0|0:0,0:0:0:0:
355,330,275833,2,0,P|363:305|362:277,1,55.0000016784668,2|0,0:1|0:0,0:0:0:0:
226,378,276004,1,8,1:0:0:0:
443,178,276176,2,0,B|414:206|414:206|429:177|425:138,1,110.000003356934,2|0,0:1|0:0,0:0:0:0:
251,27,276518,5,2,0:1:0:0:
492,73,276690,1,10,1:0:0:0:
337,47,276861,2,0,L|391:36,1,55.0000016784668,2|0,0:1|0:0,0:0:0:0:
280,103,277033,1,0,1:0:0:0:
280,103,277204,6,2,P|290:129|291:156,1,55.0000016784668,2|2,0:1|0:1,0:1:0:0:
176,72,277376,2,0,P|230:75|269:113,1,110.000003356934,10|0,1:0|1:0,0:0:0:0:
345,254,277718,5,2,0:1:0:0:
159,214,277890,1,8,1:0:0:0:
109,268,278061,5,2,1:0:0:0:
50,89,278233,1,8,1:0:0:0:
256,20,278404,6,0,P|265:58|247:92,1,80,2|2,0:0|0:0,0:0:0:0:
216,164,278747,2,0,P|183:185|144:180,1,80,8|2,0:0|0:0,0:0:0:0:
10,200,279090,1,0,0:0:0:0:
123,255,279261,1,2,0:0:0:0:
61,136,279433,1,10,0:0:0:0:
69,339,279604,1,2,0:0:0:0:
69,339,279947,5,2,0:0:0:0:
144,297,280118,2,0,L|248:292,1,80,10|0,0:0|0:0,0:0:0:0:
303,359,280461,1,2,0:0:0:0:
253,218,280633,1,0,0:0:0:0:
402,232,280804,1,10,0:0:0:0:
386,302,280976,1,0,0:0:0:0:
494,133,281147,6,0,P|453:154|385:141,1,80,2|2,0:0|0:0,0:0:0:0:
288,79,281490,2,0,P|327:81|362:100,1,80,8|2,0:0|0:0,0:0:0:0:
486,219,281833,1,0,0:0:0:0:
310,149,282004,1,2,0:0:0:0:
444,58,282176,1,10,0:0:0:0:
362,204,282347,1,2,0:0:0:0:
362,204,282690,5,2,0:0:0:0:
303,255,282861,2,0,L|223:248,1,80,10|0,0:0|0:0,0:0:0:0:
123,193,283204,1,2,0:0:0:0:
177,323,283376,1,0,0:0:0:0:
192,320,283461,1,0,0:0:0:0:
207,317,283547,1,10,0:0:0:0:
203,141,283718,1,0,0:0:0:0:
117,368,283890,6,0,P|127:309|107:263,1,80,2|2,0:0|0:0,0:0:0:0:
80,233,284233,2,0,P|42:216|-2:217,1,80,8|2,0:0|0:0,0:0:0:0:
156,228,284576,1,0,0:0:0:0:
21,138,284747,1,2,0:0:0:0:
57,322,284918,1,10,0:0:0:0:
158,157,285090,1,2,0:0:0:0:
158,157,285433,5,2,0:0:0:0:
227,200,285604,2,0,L|314:188,1,80,10|0,0:0|0:0,0:0:0:0:
427,115,285947,1,2,0:0:0:0:
399,253,286118,1,0,0:0:0:0:
383,250,286204,1,0,0:0:0:0:
367,247,286290,1,10,0:0:0:0:
324,117,286461,1,0,0:0:0:0:
497,180,286633,6,0,P|505:235|486:279,1,80,2|2,0:0|0:0,0:0:0:0:
448,384,286976,2,0,P|440:329|459:285,1,80,8|2,0:0|0:0,0:0:0:0:
512,343,287318,1,0,0:0:0:0:
242,321,287490,1,2,0:0:0:0:
298,372,287661,1,10,0:0:0:0:
367,343,287833,1,2,0:0:0:0:
367,343,288176,5,2,0:0:0:0:
308,283,288347,2,0,L|225:300,1,80,10|0,0:0|0:0,0:0:0:0:
150,370,288690,1,2,0:0:0:0:
58,287,288861,1,0,0:0:0:0:
56,302,288947,1,0,0:0:0:0:
54,317,289033,1,10,0:0:0:0:
181,226,289204,1,0,0:0:0:0:
20,137,289376,5,2,0:0:0:0:
85,167,289547,1,2,0:0:0:0:
83,177,289890,5,2,0:0:0:0:
92,176,290233,5,2,0:0:0:0:
156,129,290404,1,2,0:0:0:0:
230,147,290576,1,2,0:0:0:0:
228,154,290918,5,2,0:0:0:0:
320,132,291090,1,2,0:0:0:0:
320,132,291433,5,2,0:0:0:0:
432,141,291776,5,2,0:0:0:0:
479,276,292118,5,2,0:0:0:0:
414,306,292289,1,2,0:0:0:0:
416,316,292632,5,2,0:0:0:0:
407,315,292975,5,2,0:0:0:0:
343,268,293146,1,2,0:0:0:0:
269,286,293318,1,2,0:0:0:0:
271,293,293660,5,2,0:0:0:0:
179,271,293832,1,2,0:0:0:0:
179,271,294175,5,2,0:0:0:0:
67,280,294518,5,2,0:0:0:0:
22,38,294861,5,2,0:0:0:0:
93,84,295033,1,2,0:0:0:0:
98,78,295376,5,2,0:0:0:0:
101,88,295718,5,2,0:0:0:0:
190,91,295890,1,2,0:0:0:0:
277,93,296061,1,2,0:0:0:0:
280,102,296404,5,2,0:0:0:0:
209,179,296576,1,2,0:0:0:0:
214,188,296918,6,0,L|232:321,1,100,2|2,0:0|0:0,0:0:0:0:
427,363,297604,5,2,0:0:0:0:
479,298,297776,1,2,0:0:0:0:
486,302,298118,5,2,0:0:0:0:
481,292,298461,5,2,0:0:0:0:
400,235,298633,1,2,0:0:0:0:
411,142,298804,1,2,0:0:0:0:
416,148,299147,5,2,0:0:0:0:
500,204,299318,1,2,0:0:0:0:
496,216,299661,6,0,L|366:231,1,100,2|2,0:0|0:0,0:0:0:0:
256,192,300347,12,0,302747,0:0:0:0:
256,192,303090,5,6,0:0:0:0:
256,192,303261,12,0,308576,0:0:0:0:
