osu file format v14

[General]
AudioFilename: audio.mp3
AudioLeadIn: 0
PreviewTime: 62450
Countdown: 0
SampleSet: Soft
StackLeniency: 0.7
Mode: 0
LetterboxInBreaks: 0
WidescreenStoryboard: 0

[Editor]
Bookmarks: 957,26022,36456,46877,57325,62535,72952,88469
DistanceSpacing: 1
BeatDivisor: 4
GridSize: 16
TimelineZoom: 2.2

[Metadata]
Title:Zoetrope (TV Size)
TitleUnicode:Zoetrope (TV Size)
Artist:yanaginagi
ArtistUnicode:やなぎなぎ
Creator:NeKroMan4ik
Version:Xenon's Insane
Source:AMNESIA
Tags:エウアル euaru アムネシア rock jrock japanese anime female vocals Xenon- Xehn Xen Sotarks
BeatmapID:2367927
BeatmapSetID:1130495

[Difficulty]
HPDrainRate:5
CircleSize:4.2
OverallDifficulty:7.5
ApproachRate:8.8
SliderMultiplier:0.999999999999999
SliderTickRate:1

[Events]
//Background and Video events
0,0,"thumb-1920-802080.jpg",0,0
Video,-811,"movie.mp4"
//Break Periods
//Storyboard Layer 0 (Background)
//Storyboard Layer 1 (Fail)
//Storyboard Layer 2 (Pass)
//Storyboard Layer 3 (Foreground)
//Storyboard Layer 4 (Overlay)
//Storyboard Sound Samples

[TimingPoints]
957,722.89156626506,4,2,1,35,1,0
957,-57.1428571428571,4,2,1,35,0,0
3848,-76.9230769230769,4,2,1,35,0,0
6017,714.285714285714,4,2,1,35,1,0
6017,-100,4,2,1,35,0,0
6374,-57.1428571428571,4,2,1,35,0,0
6731,722.89156626506,4,2,1,35,1,0
6731,-57.1428571428571,4,2,1,35,0,0
10164,857.142857142857,4,2,1,35,1,0
10164,-57.1428571428571,4,2,1,35,0,0
10378,722.89156626506,4,2,1,35,1,0
10378,-57.1428571428571,4,2,1,35,0,0
11823,689.655172413793,4,2,1,35,1,0
11823,-57.1428571428571,4,2,1,35,0,0
12512,731.707317073171,4,2,1,35,1,0
12512,-57.1428571428571,4,2,1,35,0,0
13609,721.153846153846,4,2,1,35,1,0
13969,-57.1428571428571,4,2,1,35,0,0
14690,714.285714285714,4,2,1,35,1,0
14690,-57.1428571428571,4,2,1,35,0,0
16118,731.707317073171,4,2,1,35,1,0
16118,-57.1428571428571,4,2,1,35,0,0
17581,714.285714285714,4,2,1,35,1,0
17581,-57.1428571428571,4,2,1,35,0,0
18295,789.473684210526,4,2,1,35,1,0
18295,-57.1428571428571,4,2,1,35,0,0
19281,714.285714285714,4,2,1,35,1,0
19281,-57.1428571428571,4,2,1,35,0,0
19638,769.230769230769,4,2,1,35,1,0
19638,-100,4,2,1,35,0,0
19830,789.473684210526,4,2,1,35,1,0
19830,-57.1428571428571,4,2,1,35,0,0
21014,833.333333333333,4,2,1,35,1,0
21014,-100,4,2,1,35,0,0
21430,967.741935483871,4,2,1,35,1,0
21430,-57.1428571428571,4,2,1,35,0,0
21913,821.917808219178,4,2,1,35,1,0
21913,-100,4,2,1,35,0,0
22734,-100,4,2,1,35,0,0
24173,-100,4,2,1,35,0,0
24995,-100,4,2,1,35,0,0
26022,326.086956521739,4,2,1,65,1,0
26022,-62.5,4,2,1,65,0,0
27407,-62.5,4,2,1,5,0,0
27489,-62.5,4,2,1,65,0,0
30016,-62.5,4,2,1,5,0,0
30098,-62.5,4,2,1,65,0,0
32625,-62.5,4,2,1,5,0,0
32706,-62.5,4,2,1,65,0,0
36456,-62.5,4,2,1,55,0,0
37842,-62.5,4,2,1,5,0,0
37924,-62.5,4,2,1,55,0,0
40451,-62.5,4,2,1,5,0,0
40532,-62.5,4,2,1,55,0,0
41266,-62.5,4,2,1,5,0,0
41348,-62.5,4,2,1,55,0,0
43060,-62.5,4,2,1,5,0,0
43141,-62.5,4,2,1,55,0,0
43875,-62.5,4,2,1,5,0,0
43956,-62.5,4,2,1,55,0,0
44527,-62.5,4,2,1,5,0,0
44608,-62.5,4,2,1,55,0,0
46239,319.148936170213,4,2,1,55,1,0
46239,-100,4,2,1,55,0,0
46877,326.086956521739,4,2,1,50,1,0
46877,-74.0740740740741,4,2,1,50,0,0
50790,329.67032967033,4,2,1,50,1,0
50790,-74.0740740740741,4,2,1,50,0,0
52108,326.086956521739,4,2,1,50,1,0
52108,-74.0740740740741,4,2,1,50,0,0
54716,-57.1428571428571,4,2,1,60,0,0
57325,-57.1428571428571,4,2,1,45,0,0
59934,322.58064516129,4,2,1,65,1,0
59934,-57.1428571428571,4,2,1,65,0,0
60901,329.67032967033,4,2,1,65,1,0
60901,-100,4,2,1,65,0,0
61395,310.880829015544,4,2,1,65,1,0
61395,-100,4,2,1,65,0,0
61861,337.078651685393,4,2,1,65,1,0
61861,-57.1428571428571,4,2,1,65,0,0
62450,-57.1428571428571,4,2,1,5,0,0
62535,326.086956521739,4,2,1,75,1,1
62535,-52.6315789473684,4,2,1,75,0,1
63431,-52.6315789473684,4,2,1,5,0,1
63513,-52.6315789473684,4,2,1,75,0,1
64573,-52.6315789473684,4,2,1,5,0,1
64654,-52.6315789473684,4,2,1,75,0,1
65714,-52.6315789473684,4,2,1,5,0,1
65795,-52.6315789473684,4,2,1,75,0,1
66692,-52.6315789473684,4,2,1,5,0,1
66774,-52.6315789473684,4,2,1,75,0,1
69790,-52.6315789473684,4,2,1,5,0,1
69871,-52.6315789473684,4,2,1,75,0,1
70361,324.324324324324,4,2,1,75,1,1
70361,-100,4,2,1,75,0,1
71658,327.868852459016,4,2,1,75,1,1
71658,-52.6315789473684,4,2,1,75,0,1
71985,322.58064516129,4,2,1,75,1,1
71985,-100,4,2,1,75,0,1
72146,-52.6315789473684,4,2,1,75,0,0
72952,327.868852459016,4,2,1,75,1,1
72952,-52.6315789473684,4,2,1,75,0,1
73853,-52.6315789473684,4,2,1,5,0,1
73935,-52.6315789473684,4,2,1,75,0,1
75001,-52.6315789473684,4,2,1,5,0,1
75083,-52.6315789473684,4,2,1,75,0,1
76148,-52.6315789473684,4,2,1,5,0,1
76230,-52.6315789473684,4,2,1,75,0,1
77132,-52.6315789473684,4,2,1,5,0,1
77214,-52.6315789473684,4,2,1,75,0,1
78197,-52.6315789473684,4,2,1,75,0,1
78525,324.324324324324,4,2,1,75,1,1
78525,-52.6315789473684,4,2,1,75,0,1
79173,-52.6315789473684,4,2,1,75,0,1
79497,326.086956521739,4,2,1,75,1,1
79497,-52.6315789473684,4,2,1,75,0,1
80230,-52.6315789473684,4,2,1,5,0,1
80312,-52.6315789473684,4,2,1,75,0,1
80801,324.324324324324,4,2,1,75,1,1
80801,-52.6315789473684,4,2,1,75,0,1
81044,-52.6315789473684,4,2,1,5,0,1
81125,-52.6315789473684,4,2,1,75,0,1
82098,327.868852459016,4,2,1,75,1,1
82098,-52.6315789473684,4,2,1,75,0,1
83327,-52.6315789473684,4,2,1,60,0,0
83409,326.086956521739,4,2,1,75,1,1
83409,-52.6315789473684,4,2,1,75,0,1
83816,-52.6315789473684,4,2,1,5,0,1
83898,-52.6315789473684,4,2,1,75,0,1
85120,-52.6315789473684,4,2,1,5,0,1
85202,-52.6315789473684,4,2,1,75,0,1
86425,-52.6315789473684,4,2,1,5,0,1
86506,315.789473684211,4,2,1,75,1,1
86506,-52.6315789473684,4,2,1,75,0,1
86979,340.909090909091,4,2,1,75,1,1
86979,-100,4,2,1,75,0,1
87319,344.827586206897,4,2,1,75,1,1
87319,-52.6315789473684,4,2,1,75,0,1
87663,304.568527918782,4,2,1,75,1,1
87663,-100,4,2,1,75,0,1
87739,-52.6315789473684,4,2,1,5,0,1
87814,327.868852459016,4,2,1,75,1,1
87814,-52.6315789473684,4,2,1,75,0,1
88305,-40.8163265306122,4,2,1,75,0,1
88387,-40.8163265306122,4,2,1,5,0,1
88469,-40.8163265306122,4,2,1,75,0,0
88551,-40.8163265306122,4,2,1,5,0,0
88633,-40.8163265306122,4,2,1,75,0,0

[Colours]
Combo1 : 213,128,128
Combo2 : 173,125,105
Combo3 : 226,209,203

[HitObjects]
211,150,957,6,0,P|171:99|169:34,2,131.25,2|0|0,3:2|0:0|0:0,0:0:0:0:
93,251,2402,2,0,P|119:217|121:174,1,87.5,2|2,0:0|0:0,0:0:0:0:
19,222,3125,2,0,P|20:178|47:145,1,87.5,2|2,0:0|0:0,0:0:0:0:
161,350,3848,6,0,B|181:291|106:244|106:244|44:308|78:360,1,260,2|0,0:0|0:0,0:0:0:0:
78,360,6374,5,2,3:2:0:0:
214,233,6731,2,0,P|257:234|290:261,1,87.5,2|0,3:2|0:0,0:0:0:0:
329,328,7273,2,0,L|313:197,1,131.25,2|2,0:0|0:0,0:0:0:0:
418,103,8176,2,0,P|391:136|389:179,1,87.5,2|2,0:0|0:0,0:0:0:0:
492,132,8899,2,0,P|490:175|463:208,1,87.5,2|2,0:0|0:0,0:0:0:0:
375,36,9622,6,0,P|332:40|300:70,1,87.5,2|0,0:0|0:0,0:0:0:0:
320,150,10164,1,2,0:0:0:0:
320,150,10378,2,0,P|289:103|253:179,1,175.00000166893,2|0,0:0|0:0,0:0:0:0:
56,11,12167,5,2,3:2:0:0:
195,122,12512,2,0,P|152:123|119:150,1,87.5000008344649,2|0,3:2|0:0,0:0:0:0:
84,220,13060,2,0,L|68:89,1,131.250001251697,2|2,0:0|0:0,0:0:0:0:
176,6,13969,6,0,P|149:39|147:82,1,87.5000008344649,2|2,0:0|0:0,0:0:0:0:
250,35,14690,2,0,P|248:78|221:111,1,87.5000008344649,2|2,0:0|0:0,0:0:0:0:
377,114,15404,2,0,P|404:147|406:190,1,87.5000008344649,2|2,0:0|0:0,0:0:0:0:
303,143,16118,2,0,P|305:186|332:219,1,87.5000008344649,2|2,0:0|0:0,0:0:0:0:
340,295,16666,2,0,P|269:241|271:329,1,218.750002086162,2|0,0:0|0:0,0:0:0:0:
157,153,17938,6,0,L|149:216,1,43.7500004172325,2|0,3:2|0:0,0:0:0:0:
105,255,18295,2,0,P|138:227|181:225,1,87.5000008344649,2|0,3:2|0:0,0:0:0:0:
247,270,18887,2,0,L|232:397,1,87.5000008344649,2|0,0:0|0:0,0:0:0:0:
317,347,19459,2,0,L|322:303,1,43.7500004172325,2|2,0:0|0:0,0:0:0:0:
383,252,19830,6,0,P|416:279|459:281,1,87.5000008344649,2|2,0:0|0:0,0:0:0:0:
421,152,20619,2,0,P|463:153|497:181,1,87.5000008344649,2|2,0:0|0:0,0:0:0:0:
256,192,21430,12,0,25817,0:0:0:0:
107,154,26022,6,0,B|192:135|168:209|254:190,1,160,6|2,1:2|0:0,0:0:0:0:
326,227,26511,1,0,1:0:0:0:
426,127,26674,1,8,0:0:0:0:
473,190,26837,2,0,B|440:212|440:212|402:201,1,79.9999999999999,0|2,1:0|0:0,0:0:0:0:
422,383,27163,6,0,P|420:325|383:278,1,120,0|0,1:0|0:0,0:0:0:0:
372,272,27489,1,8,0:0:0:0:
275,384,27652,2,0,P|299:353|300:313,1,79.9999999999999,2|0,0:0|1:0,0:0:0:0:
420,206,27978,2,0,P|394:132|329:87,1,160,8|2,0:0|0:0,0:0:0:0:
252,105,28467,1,8,0:0:0:0:
125,67,28630,6,0,B|210:85|186:11|272:30,2,160,6|2|8,1:2|1:2|0:0,0:0:0:0:
181,211,29445,2,0,P|205:180|206:140,1,79.9999999999999,0|2,1:0|0:0,0:0:0:0:
58,116,29772,6,0,P|94:162|96:221,1,120,0|0,1:2|0:0,0:0:0:0:
90,234,30098,1,8,0:0:0:0:
187,296,30261,2,0,B|148:285|148:285|116:307,1,79.9999999999999,2|0,0:0|1:0,0:0:0:0:
181,210,30587,5,14,0:0:0:0:
275,178,30750,1,0,1:0:0:0:
207,56,30913,5,12,0:0:0:0:
44,28,31076,1,8,0:0:0:0:
0,93,31239,6,0,P|45:157|43:235,1,160,6|2,1:2|0:0,0:0:0:0:
102,288,31728,1,0,1:0:0:0:
228,231,31891,1,8,0:0:0:0:
251,305,32054,2,0,B|212:315|212:315|180:293,1,79.9999999999999,0|2,1:0|0:0,0:0:0:0:
324,384,32380,6,0,P|325:325|362:278,1,120,0|0,1:0|0:0,0:0:0:0:
374,272,32706,1,8,0:0:0:0:
471,384,32869,2,0,P|446:353|445:313,1,79.9999999999999,2|0,0:0|1:0,0:0:0:0:
292,236,33195,2,0,P|289:157|240:95,1,160,8|2,0:0|0:0,0:0:0:0:
251,17,33685,1,8,0:0:0:0:
365,127,33848,6,0,B|450:145|426:71|512:90,2,160,6|0|8,1:2|1:0|0:0,0:0:0:0:
468,240,34663,2,0,P|492:209|494:170,1,79.9999999999999,0|2,1:0|0:0,0:0:0:0:
387,207,34989,1,0,1:0:0:0:
388,220,35070,1,0,1:0:0:0:
390,234,35152,5,2,1:2:0:0:
344,298,35315,2,0,B|259:316|283:242|197:261,1,160,8|0,0:0|1:0,0:0:0:0:
124,372,35804,5,8,0:0:0:0:
218,340,35967,1,0,1:0:0:0:
275,191,36130,5,8,0:0:0:0:
438,219,36293,1,8,0:0:0:0:
505,180,36456,6,0,L|483:5,1,160,4|2,1:2|0:0,0:0:0:0:
410,0,36945,1,2,1:2:0:0:
317,64,37108,1,10,0:0:0:0:
242,37,37272,1,2,1:2:0:0:
177,82,37435,1,2,0:0:0:0:
61,42,37598,6,0,P|97:88|100:147,1,120,10|0,0:0|0:0,0:0:0:0:
97,159,37924,1,8,0:0:0:0:
189,241,38087,2,0,L|179:161,1,79.9999999999999,2|0,0:0|1:0,0:0:0:0:
272,262,38413,2,0,L|286:142,1,120,10|0,0:0|0:0,0:0:0:0:
281,130,38739,2,0,P|312:154|351:156,1,79.9999999999999,10|0,0:0|0:0,0:0:0:0:
294,340,39065,6,0,B|208:359|232:285|147:304,1,160,2|2,1:2|1:2,0:0:0:0:
92,360,39554,1,0,0:0:0:0:
137,225,39717,1,10,0:0:0:0:
111,150,39880,1,2,1:2:0:0:
85,75,40043,1,2,0:0:0:0:
198,0,40206,6,0,P|244:36|303:39,1,120,2|0,1:2|0:0,0:0:0:0:
315,36,40532,1,10,0:0:0:0:
251,136,40695,2,0,P|220:112|181:110,1,79.9999999999999,2|0,0:0|1:2,0:0:0:0:
103,245,41021,2,0,P|149:208|208:205,1,120,10|0,0:0|0:0,0:0:0:0:
218,214,41348,2,0,P|178:212|147:188,1,79.9999999999999,10|0,0:0|0:0,0:0:0:0:
297,202,41674,6,0,L|318:376,1,160,6|2,1:2|0:0,0:0:0:0:
392,382,42163,1,2,1:2:0:0:
233,331,42326,1,10,0:0:0:0:
168,376,42489,1,2,1:2:0:0:
93,349,42652,1,2,0:0:0:0:
122,187,42815,6,0,P|158:233|161:292,1,120,2|0,1:2|0:0,0:0:0:0:
158,304,43141,1,10,0:0:0:0:
297,208,43304,2,0,P|266:184|227:182,1,79.9999999999999,2|0,0:0|1:2,0:0:0:0:
235,329,43630,2,0,P|281:292|340:289,1,120,10|0,0:0|0:0,0:0:0:0:
352,294,43956,2,0,L|341:381,1,79.9999999999999,10|0,0:0|0:0,0:0:0:0:
159,312,44282,6,0,L|144:192,1,120,6|0,1:2|0:0,0:0:0:0:
142,180,44608,2,0,P|102:178|71:154,1,79.9999999999999,2|0,0:0|1:2,0:0:0:0:
141,24,44935,2,0,P|78:72|0:75,1,160,10|2,0:0|0:0,0:0:0:0:
179,107,45424,1,8,0:0:0:0:
291,32,45587,5,2,1:2:0:0:
402,55,45750,1,8,0:0:0:0:
386,132,45913,1,0,1:2:0:0:
376,124,46239,5,10,0:0:0:0:
468,233,46398,5,8,0:0:0:0:
419,368,46558,5,8,0:0:0:0:
326,258,46717,5,8,0:0:0:0:
248,264,46877,6,0,B|175:247|196:310|122:294,1,135,6|2,1:2|1:2,0:0:0:0:
39,166,47366,1,2,0:0:0:0:
0,235,47529,2,0,B|27:253|27:253|59:244,1,67.4999999999999,2|2,1:2|0:0,0:0:0:0:
17,91,47855,1,2,1:2:0:0:
73,35,48018,6,0,L|207:51,1,135,2|0,0:0|0:0,0:0:0:0:
311,149,48507,2,0,P|258:116|224:167,2,135,2|2|2,1:2|1:2|1:2,0:0:0:0:
464,348,49485,6,0,P|469:281|512:231,1,135,4|2,1:2|1:2,0:0:0:0:
385,132,49974,1,2,0:0:0:0:
366,210,50137,2,0,B|398:219|398:219|425:200,1,67.4999999999999,2|0,1:2|0:0,0:0:0:0:
307,154,50463,1,2,1:2:0:0:
249,208,50627,6,0,B|176:223|197:160|124:177,1,135.414000514984,2|0,0:0|0:0,0:0:0:0:
47,83,51119,2,0,P|98:49|134:99,2,135.000000514984,2|2|2,1:2|1:2|1:2,0:0:0:0:
315,149,52108,6,0,P|297:177|296:211,1,67.4999999999999,6|0,1:2|0:0,0:0:0:0:
119,174,52434,2,0,P|142:197|151:229,1,67.4999999999999,2|0,1:2|0:0,0:0:0:0:
211,107,52760,2,0,L|219:178,1,67.4999999999999,2|0,1:2|0:0,0:0:0:0:
365,242,53086,1,2,1:2:0:0:
442,203,53249,6,0,P|443:236|460:265,1,67.4999999999999,2|2,0:0|1:2,0:0:0:0:
297,185,53575,2,0,P|287:217|264:240,1,67.4999999999999,2|2,0:0|1:2,0:0:0:0:
350,376,53901,2,0,L|365:241,1,135,2|0,0:0|0:0,0:0:0:0:
502,124,54390,2,0,L|510:195,1,67.4999999999999,8|2,0:0|0:0,0:0:0:0:
374,82,54716,5,8,0:0:0:0:
425,143,54879,2,0,L|419:186,3,43.75,0|0|0|0,1:0|1:0|1:0|1:0,0:0:0:0:
426,198,55205,1,8,0:0:0:0:
356,289,55368,2,0,L|350:245,3,43.75,0|0|0|0,1:0|1:0|1:0|1:0,0:0:0:0:
357,234,55694,2,0,P|314:230|282:201,1,87.5,8|0,0:0|1:2,0:0:0:0:
26,257,56021,5,10,0:0:0:0:
142,161,56184,1,0,1:0:0:0:
218,240,56347,5,10,0:0:0:0:
65,185,56510,1,0,1:0:0:0:
140,363,56673,5,8,0:0:0:0:
97,298,56836,1,8,0:0:0:0:
123,281,56917,1,8,0:0:0:0:
154,288,56999,2,0,L|166:184,1,87.5,8|0,0:0|1:0,0:0:0:0:
110,141,57325,5,2,0:0:0:0:
256,192,57406,12,2,59608,0:0:0:0:
315,81,59934,5,10,0:0:0:0:
235,90,60095,1,10,0:0:0:0:
124,104,60256,5,10,0:0:0:0:
45,114,60417,1,10,0:0:0:0:
439,360,60901,5,10,0:0:0:0:
359,351,61065,1,10,0:0:0:0:
248,337,61230,5,10,0:0:0:0:
169,327,61395,1,10,0:0:0:0:
315,81,61861,6,0,L|322:144,1,43.7500004172325,8|8,0:0|0:0,0:0:0:0:
330,204,62029,1,0,1:0:0:0:
231,270,62198,2,0,P|295:273|346:316,1,131.250001251697,8|0,0:0|0:0,0:0:0:0:
353,325,62535,5,6,1:2:0:0:
330,204,62698,1,2,0:0:0:0:
429,355,62861,1,10,0:0:0:0:
499,181,63024,1,2,0:0:0:0:
429,144,63187,6,0,B|351:159|373:92|296:111,1,142.5,2|0,1:2|0:0,0:0:0:0:
287,115,63513,1,10,0:0:0:0:
85,0,63676,6,0,P|58:38|59:85,1,94.9999999999999,2|0,0:0|1:2,0:0:0:0:
214,37,64002,2,0,P|214:84|186:123,1,94.9999999999999,2|8,1:2|0:0,0:0:0:0:
341,149,64328,6,0,P|286:195|215:200,1,142.5,2|0,1:2|0:0,0:0:0:0:
207,195,64654,1,2,1:2:0:0:
123,326,64817,1,8,0:0:0:0:
51,293,64980,6,0,B|109:300|109:300|138:273|144:217|104:177,1,190,2|0,0:0|0:0,0:0:0:0:
0,68,65469,2,0,B|78:53|56:120|133:101,1,142.5,8|0,0:0|0:0,0:0:0:0:
144,97,65795,6,0,L|130:-14,1,94.9999999999999,0|0,1:2|1:2,0:0:0:0:
217,49,66121,1,10,0:0:0:0:
107,180,66285,1,2,0:0:0:0:
154,241,66448,6,0,P|108:296|103:367,1,142.5,2|0,1:2|0:0,0:0:0:0:
108,375,66774,1,10,0:0:0:0:
257,245,66937,2,0,P|226:209|222:163,1,94.9999999999999,2|0,1:2|0:0,0:0:0:0:
313,3,67263,5,2,1:2:0:0:
376,120,67426,1,8,0:0:0:0:
298,136,67589,1,10,0:0:0:0:
291,105,67670,1,8,0:0:0:0:
308,79,67752,6,0,B|237:88|237:88|209:92|168:50|198:-1,2,190,6|8|0,1:2|0:0|1:0,0:0:0:0:
363,21,68567,1,0,1:0:0:0:
317,156,68730,1,10,0:0:0:0:
364,217,68893,1,2,0:0:0:0:
422,323,69056,6,0,P|384:296|337:297,1,94.9999999999999,2|0,1:2|1:2,0:0:0:0:
213,371,69382,1,10,0:0:0:0:
280,241,69545,6,0,P|225:287|154:292,1,142.5,2|0,1:2|0:0,0:0:0:0:
146,287,69871,1,2,1:2:0:0:
0,121,70035,2,0,P|27:159|26:205,1,94.9999999999999,8|2,0:0|1:2,0:0:0:0:
176,106,70361,5,14,0:0:0:0:
106,219,70523,1,0,1:2:0:0:
105,142,70685,5,8,0:0:0:0:
174,184,70847,1,2,1:2:0:0:
278,310,71009,5,8,0:0:0:0:
395,255,71171,1,2,1:2:0:0:
481,354,71333,5,10,0:0:0:0:
313,240,71496,1,2,1:2:0:0:
246,196,71658,6,0,L|259:84,1,94.9999974632263,2|0,1:2|1:2,0:0:0:0:
130,196,71985,1,8,0:0:0:0:
173,131,72146,5,10,0:0:0:0:
147,114,72226,1,8,0:0:0:0:
116,121,72307,2,0,L|110:73,1,47.4999987316131,8|8,0:0|0:0,0:0:0:0:
214,32,72468,5,10,0:0:0:0:
240,15,72549,1,8,0:0:0:0:
271,22,72630,2,0,L|259:116,1,94.9999974632263,8|0,0:0|1:0,0:0:0:0:
375,222,72952,5,6,1:2:0:0:
343,89,73115,1,2,0:0:0:0:
379,236,73279,1,10,0:0:0:0:
341,77,73443,1,2,0:0:0:0:
356,0,73607,6,0,B|278:-15|300:52|223:33,1,142.499996194839,2|0,1:2|0:0,0:0:0:0:
214,29,73935,1,10,0:0:0:0:
251,196,74099,6,0,P|278:158|277:111,1,95.51912568306,2|0,0:0|1:2,0:0:0:0:
122,159,74427,2,0,P|122:112|150:73,1,95.51912568306,2|8,1:2|0:0,0:0:0:0:
54,290,74755,6,0,P|109:244|180:239,1,142.499996194839,2|0,1:2|0:0,0:0:0:0:
188,244,75083,1,2,1:2:0:0:
277,111,75247,1,8,0:0:0:0:
342,152,75411,6,0,B|413:143|413:143|441:139|482:181|452:232,1,189.999994926453,2|0,0:0|0:0,0:0:0:0:
393,65,75902,2,0,B|315:80|337:13|260:32,1,142.499996194839,8|0,0:0|0:0,0:0:0:0:
249,36,76230,6,0,P|210:9|163:9,1,94.9999974632263,0|0,1:2|1:2,0:0:0:0:
112,169,76558,1,10,0:0:0:0:
278,112,76722,1,2,0:0:0:0:
215,165,76886,6,0,P|261:220|266:291,1,142.499996194839,2|0,1:2|0:0,0:0:0:0:
261,299,77214,1,10,0:0:0:0:
327,174,77378,2,0,P|373:170|408:139,1,94.9999974632263,2|0,1:2|0:0,0:0:0:0:
304,11,77706,5,2,1:2:0:0:
251,153,77870,1,8,0:0:0:0:
265,230,78033,1,10,0:0:0:0:
234,237,78115,1,8,0:0:0:0:
208,220,78197,6,0,P|204:266|173:301,1,94.9999974632263,2|0,1:2|0:0,0:0:0:0:
270,384,78525,2,0,B|263:326|263:326|290:297|346:291|386:331,1,190.02,10|0,0:0|1:0,0:0:0:0:
456,300,79011,1,2,1:2:0:0:
456,115,79173,2,0,P|409:119|375:151,1,94.4864864864864,8|0,0:0|0:0,0:0:0:0:
185,135,79497,5,0,1:2:0:0:
240,77,79660,1,2,1:2:0:0:
317,96,79823,1,10,0:0:0:0:
271,266,79986,6,0,B|349:281|327:214|404:233,1,142.499996194839,2|0,1:2|0:0,0:0:0:0:
415,237,80312,1,2,1:2:0:0:
322,107,80475,2,0,P|290:141|285:187,1,94.9999974632263,12|2,0:0|1:2,0:0:0:0:
158,0,80801,6,0,P|204:55|209:126,1,142.499996194839,14|0,0:0|0:0,0:0:0:0:
204,134,81125,1,2,1:2:0:0:
88,49,81287,2,0,P|92:95|124:129,1,94.9999974632263,6|0,1:2|1:2,0:0:0:0:
282,40,81611,5,2,1:2:0:0:
419,82,81773,1,14,0:0:0:0:
395,159,81936,1,2,1:2:0:0:
451,276,82098,6,0,P|416:243|370:239,1,94.9999974632263,8|2,0:0|1:2,0:0:0:0:
184,342,82425,5,10,0:0:0:0:
325,301,82589,1,2,1:2:0:0:
406,162,82753,5,8,0:0:0:0:
282,112,82917,1,2,1:2:0:0:
358,98,83081,5,8,0:0:0:0:
328,173,83245,1,2,0:0:0:0:
169,58,83409,5,10,0:0:0:0:
206,130,83572,2,0,P|160:185|155:256,1,142.5,2|0,1:2|0:0,0:0:0:0:
161,265,83898,2,0,L|65:253,1,94.9999999999999,2|8,1:2|0:0,0:0:0:0:
211,328,84224,5,2,1:2:0:0:
331,283,84387,1,10,0:0:0:0:
303,209,84550,1,2,1:2:0:0:
488,323,84713,5,10,0:0:0:0:
380,217,84876,2,0,P|426:162|431:91,1,142.5,2|0,1:2|0:0,0:0:0:0:
425,82,85202,2,0,P|429:128|462:162,1,94.9999999999999,2|10,1:2|0:0,0:0:0:0:
356,39,85528,5,2,1:2:0:0:
236,84,85691,1,10,0:0:0:0:
264,158,85854,1,2,1:2:0:0:
279,14,86017,5,14,0:0:0:0:
187,148,86180,2,0,B|109:133|131:200|54:181,1,142.5,2|2,1:2|1:2,0:0:0:0:
44,176,86506,2,0,L|55:271,1,94.9999974632263,14|0,0:0|1:2,0:0:0:0:
183,319,86821,5,2,1:2:0:0:
157,302,86900,1,0,1:2:0:0:
126,309,86979,1,10,0:0:0:0:
140,384,87149,1,2,0:0:0:0:
236,260,87319,5,14,0:0:0:0:
427,352,87491,2,0,B|349:367|371:300|294:319,1,137,2|0,1:2|0:0,0:0:0:0:
287,325,87814,2,0,P|315:287|315:239,1,94.9999974632263,8|0,0:0|1:2,0:0:0:0:
269,106,88141,5,10,0:0:0:0:
395,263,88305,2,0,L|456:256,1,61.5846994535519,10|0,0:0|0:0,0:0:0:0:
234,384,88469,6,0,L|173:377,1,61.5846994535519,10|0,0:0|0:0,0:0:0:0:
