osu file format v14

[General]
AudioFilename: audio.mp3
AudioLeadIn: 0
PreviewTime: 62450
Countdown: 0
SampleSet: Soft
StackLeniency: 0.7
Mode: 0
LetterboxInBreaks: 0
WidescreenStoryboard: 1

[Editor]
DistanceSpacing: 1
BeatDivisor: 4
GridSize: 32
TimelineZoom: 2.1

[Metadata]
Title:Zoetrope (TV Size)
TitleUnicode:Zoetrope (TV Size)
Artist:yanaginagi
ArtistUnicode:やなぎなぎ
Creator:NeKroMan4ik
Version:Normal
Source:AMNESIA
Tags:エウアル euaru アムネシア rock jrock japanese anime female vocals Xenon- Xehn Xen Sotarks
BeatmapID:2361600
BeatmapSetID:1130495

[Difficulty]
HPDrainRate:3
CircleSize:3.2
OverallDifficulty:4
ApproachRate:5
SliderMultiplier:0.999999999999999
SliderTickRate:1

[Events]
//Background and Video events
0,0,"thumb-1920-802080.jpg",0,0
Video,-811,"movie.mp4"
//Break Periods
//Storyboard Layer 0 (Background)
//Storyboard Layer 1 (Fail)
//Storyboard Layer 2 (Pass)
//Storyboard Layer 3 (Foreground)
//Storyboard Layer 4 (Overlay)
//Storyboard Sound Samples

[TimingPoints]
957,722.89156626506,4,2,1,35,1,0
957,-100,4,2,1,35,0,0
6017,714.285714285714,4,2,1,35,1,0
6017,-100,4,2,1,35,0,0
6731,722.89156626506,4,2,1,35,1,0
6731,-100,4,2,1,35,0,0
10164,857.142857142857,4,2,1,35,1,0
10164,-100,4,2,1,35,0,0
10378,722.89156626506,4,2,1,35,1,0
10378,-100,4,2,1,35,0,0
11823,689.655172413793,4,2,1,35,1,0
11823,-100,4,2,1,35,0,0
12512,731.707317073171,4,2,1,35,1,0
12512,-100,4,2,1,35,0,0
13609,721.153846153846,4,2,1,35,1,0
14690,714.285714285714,4,2,1,35,1,0
14690,-100,4,2,1,35,0,0
16118,731.707317073171,4,2,1,35,1,0
16118,-100,4,2,1,35,0,0
17581,714.285714285714,4,2,1,35,1,0
17581,-100,4,2,1,35,0,0
18295,789.473684210526,4,2,1,35,1,0
18295,-100,4,2,1,35,0,0
19281,714.285714285714,4,2,1,35,1,0
19281,-100,4,2,1,35,0,0
19638,769.230769230769,4,2,1,35,1,0
19638,-100,4,2,1,35,0,0
19830,789.473684210526,4,2,1,35,1,0
19830,-100,4,2,1,35,0,0
21014,833.333333333333,4,2,1,35,1,0
21014,-100,4,2,1,35,0,0
21430,967.741935483871,4,2,1,35,1,0
21430,-100,4,2,1,35,0,0
21913,821.917808219178,4,2,1,35,1,0
21913,-100,4,2,1,35,0,0
26022,326.086956521739,4,2,1,65,1,0
26022,-100,4,2,1,65,0,0
27407,-100,4,2,1,65,0,0
27489,-100,4,2,1,65,0,0
30016,-100,4,2,1,65,0,0
30098,-100,4,2,1,65,0,0
31483,-100,4,2,1,65,0,0
31565,-100,4,2,1,65,0,0
32625,-100,4,2,1,65,0,0
32706,-100,4,2,1,65,0,0
34092,-100,4,2,1,65,0,0
34174,-100,4,2,1,65,0,0
36456,-100,4,2,1,55,0,0
46239,319.148936170213,4,2,1,55,1,0
46239,-100,4,2,1,55,0,0
46877,326.086956521739,4,2,1,50,1,0
46877,-100,4,2,1,50,0,0
50790,329.67032967033,4,2,1,50,1,0
50790,-100,4,2,1,50,0,0
52108,326.086956521739,4,2,1,50,1,0
52108,-100,4,2,1,50,0,0
54716,-100,4,2,1,60,0,0
57325,-100,4,2,1,45,0,0
59934,322.58064516129,4,2,1,65,1,0
59934,-100,4,2,1,65,0,0
60901,329.67032967033,4,2,1,65,1,0
60901,-100,4,2,1,65,0,0
61395,310.880829015544,4,2,1,65,1,0
61395,-100,4,2,1,65,0,0
61861,337.078651685393,4,2,1,65,1,0
61861,-100,4,2,1,65,0,0
62450,-100,4,2,1,65,0,0
62535,326.086956521739,4,2,1,75,1,1
62535,-100,4,2,1,75,0,1
65714,-100,4,2,1,75,0,1
65795,-100,4,2,1,75,0,1
70361,324.324324324324,4,2,1,75,1,1
70361,-100,4,2,1,75,0,1
71658,327.868852459016,4,2,1,75,1,1
71658,-100,4,2,1,75,0,1
71985,322.58064516129,4,2,1,75,1,1
71985,-100,4,2,1,75,0,1
72146,-100,4,2,1,75,0,0
72952,327.868852459016,4,2,1,75,1,1
72952,-100,4,2,1,75,0,1
78443,-100,4,2,1,75,0,1
78525,324.324324324324,4,2,1,75,1,1
78525,-100,4,2,1,75,0,1
79497,326.086956521739,4,2,1,75,1,1
79497,-100,4,2,1,75,0,1
80801,324.324324324324,4,2,1,75,1,1
80801,-100,4,2,1,75,0,1
82098,327.868852459016,4,2,1,75,1,1
82098,-100,4,2,1,75,0,1
83327,-100,4,2,1,60,0,0
83409,326.086956521739,4,2,1,75,1,1
83409,-100,4,2,1,75,0,1
86506,315.789473684211,4,2,1,75,1,1
86506,-100,4,2,1,75,0,1
86979,340.909090909091,4,2,1,75,1,1
86979,-100,4,2,1,75,0,1
87319,344.827586206897,4,2,1,75,1,1
87319,-100,4,2,1,75,0,1
87663,304.568527918782,4,2,1,75,1,1
87663,-100,4,2,1,75,0,1
87814,327.868852459016,4,2,1,75,1,1
87814,-100,4,2,1,75,0,1
88469,-100,4,2,1,75,0,0

[Colours]
Combo1 : 213,128,128
Combo2 : 173,125,105
Combo3 : 226,209,203

[HitObjects]
457,42,957,6,0,P|436:87|427:148,1,99.9999999999999,2|0,3:2|0:0,0:0:0:0:
478,221,2402,2,0,P|442:258|436:313,1,99.9999999999999,2|2,0:0|0:0,0:0:0:0:
370,381,3848,2,0,P|286:333|176:329,1,200,2|0,0:0|0:0,0:0:0:0:
98,204,6374,1,2,3:2:0:0:
98,204,6731,6,0,P|142:189|173:133,1,99.9999999999999,2|0,3:2|0:0,0:0:0:0:
225,62,8176,2,0,L|335:43,1,99.9999999999999,2|2,0:0|0:0,0:0:0:0:
412,91,9622,2,0,L|447:297,1,204.5,2|0,0:0|0:0,0:0:0:0:
328,380,12167,1,2,3:2:0:0:
328,380,12512,6,0,P|326:320|320:262,1,99.9999999999999,2|0,3:2|0:0,0:0:0:0:
261,200,13969,2,0,P|263:140|269:82,1,99.9999999999999,2|2,0:0|0:0,0:0:0:0:
202,24,15404,2,0,P|142:22|84:16,1,99.9999999999999,2|2,0:0|0:0,0:0:0:0:
26,83,16849,2,0,P|24:143|18:201,1,99.9999999999999,2|0,0:0|0:0,0:0:0:0:
54,219,17938,1,2,3:2:0:0:
54,219,18295,6,0,P|100:201|149:202,1,99.9999999999999,2|0,3:2|0:0,0:0:0:0:
224,260,19830,2,0,P|273:261|319:242,1,99.9999999999999,2|2,0:0|0:0,0:0:0:0:
256,192,21430,12,0,25200,0:0:0:0:
152,34,26022,6,0,P|139:92|124:136,1,99.9999999999999,6|2,1:2|0:0,0:0:0:0:
101,175,26511,1,0,1:0:0:0:
101,175,26674,2,0,L|113:234,1,50,8|0,0:0|1:0,0:0:0:0:
154,313,27163,2,0,B|195:287|195:287|253:292,1,99.9999999999999,0|8,1:0|0:0,0:0:0:0:
336,345,27815,1,0,1:0:0:0:
336,345,27978,2,0,L|400:324,1,50,8|0,0:0|1:0,0:0:0:0:
447,253,28467,1,8,0:0:0:0:
447,253,28630,6,0,P|482:196|523:189,2,99.9999999999999,6|2|8,1:2|1:2|0:0,0:0:0:0:
407,283,29445,1,0,1:0:0:0:
332,215,29772,2,0,L|323:152,1,50,0|0,1:2|0:0,0:0:0:0:
290,129,30098,1,8,0:0:0:0:
228,57,30424,1,0,1:0:0:0:
228,57,30587,2,0,L|165:48,1,50,14|0,0:0|1:0,0:0:0:0:
138,78,30913,2,0,L|75:87,1,50,12|8,0:0|0:0,0:0:0:0:
57,124,31239,6,0,P|84:190|91:227,1,99.9999999999999,6|2,1:2|0:0,0:0:0:0:
71,266,31728,1,0,1:0:0:0:
71,266,31891,2,0,P|61:307|59:325,1,50,8|0,0:0|1:0,0:0:0:0:
132,384,32380,2,0,P|168:373|244:364,1,99.9999999999999,0|8,1:0|0:0,0:0:0:0:
312,306,33032,1,0,1:0:0:0:
312,306,33195,2,0,L|323:241,1,50,8|0,0:0|1:0,0:0:0:0:
261,177,33685,1,8,0:0:0:0:
261,177,33848,6,0,P|212:187|162:197,2,99.9999999999999,6|0|8,1:2|1:0|0:0,0:0:0:0:
283,132,34663,1,0,1:0:0:0:
365,76,34989,2,0,L|425:90,1,50,0|2,1:0|1:2,0:0:0:0:
459,64,35315,1,8,0:0:0:0:
499,161,35641,1,0,1:0:0:0:
499,161,35804,2,0,L|486:217,1,50,8|0,0:0|1:0,0:0:0:0:
453,246,36130,2,0,L|440:302,1,50,8|8,0:0|0:0,0:0:0:0:
399,321,36456,5,4,1:2:0:0:
295,274,36782,2,0,P|271:265|236:261,1,50,2|2,0:0|1:2,0:0:0:0:
203,286,37108,2,0,P|168:253|119:247,1,99.9999999999999,10|2,0:0|0:0,0:0:0:0:
75,222,37598,2,0,P|89:170|93:119,1,99.9999999999999,10|8,0:0|0:0,0:0:0:0:
122,83,38087,1,2,0:0:0:0:
198,18,38413,2,0,P|228:26|269:32,1,50,10|0,0:0|1:0,0:0:0:0:
282,64,38739,2,0,P|312:57|353:50,1,50,10|0,0:0|0:0,0:0:0:0:
374,29,39065,6,0,P|356:74|353:126,1,99.9999999999999,2|2,1:2|1:2,0:0:0:0:
300,210,39717,2,0,L|329:326,1,99.9999999999999,10|2,0:0|0:0,0:0:0:0:
368,329,40206,2,0,P|409:304|460:306,1,99.9999999999999,2|10,1:2|0:0,0:0:0:0:
497,272,40695,1,2,0:0:0:0:
470,175,41021,2,0,L|460:113,1,50,10|0,0:0|1:2,0:0:0:0:
435,83,41348,2,0,L|373:71,1,50,10|2,0:0|0:0,0:0:0:0:
345,44,41674,5,6,1:2:0:0:
262,110,42000,2,0,L|272:172,1,50,2|2,0:0|1:2,0:0:0:0:
304,195,42326,2,0,L|282:309,1,99.9999999999999,10|2,0:0|0:0,0:0:0:0:
241,317,42815,2,0,P|177:295|137:302,1,99.9999999999999,2|10,1:2|0:0,0:0:0:0:
101,276,43304,1,2,0:0:0:0:
42,194,43630,2,0,L|32:145,1,50,10|0,0:0|0:0,0:0:0:0:
59,103,43956,2,0,L|69:54,1,50,10|0,0:0|0:0,0:0:0:0:
104,18,44282,6,0,P|146:44|206:46,1,99.9999999999999,6|0,1:2|0:0,0:0:0:0:
287,87,44935,2,0,P|313:129|315:189,1,99.9999999999999,10|2,0:0|0:0,0:0:0:0:
288,220,45424,1,8,0:0:0:0:
288,220,45587,2,0,L|278:277,1,50,2|8,1:2|0:0,0:0:0:0:
304,312,45913,1,0,1:2:0:0:
386,367,46239,2,0,L|438:354,1,50,10|8,0:0|0:0,0:0:0:0:
472,322,46558,2,0,L|485:270,1,50,8|8,0:0|0:0,0:0:0:0:
512,232,46877,6,0,L|494:121,1,99.9999999999999,6|2,1:2|1:2,0:0:0:0:
396,125,47529,2,0,L|412:26,1,99.9999999999999,2|2,1:2|1:2,0:0:0:0:
313,7,48181,2,0,L|296:105,1,99.9999999999999,2|2,1:2|1:2,0:0:0:0:
225,176,48833,1,2,1:2:0:0:
256,270,49159,1,2,1:2:0:0:
192,346,49485,6,0,P|135:320|77:326,1,99.9999999999999,6|2,1:2|1:2,0:0:0:0:
20,258,50137,2,0,P|46:201|40:143,1,99.9999999999999,2|2,1:2|1:2,0:0:0:0:
108,86,50790,2,0,P|165:112|223:106,1,99.9999999999999,2|2,1:2|1:2,0:0:0:0:
284,55,51449,1,2,1:2:0:0:
382,35,51779,1,2,1:2:0:0:
449,109,52108,6,0,P|460:166|478:213,1,99.9999999999999,6|2,1:2|1:2,0:0:0:0:
416,286,52760,2,0,P|368:271|320:284,1,99.9999999999999,2|2,1:2|1:2,0:0:0:0:
276,260,53249,2,0,P|263:209|260:159,1,99.9999999999999,2|2,0:2|0:2,0:0:0:0:
218,70,53901,2,0,P|184:45|121:37,1,99.9999999999999,2|2,0:0|0:0,0:0:0:0:
85,61,54390,1,8,0:0:0:0:
23,139,54716,6,0,P|26:188|39:237,1,99.9999999999999,8|0,0:2|1:2,0:0:0:0:
80,265,55205,2,0,L|184:282,1,99.9999999999999,8|0,0:0|1:0,0:0:0:0:
215,315,55694,1,8,0:0:0:0:
303,362,56021,1,10,0:0:0:0:
390,312,56347,1,10,0:0:0:0:
364,215,56673,2,0,L|378:154,1,50,8|8,0:0|0:0,0:0:0:0:
408,128,56999,2,0,L|394:67,1,50,8|0,0:0|1:0,0:0:0:0:
356,50,57325,1,2,0:0:0:0:
256,192,57488,12,0,59281,0:0:0:0:
320,21,59934,6,0,L|371:9,1,50,10|10,0:0|0:0,0:0:0:0:
411,35,60256,2,0,L|462:47,1,50,10|10,0:0|0:0,0:0:0:0:
361,159,60901,2,0,L|310:171,1,50,10|10,0:0|0:0,0:0:0:0:
270,145,61230,2,0,L|219:133,1,50,10|10,0:0|0:0,0:0:0:0:
99,200,61861,1,8,0:0:0:0:
92,299,62198,1,8,0:0:0:0:
195,293,62535,6,0,L|179:232,2,50,6|2|10,1:2|0:0|0:2,0:0:0:0:
239,327,63024,1,2,0:0:0:0:
239,327,63187,2,0,L|337:346,1,99.9999999999999,2|10,1:2|0:0,0:0:0:0:
376,322,63676,2,0,P|414:287|480:282,2,99.9999999999999,2|2|2,0:2|1:2|1:2,0:0:0:0:
311,245,64654,2,0,L|322:186,1,50,2|8,1:2|0:0,0:0:0:0:
404,142,65143,6,0,L|390:43,1,99.9999999999999,6|8,1:2|0:0,0:0:0:0:
301,0,65795,1,0,1:2:0:0:
216,53,66121,2,0,L|208:102,1,50,10|2,0:0|0:0,0:0:0:0:
243,142,66448,2,0,P|204:155|178:213,1,99.9999999999999,2|10,1:2|0:0,0:0:0:0:
144,242,66937,1,2,1:2:0:0:
55,207,67263,1,2,1:2:0:0:
55,207,67426,2,0,L|47:150,1,50,8|10,0:0|0:0,0:0:0:0:
64,110,67752,6,0,L|178:82,1,99.9999999999999,6|8,1:2|0:0,0:0:0:0:
244,31,68404,1,0,1:0:0:0:
326,87,68730,2,0,L|383:101,1,50,10|2,0:0|0:0,0:0:0:0:
424,106,69056,2,0,P|397:183|401:215,1,99.9999999999999,2|10,1:2|0:0,0:0:0:0:
434,241,69545,2,0,B|457:288|457:288|439:338,1,99.9999999999999,2|2,1:2|1:2,0:0:0:0:
396,356,70035,1,8,0:0:0:0:
308,306,70361,5,14,0:0:0:0:
224,358,70685,1,8,0:0:0:0:
136,310,71009,1,8,0:0:0:0:
95,218,71333,1,10,0:0:0:0:
155,139,71658,2,0,P|163:113|168:74,1,50,2|0,1:2|1:2,0:0:0:0:
208,60,71985,1,8,0:0:0:0:
208,60,72146,2,0,P|234:52|273:47,1,50,10|8,0:0|0:0,0:0:0:0:
294,15,72468,2,0,P|320:23|359:28,1,50,10|0,0:0|1:0,0:0:0:0:
427,76,72952,6,0,P|415:124|407:174,1,99.9999999999999,6|10,1:2|0:0,0:0:0:0:
391,223,73443,1,2,0:0:0:0:
391,223,73607,2,0,P|403:271|411:321,1,99.9999999999999,2|10,1:2|0:0,0:0:0:0:
427,369,74099,2,0,P|465:334|531:329,2,99.9999999999999,2|2|2,0:2|1:2|1:2,0:0:0:0:
329,356,75083,2,0,L|270:345,1,50,2|8,1:2|0:0,0:0:0:0:
243,251,75574,6,0,L|229:152,1,99.9999999999999,4|8,1:2|0:0,0:0:0:0:
166,73,76230,1,0,1:2:0:0:
87,134,76558,2,0,L|79:183,1,50,10|2,0:0|0:0,0:0:0:0:
43,218,76886,2,0,P|84:243|103:291,1,99.9999999999999,2|10,1:2|0:0,0:0:0:0:
133,328,77378,1,2,1:2:0:0:
226,377,77706,1,2,1:2:0:0:
226,377,77870,2,0,P|263:360|290:355,1,50,8|10,0:0|0:0,0:0:0:0:
321,349,78197,5,2,1:2:0:0:
412,307,78525,2,0,L|424:258,1,50,10|2,0:0|0:0,0:0:0:0:
455,219,78849,1,0,1:0:0:0:
455,219,79011,2,0,L|442:170,1,50,2|8,1:2|0:0,0:0:0:0:
408,82,79497,1,0,1:2:0:0:
408,82,79660,2,0,L|359:94,1,50,2|10,1:2|0:0,0:0:0:0:
315,71,79986,2,0,P|261:54|199:50,1,99.9999999999999,2|2,1:2|1:2,0:0:0:0:
179,81,80475,1,12,0:0:0:0:
93,127,80801,6,0,B|34:158|34:158|27:250,2,150,14|6|14,0:0|1:2|0:0,0:0:0:0:
139,156,81936,1,2,1:2:0:0:
139,156,82098,2,0,P|182:180|241:189,1,99.9999999999999,8|10,0:0|0:0,0:0:0:0:
269,221,82589,2,0,P|312:197|371:188,1,99.9999999999999,2|2,1:2|1:2,0:0:0:0:
408,205,83081,1,8,0:0:0:0:
467,124,83409,6,0,P|450:76|443:27,1,99.9999999999999,10|8,0:0|0:0,0:0:0:0:
346,4,84061,1,8,0:0:0:0:
282,80,84387,1,10,0:0:0:0:
328,168,84713,2,0,P|345:216|352:265,1,99.9999999999999,10|8,0:0|0:0,0:0:0:0:
276,330,85365,1,10,0:0:0:0:
182,295,85691,1,10,0:0:0:0:
88,260,86017,6,0,B|71:161|71:161|22:141,1,150,14|14,0:0|0:0,0:0:0:0:
103,27,86979,1,10,0:0:0:0:
178,90,87319,2,0,P|246:124|313:104,1,144.1,14|8,0:0|0:0,0:0:0:0:
392,54,88141,2,0,L|441:69,2,50,10|10|10,0:0|0:0|0:0,0:0:0:0:
