osu file format v14

[General]
AudioFilename: audio.mp3
AudioLeadIn: 0
PreviewTime: 62450
Countdown: 0
SampleSet: Soft
StackLeniency: 0.7
Mode: 0
LetterboxInBreaks: 0
WidescreenStoryboard: 1

[Editor]
DistanceSpacing: 1.2
BeatDivisor: 4
GridSize: 32
TimelineZoom: 2.1

[Metadata]
Title:Zoetrope (TV Size)
TitleUnicode:Zoetrope (TV Size)
Artist:yanaginagi
ArtistUnicode:やなぎなぎ
Creator:NeKroMan4ik
Version:Hard
Source:AMNESIA
Tags:エウアル euaru アムネシア rock jrock japanese anime female vocals Xenon- Xehn Xen Sotarks
BeatmapID:2362343
BeatmapSetID:1130495

[Difficulty]
HPDrainRate:4
CircleSize:3.8
OverallDifficulty:6
ApproachRate:7.8
SliderMultiplier:1.5
SliderTickRate:1

[Events]
//Background and Video events
0,0,"thumb-1920-802080.jpg",0,0
Video,-811,"movie.mp4"
//Break Periods
//Storyboard Layer 0 (Background)
//Storyboard Layer 1 (Fail)
//Storyboard Layer 2 (Pass)
//Storyboard Layer 3 (Foreground)
//Storyboard Layer 4 (Overlay)
//Storyboard Sound Samples

[TimingPoints]
957,722.89156626506,4,2,1,35,1,0
957,-100,4,2,1,35,0,0
6017,714.285714285714,4,2,1,35,1,0
6017,-100,4,2,1,35,0,0
6731,722.89156626506,4,2,1,35,1,0
6731,-100,4,2,1,35,0,0
10164,857.142857142857,4,2,1,35,1,0
10164,-100,4,2,1,35,0,0
10378,722.89156626506,4,2,1,35,1,0
10378,-100,4,2,1,35,0,0
11823,689.655172413793,4,2,1,35,1,0
11823,-100,4,2,1,35,0,0
12512,731.707317073171,4,2,1,35,1,0
12512,-100,4,2,1,35,0,0
13609,721.153846153846,4,2,1,35,1,0
14690,714.285714285714,4,2,1,35,1,0
14690,-100,4,2,1,35,0,0
16118,731.707317073171,4,2,1,35,1,0
16118,-100,4,2,1,35,0,0
17581,714.285714285714,4,2,1,35,1,0
17581,-100,4,2,1,35,0,0
18295,789.473684210526,4,2,1,35,1,0
18295,-100,4,2,1,35,0,0
19281,714.285714285714,4,2,1,35,1,0
19281,-100,4,2,1,35,0,0
19638,769.230769230769,4,2,1,35,1,0
19638,-100,4,2,1,35,0,0
19830,789.473684210526,4,2,1,35,1,0
19830,-100,4,2,1,35,0,0
21014,833.333333333333,4,2,1,35,1,0
21014,-100,4,2,1,35,0,0
21430,967.741935483871,4,2,1,35,1,0
21430,-100,4,2,1,35,0,0
21913,821.917808219178,4,2,1,35,1,0
21913,-100,4,2,1,35,0,0
26022,326.086956521739,4,2,1,65,1,0
26022,-100,4,2,1,65,0,0
36456,-111.111111111111,4,2,1,55,0,0
46239,319.148936170213,4,2,1,55,1,0
46239,-100,4,2,1,55,0,0
46877,326.086956521739,4,2,1,50,1,0
46877,-125,4,2,1,50,0,0
50790,329.67032967033,4,2,1,50,1,0
50790,-125,4,2,1,50,0,0
52108,326.086956521739,4,2,1,50,1,0
52108,-125,4,2,1,50,0,0
54716,-111.111111111111,4,2,1,60,0,0
57325,-125,4,2,1,45,0,0
59934,322.58064516129,4,2,1,65,1,0
59934,-100,4,2,1,65,0,0
60901,329.67032967033,4,2,1,65,1,0
60901,-100,4,2,1,65,0,0
61395,310.880829015544,4,2,1,65,1,0
61395,-100,4,2,1,65,0,0
61861,337.078651685393,4,2,1,65,1,0
61861,-111.111111111111,4,2,1,65,0,0
62450,-111.111111111111,4,2,1,5,0,0
62535,326.086956521739,4,2,1,75,1,1
62535,-95.2380952380952,4,2,1,75,0,1
70361,324.324324324324,4,2,1,75,1,1
70361,-83.3333333333333,4,2,1,75,0,1
71658,327.868852459016,4,2,1,75,1,1
71658,-95.2380952380952,4,2,1,75,0,1
71985,322.58064516129,4,2,1,75,1,1
71985,-100,4,2,1,75,0,1
72146,-95.2380952380952,4,2,1,75,0,0
72952,327.868852459016,4,2,1,75,1,1
72952,-95.2380952380952,4,2,1,75,0,1
78525,324.324324324324,4,2,1,75,1,1
78525,-95.2380952380952,4,2,1,75,0,1
79497,326.086956521739,4,2,1,75,1,1
79497,-95.2380952380952,4,2,1,75,0,1
80801,324.324324324324,4,2,1,75,1,1
80801,-83.3333333333333,4,2,1,75,0,1
82098,327.868852459016,4,2,1,75,1,1
82098,-83.3333333333333,4,2,1,75,0,1
83327,-83.3333333333333,4,2,1,60,0,0
83409,326.086956521739,4,2,1,75,1,1
83409,-90.9090909090909,4,2,1,75,0,1
86506,315.789473684211,4,2,1,75,1,1
86506,-83.3333333333333,4,2,1,75,0,1
86979,340.909090909091,4,2,1,75,1,1
86979,-83.3333333333333,4,2,1,75,0,1
87319,344.827586206897,4,2,1,75,1,1
87319,-83.3333333333333,4,2,1,75,0,1
87663,304.568527918782,4,2,1,75,1,1
87663,-100,4,2,1,75,0,1
87814,327.868852459016,4,2,1,75,1,1
87814,-83.3333333333333,4,2,1,75,0,1
88469,-100,4,2,1,75,0,0

[Colours]
Combo1 : 213,128,128
Combo2 : 173,125,105
Combo3 : 226,209,203

[HitObjects]
97,126,957,6,0,P|153:116|260:107,1,150,2|0,3:2|0:0,0:0:0:0:
415,46,2402,2,0,L|399:134,1,75,2|2,0:0|0:0,0:0:0:0:
449,196,3125,2,0,L|433:284,1,75,2|2,0:0|0:0,0:0:0:0:
368,330,3848,2,0,P|296:328|234:381,1,150,2|0,0:0|0:0,0:0:0:0:
59,384,5294,2,0,P|96:322|81:242,1,150
135,161,6374,1,2,3:2:0:0:
135,161,6731,6,0,P|193:143|293:131,1,150,2|0,3:2|0:0,0:0:0:0:
366,95,7815,1,2,0:0:0:0:
366,95,8176,2,0,P|412:121|450:125,1,75,2|2,0:0|0:0,0:0:0:0:
462,210,8899,2,0,P|416:236|394:267,1,75,2|2,0:0|0:0,0:0:0:0:
346,323,9622,2,0,P|319:296|286:280,1,75,2|0,0:0|0:0,0:0:0:0:
245,300,10164,1,2,0:0:0:0:
245,300,10378,2,0,B|113:358|58:312|56:253|89:217|137:217|165:251,1,300,2|0,0:0|0:0,0:0:0:0:
215,175,12167,1,2,3:2:0:0:
215,175,12512,6,0,P|240:125|239:95,1,75,2|0,3:2|0:0,0:0:0:0:
216,68,13060,1,2,0:0:0:0:
339,12,13609,2,0,L|416:34,1,75,2|2,0:0|0:0,0:0:0:0:
465,105,14330,2,0,L|443:182,1,75,2|2,0:0|0:0,0:0:0:0:
372,231,15047,1,2,0:0:0:0:
290,192,15404,2,0,L|213:214,1,75,2|2,0:0|0:0,0:0:0:0:
142,263,16118,2,0,P|103:251|65:241,1,75,2|2,0:0|0:0,0:0:0:0:
41,208,16666,1,2,0:0:0:0:
285,9,17938,1,2,3:2:0:0:
285,9,18295,6,0,P|300:81|313:161,1,150,2|0,3:2|0:0,0:0:0:0:
270,246,19459,1,2,0:0:0:0:
270,246,19638,1,2,0:0:0:0:
270,246,19830,2,0,B|358:272,1,75,2|2,0:0|0:0,0:0:0:0:
428,294,20619,2,0,B|516:320,1,75,2|2,0:0|0:0,0:0:0:0:
256,192,21430,12,0,25611,0:0:0:0:
95,52,26022,6,0,L|113:199,1,150,6|2,1:2|0:0,0:0:0:0:
64,276,26511,1,0,1:0:0:0:
64,276,26674,2,0,P|99:292|159:276,1,75,8|0,0:0|1:0,0:0:0:0:
305,195,27163,6,0,P|336:173|376:177,1,75,0|2,1:0|0:0,0:0:0:0:
437,236,27489,2,0,P|473:246|510:248,1,75,8|2,0:0|0:0,0:0:0:0:
391,324,27815,1,0,1:0:0:0:
391,324,27978,2,0,L|294:347,1,75,8|0,0:0|1:0,0:0:0:0:
160,240,28467,1,8,0:0:0:0:
159,240,28630,6,0,P|172:205|167:168,1,75,6|0,1:2|0:0,0:0:0:0:
117,94,28956,2,0,P|59:74|29:72,1,75,2|0,1:2|0:0,0:0:0:0:
178,23,29282,2,0,L|254:9,1,75,8|0,0:0|1:0,0:0:0:0:
412,130,29772,1,0,1:2:0:0:
411,130,29935,6,0,P|427:97|421:60,1,75,2|8,0:0|0:0,0:0:0:0:
318,151,30261,2,0,L|337:248,1,75,2|0,0:0|1:0,0:0:0:0:
275,294,30587,1,14,0:0:0:0:
275,294,30750,1,0,1:0:0:0:
196,334,30913,1,12,0:0:0:0:
196,334,31076,1,8,0:0:0:0:
128,274,31239,6,0,P|91:242|-7:266,1,150,6|2,1:2|0:0,0:0:0:0:
0,161,31728,1,0,1:0:0:0:
0,161,31891,2,0,L|17:71,1,75,8|0,0:0|1:0,0:0:0:0:
190,0,32380,6,0,P|205:34|197:70,1,75,0|2,1:0|0:0,0:0:0:0:
183,159,32706,2,0,L|261:145,1,75,8|2,0:0|0:0,0:0:0:0:
333,96,33032,1,0,1:0:0:0:
333,96,33195,2,0,L|410:115,1,75,8|0,0:0|1:0,0:0:0:0:
509,282,33685,1,8,0:0:0:0:
508,282,33848,6,0,P|480:305|445:319,1,75,6|0,1:2|0:0,0:0:0:0:
360,286,34174,2,0,P|322:268|283:262,1,75,0|0,1:0|0:0,0:0:0:0:
228,328,34500,2,0,L|150:341,1,75,8|0,0:0|1:0,0:0:0:0:
45,178,34989,6,0,L|-4:197,2,37.5,0|0|2,1:0|1:0|0:0,0:0:0:0:
110,116,35315,1,8,0:0:0:0:
110,116,35478,2,0,L|183:132,1,75,2|0,0:0|1:0,0:0:0:0:
245,197,35804,2,0,P|282:205|324:181,1,75,8|0,0:0|1:0,0:0:0:0:
410,168,36130,1,8,0:0:0:0:
482,232,36293,1,8,0:0:0:0:
430,303,36456,6,0,B|359:305|388:350|306:355,1,134.999982445758,4|2,1:2|0:0,0:0:0:0:
281,276,36945,1,2,1:2:0:0:
281,276,37108,2,0,L|295:210,1,67.499991222879,10|2,0:0|1:2,0:0:0:0:
343,137,37435,1,2,0:0:0:0:
343,137,37598,6,0,P|375:120|413:125,1,67.499991222879,10|0,0:0|1:0,0:0:0:0:
287,41,37924,2,0,P|254:52|222:60,1,67.499991222879,8|2,0:0|0:0,0:0:0:0:
174,133,38250,1,0,1:0:0:0:
86,143,38413,2,0,P|79:177|69:209,1,67.499991222879,10|0,0:0|1:0,0:0:0:0:
15,277,38739,2,0,L|31:343,1,67.499991222879,10|0,0:0|0:0,0:0:0:0:
108,384,39065,6,0,B|149:386|173:311|217:313,1,134.999982445758,2|2,1:2|1:2,0:0:0:0:
297,272,39554,1,0,0:0:0:0:
297,272,39717,2,0,P|332:290|375:294,2,67.499991222879,10|2|2,0:0|1:2|0:0,0:0:0:0:
269,189,40206,6,0,P|303:157|288:62,1,134.999982445758,2|10,1:2|0:0,0:0:0:0:
343,0,40695,2,0,P|380:9|440:17,1,67.499991222879,2|0,0:0|1:2,0:0:0:0:
487,75,41021,2,0,P|455:105|417:104,1,67.499991222879,10|0,0:0|1:2,0:0:0:0:
353,191,41348,2,0,P|385:198|407:223,1,67.499991222879,10|0,0:0|0:0,0:0:0:0:
347,328,41674,6,0,B|309:314|301:276|301:276|262:298|212:267,1,134.999982445758,6|2,1:2|0:0,0:0:0:0:
179,219,42163,2,0,L|96:249,2,67.499991222879,2|10|2,1:2|0:0|1:2,0:0:0:0:
191,123,42652,1,2,0:0:0:0:
191,123,42815,6,0,P|255:102|315:72,1,134.999982445758,2|10,1:2|0:0,0:0:0:0:
376,9,43304,2,0,P|397:35|406:67,1,67.499991222879,2|0,0:0|1:2,0:0:0:0:
391,104,43549,1,0,1:2:0:0:
390,104,43630,2,0,P|396:138|406:170,1,67.499991222879,10|0,0:0|1:2,0:0:0:0:
445,248,43956,2,0,L|520:262,1,67.499991222879,10|0,0:0|0:0,0:0:0:0:
377,324,44282,6,0,P|343:329|312:344,1,67.499991222879,6|0,1:2|0:0,0:0:0:0:
258,274,44608,2,0,P|227:261|194:255,1,67.499991222879,2|0,0:0|1:2,0:0:0:0:
110,282,44935,2,0,P|76:277|46:263,1,67.499991222879,10|0,0:0|1:2,0:0:0:0:
11,182,45261,1,2,0:0:0:0:
57,107,45424,6,0,L|136:90,1,67.499991222879,8|2,0:0|1:2,0:0:0:0:
210,94,45750,2,0,L|230:29,2,67.499991222879,8|0|0,0:0|1:2|0:0,0:0:0:0:
167,172,46239,1,10,0:0:0:0:
167,172,46398,1,8,0:0:0:0:
211,253,46558,1,8,0:0:0:0:
211,253,46717,1,8,0:0:0:0:
270,320,46877,6,0,P|329:336|399:342,1,120,6|2,1:2|1:2,0:0:0:0:
509,210,47529,2,0,P|450:194|380:188,1,120,2|2,1:2|1:2,0:0:0:0:
300,34,48181,2,0,P|349:69|407:49,1,120,2|2,1:2|1:2,0:0:0:0:
262,167,48833,2,0,L|190:142,1,60,2|0,1:2|0:0,0:0:0:0:
142,84,49159,2,0,L|67:99,1,60,2|2,1:2|0:0,0:0:0:0:
53,122,49404,1,2,0:0:0:0:
53,122,49485,6,0,P|45:193|28:262,1,120,6|2,1:2|1:2,0:0:0:0:
2,381,50137,2,0,P|67:353|135:333,1,120,2|2,1:2|1:2,0:0:0:0:
252,295,50790,2,0,P|194:253|143:204,1,120,2|2,1:2|1:2,0:0:0:0:
225,53,51449,2,0,P|266:64|301:68,1,60,2|0,1:2|0:0,0:0:0:0:
348,129,51779,2,0,P|377:135|406:143,1,60,2|2,1:2|0:0,0:0:0:0:
436,176,52026,1,2,0:0:0:0:
436,176,52108,6,0,L|424:237,1,60,6|0,1:2|0:0,0:0:0:0:
357,297,52434,2,0,L|369:358,1,60,2|0,1:2|0:0,0:0:0:0:
281,378,52760,2,0,L|269:317,1,60,2|0,1:2|0:0,0:0:0:0:
201,262,53086,1,2,1:2:0:0:
201,262,53249,1,0,0:0:0:0:
263,198,53412,6,0,P|292:192|319:179,1,60,2|0,1:2|0:0,0:0:0:0:
368,105,53738,2,0,P|361:76|348:49,1,60,2|0,1:2|0:0,0:0:0:0:
274,0,54064,2,0,P|244:7|217:20,1,60,2|0,1:2|0:0,0:0:0:0:
165,92,54390,2,0,P|137:105|108:112,1,60,10|2,0:0|0:0,0:0:0:0:
48,179,54716,5,8,0:0:0:0:
99,252,54879,2,0,L|106:285,3,33.7499956114397,0|0|0|0,1:0|1:0|1:0|1:0,0:0:0:0:
133,296,55205,1,8,0:0:0:0:
187,201,55368,2,0,L|194:169,3,33.7499956114397,0|0|0|0,1:0|1:0|1:0|1:0,0:0:0:0:
214,148,55694,1,8,0:0:0:0:
293,227,55858,1,0,1:0:0:0:
293,227,55939,1,0,1:0:0:0:
293,227,56021,6,0,P|341:212|382:212,1,67.499991222879,10|0,0:0|1:0,0:0:0:0:
421,131,56347,2,0,P|452:143|485:148,1,67.499991222879,10|0,0:0|1:0,0:0:0:0:
512,50,56673,2,0,P|481:38|448:33,1,67.499991222879,8|8,0:0|0:0,0:0:0:0:
403,53,56917,1,8,0:0:0:0:
403,53,56999,2,0,L|347:33,4,33.7499956114397,8|0|0|0|2,0:0|1:0|1:0|1:0|0:0,0:0:0:0:
256,192,57406,12,2,59608,0:0:0:0:
120,62,59934,5,10,0:0:0:0:
120,62,60095,1,10,0:0:0:0:
188,128,60256,1,10,0:0:0:0:
188,128,60417,1,10,0:0:0:0:
392,312,60901,5,10,0:0:0:0:
392,312,61065,1,10,0:0:0:0:
324,246,61230,1,10,0:0:0:0:
324,246,61395,1,10,0:0:0:0:
415,24,61861,6,0,P|419:42|426:64,3,33.7499989700318,8|8|0|0,0:0|0:0|1:0|1:0,0:0:0:0:
456,92,62198,2,0,P|429:154|428:207,1,101.249996910095,8|0,0:0|0:0,0:0:0:0:
436,232,62535,6,0,P|383:254|336:284,1,78.7499897600259,6|2,1:2|0:0,0:0:0:0:
289,321,62861,1,10,0:0:0:0:
289,321,63024,1,2,0:0:0:0:
216,260,63187,2,0,L|198:159,1,78.7499897600259,2|0,1:2|1:2,0:0:0:0:
144,114,63513,1,10,0:0:0:0:
144,114,63676,6,0,P|109:95|61:109,1,78.7499975967408,2|0,0:0|1:2,0:0:0:0:
0,188,64002,2,0,L|79:205,1,78.7499897600259,2|8,1:2|0:0,0:0:0:0:
148,267,64328,2,0,L|160:344,1,78.7499897600259,2|0,1:2|0:0,0:0:0:0:
221,207,64654,2,0,P|256:190|299:202,1,78.7499897600259,2|8,1:2|0:0,0:0:0:0:
355,283,64980,1,2,0:0:0:0:
355,283,65062,1,2,0:0:0:0:
355,283,65143,6,0,B|446:295|396:337|489:361,2,157.499979520054,6|8|0,1:2|0:0|1:2,0:0:0:0:
319,198,65958,1,0,1:2:0:0:
319,198,66121,2,0,L|336:120,1,78.7499897600259,10|2,0:0|0:0,0:0:0:0:
399,52,66448,6,0,P|437:41|476:35,1,78.7499897600259,2|0,1:2|1:2,0:0:0:0:
505,130,66774,1,10,0:0:0:0:
505,130,66937,2,0,P|467:140|428:146,1,78.7499897600259,2|0,1:2|0:0,0:0:0:0:
356,208,67263,2,0,P|318:197|279:191,1,78.7499897600259,2|8,1:2|0:0,0:0:0:0:
209,143,67589,1,10,0:0:0:0:
209,143,67670,1,8,0:0:0:0:
209,143,67752,6,0,P|176:82|87:69,2,157.499979520054,6|8|0,1:2|0:0|1:0,0:0:0:0:
196,236,68567,1,0,1:0:0:0:
196,236,68730,2,0,L|174:339,1,78.7499897600259,10|2,0:0|0:0,0:0:0:0:
92,350,69056,6,0,L|55:177,1,157.499979520054,2|10,1:2|0:0,0:0:0:0:
0,123,69545,2,0,P|31:100|70:100,1,78.7499897600259,2|0,1:2|0:0,0:0:0:0:
151,148,69871,1,2,1:2:0:0:
151,148,70035,2,0,P|191:165|246:162,1,78.7499897600259,8|2,0:0|1:2,0:0:0:0:
315,106,70361,6,0,P|359:97|403:87,1,89.9999972534181,14|0,0:0|1:2,0:0:0:0:
494,146,70685,2,0,P|504:189|512:234,1,89.9999972534181,8|2,0:0|1:2,0:0:0:0:
454,325,71009,2,0,P|410:335|365:343,1,89.9999972534181,8|2,0:0|1:2,0:0:0:0:
275,285,71333,2,0,P|264:241|256:196,1,89.9999972534181,10|2,0:0|1:2,0:0:0:0:
171,101,71658,6,0,P|163:139|153:177,1,78.7499975967408,2|0,1:2|0:0,0:0:0:0:
70,140,71985,1,8,0:0:0:0:
8,211,72146,6,0,L|16:249,3,39.3749987983704,10|8|8|8,0:0|0:0|0:0|0:0,0:0:0:0:
58,271,72468,2,0,L|66:309,3,39.3749987983704,10|8|8|0,0:0|0:0|0:0|1:0,0:0:0:0:
110,337,72791,1,0,1:0:0:0:
110,337,72872,1,0,1:0:0:0:
110,337,72952,6,0,P|148:326|206:316,1,78.7499975967408,6|2,1:2|0:0,0:0:0:0:
266,266,73279,1,10,0:0:0:0:
266,266,73443,1,2,0:0:0:0:
221,182,73607,2,0,L|239:81,1,78.7499975967408,2|0,1:2|1:2,0:0:0:0:
295,33,73935,1,10,0:0:0:0:
295,33,74099,6,0,B|330:17|330:17|370:20,1,78.7499975967408,2|0,0:0|1:0,0:0:0:0:
447,74,74427,2,0,B|463:109|463:109|459:149,1,78.7499975967408,2|8,1:2|0:0,0:0:0:0:
406,226,74755,2,0,B|371:242|371:242|330:238,1,78.7499975967408,2|0,1:2|0:0,0:0:0:0:
260,173,75083,2,0,B|244:138|244:138|247:97,1,78.7499975967408,2|8,1:2|0:0,0:0:0:0:
189,36,75411,1,2,0:0:0:0:
189,36,75492,1,2,0:0:0:0:
189,36,75574,6,0,B|98:48|148:90|55:114,2,157.499995193482,4|8|0,1:2|0:0|1:2,0:0:0:0:
202,134,76394,1,0,1:2:0:0:
202,134,76558,2,0,P|191:175|185:212,1,78.7499975967408,10|2,0:0|0:0,0:0:0:0:
213,300,76886,6,0,L|290:317,1,78.7499975967408,2|0,1:2|1:2,0:0:0:0:
370,265,77214,1,10,0:0:0:0:
370,265,77378,2,0,P|386:302|375:349,1,78.7499975967408,2|0,1:2|0:0,0:0:0:0:
488,276,77706,2,0,L|505:199,1,78.7499975967408,2|8,1:2|0:0,0:0:0:0:
465,124,78033,1,10,0:0:0:0:
465,124,78115,1,8,0:0:0:0:
465,124,78197,6,0,P|429:106|388:93,1,78.7499975967408,2|0,1:2|0:0,0:0:0:0:
320,41,78525,1,10,0:0:0:0:
320,41,78687,2,0,L|231:61,1,78.7499975967408,2|0,0:0|1:0,0:0:0:0:
186,133,79011,2,0,L|206:222,1,78.7499975967408,2|8,1:2|0:0,0:0:0:0:
267,279,79335,1,0,0:0:0:0:
203,349,79497,5,0,1:2:0:0:
203,349,79660,2,0,L|110:334,1,78.7499975967408,2|10,1:2|0:0,0:0:0:0:
46,283,79986,2,0,P|39:247|28:206,1,78.7499975967408,2|0,1:2|0:0,0:0:0:0:
69,122,80312,1,2,1:2:0:0:
69,122,80475,2,0,P|108:103|164:103,1,78.7499975967408,12|2,0:0|1:2,0:0:0:0:
248,80,80801,6,0,P|274:41|284:-4,2,89.9999972534181,14|2|2,0:0|1:2|1:2,0:0:0:0:
213,182,81287,2,0,P|259:185|303:171,2,89.9999972534181,6|0|2,1:2|1:2|1:2,0:0:0:0:
108,202,81773,1,14,0:0:0:0:
108,202,81936,1,2,1:2:0:0:
166,293,82098,6,0,P|210:302|254:312,1,89.9999972534181,8|2,0:0|1:2,0:0:0:0:
345,253,82425,2,0,P|355:210|363:165,1,89.9999972534181,10|2,0:0|1:2,0:0:0:0:
305,74,82753,2,0,P|261:64|216:56,1,89.9999972534181,8|2,0:0|1:2,0:0:0:0:
127,118,83081,2,0,P|82:125|38:135,1,89.9999972534181,8|2,0:0|0:0,0:0:0:0:
0,229,83409,6,0,L|17:309,2,82.5000107275925,10|2|8,0:0|1:2|0:0,0:0:0:0:
58,151,83898,1,2,1:2:0:0:
58,151,83979,1,0,1:2:0:0:
58,151,84061,2,0,L|75:70,1,82.5000107275925,8|2,0:0|1:2,0:0:0:0:
147,2,84387,1,10,0:0:0:0:
243,23,84550,1,2,1:2:0:0:
312,92,84713,6,0,P|319:132|329:172,2,82.5000107275925,10|2|8,0:0|1:2|0:0,0:0:0:0:
414,70,85202,1,2,1:2:0:0:
414,70,85284,1,0,1:2:0:0:
414,70,85365,2,0,P|424:109|431:150,1,82.5000107275925,10|2,0:0|1:2,0:0:0:0:
403,245,85691,1,10,0:0:0:0:
327,308,85854,1,2,1:2:0:0:
251,261,86017,5,14,0:0:0:0:
251,261,86099,1,0,1:0:0:0:
251,261,86180,2,0,L|202:250,3,41.2500053637961,2|0|0|2,1:2|1:2|1:2|1:2,0:0:0:0:
174,218,86506,2,0,P|118:195|75:190,1,89.9999972534181,14|0,0:0|1:2,0:0:0:0:
60,100,86821,1,2,1:2:0:0:
60,100,86900,1,0,1:2:0:0:
60,100,86979,2,0,P|100:90|149:66,1,89.9999972534181,10|2,0:0|0:0,0:0:0:0:
218,14,87319,6,0,P|258:24|305:45,2,89.9999972534181,14|2|2,0:0|1:2|1:2,0:0:0:0:
143,69,87814,2,0,P|165:151|166:187,1,89.9999972534181,8|0,0:0|1:2,0:0:0:0:
223,226,88141,1,10,0:0:0:0:
318,253,88305,1,10,0:0:0:0:
396,226,88469,1,10,0:0:0:0:
