osu file format v14

[General]
AudioFilename: audio.mp3
AudioLeadIn: 0
PreviewTime: 62450
Countdown: 0
SampleSet: Soft
StackLeniency: 0.7
Mode: 0
LetterboxInBreaks: 0
WidescreenStoryboard: 0

[Editor]
DistanceSpacing: 1
BeatDivisor: 4
GridSize: 32
TimelineZoom: 2.1

[Metadata]
Title:Zoetrope (TV Size)
TitleUnicode:Zoetrope (TV Size)
Artist:yanaginagi
ArtistUnicode:やなぎなぎ
Creator:NeKroMan4ik
Version:Expert
Source:AMNESIA
Tags:エウアル euaru アムネシア rock jrock japanese anime female vocals Xenon- Xehn Xen Sotarks
BeatmapID:2361453
BeatmapSetID:1130495

[Difficulty]
HPDrainRate:5
CircleSize:4.2
OverallDifficulty:8.5
ApproachRate:9.1
SliderMultiplier:1.71
SliderTickRate:1

[Events]
//Background and Video events
0,0,"thumb-1920-802080.jpg",0,0
Video,-811,"movie.mp4"
//Break Periods
//Storyboard Layer 0 (Background)
//Storyboard Layer 1 (Fail)
//Storyboard Layer 2 (Pass)
//Storyboard Layer 3 (Foreground)
//Storyboard Layer 4 (Overlay)
//Storyboard Sound Samples

[TimingPoints]
957,722.89156626506,4,2,1,35,1,0
957,-111.111111111111,4,2,1,35,0,0
6017,714.285714285714,4,2,1,35,1,0
6017,-100,4,2,1,35,0,0
6731,722.89156626506,4,2,1,35,1,0
6731,-111.111111111111,4,2,1,35,0,0
10164,857.142857142857,4,2,1,35,1,0
10164,-100,4,2,1,35,0,0
10378,722.89156626506,4,2,1,35,1,0
10378,-111.111111111111,4,2,1,35,0,0
11823,689.655172413793,4,2,1,35,1,0
11823,-100,4,2,1,35,0,0
12512,731.707317073171,4,2,1,35,1,0
12512,-111.111111111111,4,2,1,35,0,0
13609,721.153846153846,4,2,1,35,1,0
14690,714.285714285714,4,2,1,35,1,0
14690,-111.111111111111,4,2,1,35,0,0
16118,731.707317073171,4,2,1,35,1,0
16118,-111.111111111111,4,2,1,35,0,0
17581,714.285714285714,4,2,1,35,1,0
17581,-111.111111111111,4,2,1,35,0,0
18295,789.473684210526,4,2,1,35,1,0
18295,-111.111111111111,4,2,1,35,0,0
19281,714.285714285714,4,2,1,35,1,0
19281,-100,4,2,1,35,0,0
19638,769.230769230769,4,2,1,35,1,0
19638,-100,4,2,1,35,0,0
19830,789.473684210526,4,2,1,35,1,0
19830,-111.111111111111,4,2,1,35,0,0
21014,833.333333333333,4,2,1,35,1,0
21014,-100,4,2,1,35,0,0
21430,967.741935483871,4,2,1,35,1,0
21430,-100,4,2,1,35,0,0
21913,821.917808219178,4,2,1,35,1,0
21913,-100,4,2,1,35,0,0
26022,326.086956521739,4,2,1,65,1,0
26022,-100,4,2,1,65,0,0
27407,-100,4,2,1,5,0,0
27489,-100,4,2,1,65,0,0
30016,-100,4,2,1,5,0,0
30098,-100,4,2,1,65,0,0
31483,-100,4,2,1,5,0,0
31565,-100,4,2,1,65,0,0
32625,-100,4,2,1,5,0,0
32706,-100,4,2,1,65,0,0
34092,-100,4,2,1,5,0,0
34174,-100,4,2,1,65,0,0
36456,-111.111111111111,4,2,1,55,0,0
46239,319.148936170213,4,2,1,55,1,0
46239,-100,4,2,1,55,0,0
46877,326.086956521739,4,2,1,50,1,0
46877,-142.857142857143,4,2,1,50,0,0
50790,329.67032967033,4,2,1,50,1,0
50790,-142.857142857143,4,2,1,50,0,0
52108,326.086956521739,4,2,1,50,1,0
52108,-142.857142857143,4,2,1,50,0,0
54716,-125,4,2,1,60,0,0
57325,-125,4,2,1,45,0,0
59934,322.58064516129,4,2,1,65,1,0
59934,-100,4,2,1,65,0,0
60901,329.67032967033,4,2,1,65,1,0
60901,-100,4,2,1,65,0,0
61395,310.880829015544,4,2,1,65,1,0
61395,-100,4,2,1,65,0,0
61861,337.078651685393,4,2,1,65,1,0
61861,-111.111111111111,4,2,1,65,0,0
62450,-111.111111111111,4,2,1,5,0,0
62535,326.086956521739,4,2,1,75,1,1
62535,-90.9090909090909,4,2,1,75,0,1
65714,-90.9090909090909,4,2,1,5,0,1
65795,-90.9090909090909,4,2,1,75,0,1
70361,324.324324324324,4,2,1,75,1,1
70361,-100,4,2,1,75,0,1
71658,327.868852459016,4,2,1,75,1,1
71658,-90.9090909090909,4,2,1,75,0,1
71985,322.58064516129,4,2,1,75,1,0
71985,-90.9090909090909,4,2,1,75,0,0
72952,327.868852459016,4,2,1,75,1,1
72952,-90.9090909090909,4,2,1,75,0,1
78443,-90.9090909090909,4,2,1,5,0,1
78525,324.324324324324,4,2,1,75,1,1
78525,-90.9090909090909,4,2,1,75,0,1
79497,326.086956521739,4,2,1,75,1,1
79497,-90.9090909090909,4,2,1,75,0,1
80801,324.324324324324,4,2,1,75,1,1
80801,-90.9090909090909,4,2,1,75,0,1
82098,327.868852459016,4,2,1,75,1,1
82098,-100,4,2,1,75,0,1
83327,-100,4,2,1,60,0,1
83409,326.086956521739,4,2,1,75,1,1
83409,-83.3333333333333,4,2,1,75,0,1
86506,315.789473684211,4,2,1,75,1,1
86506,-83.3333333333333,4,2,1,75,0,1
86979,340.909090909091,4,2,1,75,1,1
86979,-83.3333333333333,4,2,1,75,0,1
87319,344.827586206897,4,2,1,75,1,1
87319,-83.3333333333333,4,2,1,75,0,1
87663,304.568527918782,4,2,1,75,1,1
87663,-100,4,2,1,75,0,1
87814,327.868852459016,4,2,1,75,1,1
87814,-100,4,2,1,75,0,1
88469,-100,4,2,1,75,0,0

[Colours]
Combo1 : 213,128,128
Combo2 : 173,125,105
Combo3 : 226,209,203

[HitObjects]
25,101,957,6,0,B|85:91|78:59|137:49,2,115.424996477509,2|0|0,3:2|0:0|0:0,0:0:0:0:
147,29,2402,1,2,0:0:0:0:
203,91,2764,1,2,0:0:0:0:
175,244,3125,1,2,0:0:0:0:
115,309,3487,1,2,0:0:0:0:
238,188,3848,6,0,P|299:165|391:147,1,153.899995303345,2|0,0:0|0:0,0:0:0:0:
496,328,5294,2,0,P|435:351|343:369,1,153.899995303345
238,188,6374,1,2,3:2:0:0:
238,188,6731,6,0,P|251:144|261:97,1,76.9499976516724,2|0,3:2|0:0,0:0:0:0:
200,47,7273,2,0,L|109:72,1,76.9499976516724,2|0,0:0|0:0,0:0:0:0:
96,150,7815,1,2,0:0:0:0:
152,213,8176,1,2,0:0:0:0:
74,365,8538,1,2,0:0:0:0:
205,271,8899,1,2,0:0:0:0:
33,206,9261,1,2,0:0:0:0:
159,94,9622,6,0,L|258:63,1,76.9499976516724,2|0,0:0|0:0,0:0:0:0:
311,17,10164,1,2,0:0:0:0:
311,17,10378,2,0,B|344:43|395:40|395:40|457:30|445:-28|382:-12|395:40|395:40|435:75|433:127,1,307.79999060669,2|0,0:0|0:0,0:0:0:0:
512,248,12167,1,2,3:2:0:0:
512,248,12512,6,0,L|486:348,1,76.9499976516724,2|0,3:2|0:0,0:0:0:0:
420,384,13060,2,0,P|411:346|400:309,1,76.9499976516724,2|0,0:0|0:0,0:0:0:0:
332,263,13609,1,2,0:0:0:0:
269,319,13969,1,2,0:0:0:0:
172,210,14330,1,2,0:0:0:0:
252,236,14690,1,2,0:0:0:0:
110,267,15047,1,2,0:0:0:0:
198,130,15404,6,0,L|217:32,1,76.9499976516724,2|2,0:0|0:0,0:0:0:0:
402,0,16118,2,0,L|387:75,1,76.9499976516724,2|2,0:0|0:0,0:0:0:0:
445,137,16666,2,0,P|391:134|373:261,1,192.374994129181,2|0,0:0|0:0,0:0:0:0:
282,384,17938,2,0,L|241:371,1,38.4749988258362,2|0,3:2|0:0,0:0:0:0:
173,320,18295,6,0,P|117:357|89:359,1,76.9499976516724,2|0,3:2|0:0,0:0:0:0:
59,285,18887,2,0,P|114:247|142:245,1,76.9499976516724,2|0,0:0|0:0,0:0:0:0:
189,177,19459,1,2,0:0:0:0:
189,177,19638,1,2,0:0:0:0:
121,109,19830,6,0,P|104:74|98:36,1,76.9499976516724,2|2,0:0|0:0,0:0:0:0:
205,0,20619,2,0,P|221:34|227:72,1,76.9499976516724,2|2,0:0|0:0,0:0:0:0:
256,192,21430,12,0,25817,0:0:0:0:
50,166,26022,6,0,B|108:177|108:177|152:138|152:138|203:147,1,171,6|2,1:2|0:0,0:0:0:0:
52,261,26511,1,0,1:0:0:0:
195,383,26674,2,0,B|217:340|217:340|207:288,1,85.5,8|0,0:0|1:0,0:0:0:0:
408,0,27163,6,0,P|419:74|434:150,1,128.25,0|0,1:0|0:0,0:0:0:0:
496,165,27489,2,0,P|452:171|425:214,1,85.5,8|2,0:0|0:0,0:0:0:0:
342,362,27815,1,0,1:0:0:0:
203,192,27978,2,0,P|217:251|221:298,1,85.5,8|0,0:0|1:0,0:0:0:0:
456,20,28467,1,8,0:0:0:0:
456,20,28630,6,0,B|363:-11|374:47|285:19,1,171,6|2,1:2|1:2,0:0:0:0:
203,192,29119,1,0,0:0:0:0:
351,284,29282,2,0,P|343:233|341:184,1,86,8|0,0:0|1:0,0:0:0:0:
61,2,29772,6,0,P|121:25|134:109,1,128.25,0|0,1:2|0:0,0:0:0:0:
96,148,30098,2,0,L|9:171,1,85.5,8|2,0:0|0:0,0:0:0:0:
168,323,30424,1,0,1:0:0:0:
296,177,30587,5,14,0:0:0:0:
458,227,30750,1,0,1:0:0:0:
421,149,30913,5,12,0:0:0:0:
234,251,31076,1,8,0:0:0:0:
453,384,31239,6,0,P|431:340|498:309,1,128.25,6|0,1:2|0:0,0:0:0:0:
512,313,31565,2,0,P|494:269|496:226,1,85.5,2|0,0:0|1:0,0:0:0:0:
399,36,31891,2,0,L|378:143,1,85.5,8|0,0:0|1:0,0:0:0:0:
195,289,32380,6,0,B|115:258|115:258|87:309,1,128.25,0|0,1:0|0:0,0:0:0:0:
21,353,32706,2,0,L|0:270,1,85.5,8|2,0:0|0:0,0:0:0:0:
44,61,33032,1,0,1:0:0:0:
190,35,33195,2,0,L|169:117,1,85.5,8|0,0:0|1:0,0:0:0:0:
436,261,33685,1,8,0:0:0:0:
436,261,33848,6,0,B|365:277|399:311|305:334,1,128.25,6|0,1:2|0:0,0:0:0:0:
261,384,34174,2,0,B|238:350|238:350|248:306,1,85.5,0|0,1:0|0:0,0:0:0:0:
414,109,34500,2,0,P|393:145|352:159,1,85.5,8|0,0:0|1:0,0:0:0:0:
76,25,34989,1,0,1:0:0:0:
76,25,35070,1,0,1:0:0:0:
76,25,35152,5,2,1:2:0:0:
0,93,35315,2,0,L|80:120,1,85.5,8|2,0:0|0:0,0:0:0:0:
181,259,35641,1,0,1:0:0:0:
121,320,35804,5,8,0:0:0:0:
99,237,35967,1,0,1:0:0:0:
261,70,36130,5,8,0:0:0:0:
349,281,36293,1,8,0:0:0:0:
512,95,36456,6,0,P|456:122|360:146,1,153.899995303345,4|2,1:2|0:0,0:0:0:0:
232,43,36945,1,2,1:2:0:0:
234,145,37108,2,0,P|221:91|206:59,1,76.9499976516724,10|2,0:0|1:2,0:0:0:0:
64,157,37435,1,2,0:0:0:0:
122,211,37598,1,10,0:0:0:0:
71,384,37761,5,0,1:0:0:0:
163,298,37924,2,0,L|238:282,1,76.9499976516724,8|2,0:0|0:0,0:0:0:0:
384,337,38250,1,0,1:0:0:0:
384,337,38413,2,0,P|338:362|297:355,1,76.9499976516724,10|0,0:0|1:0,0:0:0:0:
419,172,38739,2,0,P|431:222|449:262,1,76.9499976516724,10|0,0:0|0:0,0:0:0:0:
281,180,39065,6,0,P|307:126|233:78,1,153.899995303345,2|2,1:2|1:2,0:0:0:0:
71,1,39554,1,0,0:0:0:0:
71,1,39717,2,0,L|97:89,1,76.9499976516724,10|2,0:0|1:2,0:0:0:0:
0,231,40043,1,2,0:0:0:0:
0,231,40206,6,0,P|17:197|51:179,1,76.9499976516724,2|0,1:2|0:0,0:0:0:0:
157,268,40532,1,10,0:0:0:0:
209,206,40695,2,0,P|248:189|302:178,1,76.9499976516724,2|0,0:0|1:2,0:0:0:0:
453,335,41021,5,10,0:0:0:0:
281,273,41185,1,0,1:2:0:0:
469,121,41348,1,10,0:0:0:0:
446,33,41511,1,2,0:0:0:0:
446,33,41592,1,2,0:0:0:0:
446,33,41674,6,0,B|400:49|400:49|377:93|377:93|324:111,1,153.899995303345,6|2,1:2|0:0,0:0:0:0:
204,29,42163,1,2,1:2:0:0:
130,75,42326,2,0,B|114:43|114:43|121:2,1,76.9499976516724,10|2,0:0|1:2,0:0:0:0:
176,149,42652,1,2,0:0:0:0:
117,213,42815,6,0,P|72:230|33:250,1,76.9499976516724,2|0,1:2|0:0,0:0:0:0:
149,384,43141,1,10,0:0:0:0:
299,243,43304,1,2,0:0:0:0:
354,307,43467,1,0,1:2:0:0:
354,307,43549,1,0,1:2:0:0:
354,307,43630,2,0,P|308:332|267:325,1,76.9499976516724,10|0,0:0|0:0,0:0:0:0:
438,208,43956,2,0,P|482:235|497:274,1,76.9499976516724,10|0,0:0|0:0,0:0:0:0:
310,184,44282,6,0,P|301:129|333:31,1,153.899995303345,6|0,1:2|0:0,0:0:0:0:
146,0,44771,1,0,1:2:0:0:
146,0,44935,2,0,L|167:73,1,76.9499976516724,10|0,0:0|1:2,0:0:0:0:
88,179,45261,1,2,0:0:0:0:
17,146,45424,1,8,0:0:0:0:
65,336,45587,5,2,1:2:0:0:
173,242,45750,1,8,0:0:0:0:
274,368,45913,2,0,B|315:377|315:377|346:361,1,76.9499976516724,0|2,1:2|0:0,0:0:0:0:
346,360,46157,1,2,0:0:0:0:
346,360,46239,5,10,0:0:0:0:
306,291,46398,1,8,0:0:0:0:
421,145,46558,5,8,0:0:0:0:
386,70,46717,1,8,0:0:0:0:
248,0,46877,6,0,B|215:53|215:53|144:72,3,119.699996347046,6|2|2|2,1:2|1:2|1:2|1:2,0:0:0:0:
26,165,48181,2,0,P|65:174|136:229,3,119.699996347046,2|2|2|2,1:2|1:2|1:2|1:2,0:0:0:0:
232,321,49322,1,2,0:0:0:0:
232,321,49404,1,2,0:0:0:0:
232,321,49485,6,0,P|246:259|265:191,3,119.699996347046,6|2|2|2,1:2|1:2|1:2|1:2,0:0:0:0:
385,31,50790,2,0,L|414:147,3,119.699996347046,2|2|2|2,1:2|1:2|1:2|1:2,0:0:0:0:
508,269,51943,1,2,0:0:0:0:
508,269,52026,1,2,0:0:0:0:
508,269,52108,6,0,P|446:249|427:249,1,59.849998173523,6|0,1:2|0:0,0:0:0:0:
377,311,52434,2,0,P|315:331|296:331,1,59.849998173523,2|0,1:2|0:0,0:0:0:0:
233,384,52760,2,0,P|184:340|175:323,1,59.849998173523,2|0,1:2|0:0,0:0:0:0:
118,263,53086,1,2,1:2:0:0:
118,263,53249,1,0,0:0:0:0:
179,169,53412,6,0,L|246:154,1,59.849998173523,2|0,1:2|0:0,0:0:0:0:
310,79,53738,2,0,L|377:94,1,59.849998173523,2|0,1:2|0:0,0:0:0:0:
454,151,54064,2,0,P|482:142|512:137,1,59.849998173523,2|0,1:2|0:0,0:0:0:0:
512,137,54390,1,10,0:0:0:0:
413,285,54553,1,2,0:0:0:0:
413,285,54635,1,2,0:0:0:0:
413,285,54716,5,8,0:0:0:0:
273,192,54879,2,0,L|263:159,1,34.2,0|0,1:0|1:0,0:0:0:0:
212,93,55042,2,0,L|222:60,1,34.2,0|0,1:0|1:0,0:0:0:0:
279,0,55205,5,8,0:0:0:0:
119,182,55368,2,0,P|104:191|88:197,1,34.2,0|0,1:0|1:0,0:0:0:0:
21,257,55531,2,0,P|36:264|49:275,1,34.2,0|0,1:0|1:0,0:0:0:0:
98,342,55694,5,8,0:0:0:0:
273,192,55858,2,0,L|321:183,1,34.2,0|0,1:0|1:0,0:0:0:0:
376,227,56021,5,10,0:0:0:0:
504,70,56184,1,0,1:0:0:0:
512,295,56347,5,10,0:0:0:0:
367,122,56510,1,0,1:0:0:0:
292,368,56673,5,8,0:0:0:0:
209,175,56836,1,8,0:0:0:0:
202,157,56917,1,8,0:0:0:0:
197,141,56999,2,0,L|191:107,1,34.2,8|0,0:0|1:0,0:0:0:0:
99,29,57162,2,0,L|91:62,1,34.2,0|0,1:0|1:0,0:0:0:0:
73,75,57325,1,2,0:0:0:0:
256,192,57406,12,2,59608,0:0:0:0:
422,77,59934,5,10,0:0:0:0:
312,258,60095,1,10,0:0:0:0:
133,109,60256,1,10,0:0:0:0:
84,175,60417,1,10,0:0:0:0:
84,175,60901,5,10,0:0:0:0:
296,150,61065,1,10,0:0:0:0:
67,60,61230,1,10,0:0:0:0:
204,274,61395,1,10,0:0:0:0:
204,274,61861,5,8,0:0:0:0:
204,274,61945,1,8,0:0:0:0:
204,274,62029,2,0,P|209:251|215:224,1,38.4749988258362,0|0,1:0|1:0,0:0:0:0:
143,124,62198,2,0,B|193:101|200:151|261:128,1,115.424996477509,8|0,0:0|0:0,0:0:0:0:
273,106,62535,5,6,1:2:0:0:
427,174,62698,1,2,0:0:0:0:
512,20,62861,1,10,0:0:0:0:
385,99,63024,1,2,0:0:0:0:
482,254,63187,2,0,L|380:275,1,94.0500028701783,2|0,1:2|1:2,0:0:0:0:
251,169,63513,1,10,0:0:0:0:
243,343,63676,6,0,P|205:317|192:273,1,94.0500028701783,2|0,0:0|1:2,0:0:0:0:
95,37,64002,2,0,P|108:82|147:107,1,94.0500028701783,2|8,1:2|0:0,0:0:0:0:
0,249,64328,2,0,P|42:228|86:212,1,94.0500028701783,2|0,1:2|0:0,0:0:0:0:
333,82,64654,2,0,P|291:60|246:44,1,94.0500028701783,2|8,1:2|0:0,0:0:0:0:
438,252,64980,1,2,0:0:0:0:
438,252,65062,1,2,0:0:0:0:
438,252,65143,6,0,P|476:230|484:168,1,94.0500028701783,6|0,1:2|0:0,0:0:0:0:
405,359,65469,2,0,B|321:338|368:307|276:286,1,141.075004305267,8|0,0:0|0:0,0:0:0:0:
266,298,65795,1,0,1:2:0:0:
115,136,65958,1,0,1:2:0:0:
179,81,66121,2,0,B|203:121|203:121|193:166,1,94.0500028701783,10|2,0:0|0:0,0:0:0:0:
15,334,66448,6,0,P|38:292|81:278,1,94.0500028701783,2|0,1:2|1:2,0:0:0:0:
200,151,66774,1,10,0:0:0:0:
319,309,66937,2,0,P|337:256|343:206,1,94.0500028701783,2|0,1:2|0:0,0:0:0:0:
487,46,67263,2,0,P|494:92|510:136,1,94.0500028701783,2|8,1:2|0:0,0:0:0:0:
332,77,67589,1,10,0:0:0:0:
332,77,67670,1,8,0:0:0:0:
332,77,67752,6,0,B|291:50|294:-5|294:-5|248:49|186:28,2,188.100005740357,6|8|0,1:2|0:0|1:0,0:0:0:0:
189,12,68567,1,0,1:0:0:0:
53,130,68730,2,0,P|15:107|13:46,1,94.0500028701783,10|2,0:0|0:0,0:0:0:0:
149,198,69056,6,0,L|165:290,1,94.0500028701783,2|0,1:2|1:2,0:0:0:0:
327,203,69382,1,10,0:0:0:0:
379,272,69545,2,0,L|362:364,1,94.0500028701783,2|0,1:2|0:0,0:0:0:0:
247,170,69871,1,2,1:2:0:0:
360,123,70035,2,0,P|404:102|473:100,1,94.0500028701783,8|2,0:0|1:2,0:0:0:0:
500,310,70361,5,14,0:0:0:0:
326,203,70523,1,0,1:2:0:0:
411,191,70685,5,8,0:0:0:0:
317,384,70847,1,2,1:2:0:0:
117,259,71009,5,8,0:0:0:0:
247,170,71171,1,2,1:2:0:0:
142,384,71333,5,10,0:0:0:0:
26,177,71496,1,2,1:2:0:0:
148,44,71658,6,0,L|171:161,1,94.0500028701783,2|0,1:2|1:2,0:0:0:0:
295,283,71985,1,8,0:0:0:0:
417,45,72146,5,10,0:0:0:0:
424,57,72226,1,8,0:0:0:0:
432,69,72307,2,0,P|456:85|499:96,1,47.0250014350892,8|8,0:0|0:0,0:0:0:0:
349,208,72468,1,10,0:0:0:0:
356,196,72549,1,8,0:0:0:0:
364,184,72630,2,0,P|388:168|431:157,1,47.0250014350892,0|0,1:0|1:0,0:0:0:0:
269,72,72791,2,0,P|289:86|310:95,1,47.0250014350892,0|0,1:0|1:0,0:0:0:0:
199,141,72952,5,6,1:2:0:0:
41,37,73115,1,2,0:0:0:0:
125,0,73279,1,10,0:0:0:0:
16,203,73443,1,2,0:0:0:0:
73,277,73607,2,0,P|123:254|179:254,1,94.0500028701783,2|0,1:2|1:2,0:0:0:0:
310,151,73935,1,10,0:0:0:0:
305,383,74099,6,0,P|280:344|289:298,1,94.0500028701783,2|0,0:0|1:2,0:0:0:0:
429,74,74427,2,0,P|453:112|444:158,1,94.0500028701783,2|8,1:2|0:0,0:0:0:0:
192,206,74755,2,0,P|236:192|282:180,1,94.0500028701783,2|0,1:2|0:0,0:0:0:0:
501,314,75083,2,0,P|456:298|410:287,1,94.0500028701783,2|8,1:2|0:0,0:0:0:0:
307,149,75411,1,2,0:0:0:0:
307,149,75492,1,2,0:0:0:0:
307,149,75574,6,0,B|292:86|273:30|273:30|302:17|333:3,2,188.100005740357,4|8|0,1:2|0:0|1:2,0:0:0:0:
156,321,76394,1,0,1:2:0:0:
77,261,76558,2,0,P|123:239|169:225,1,94.0500028701783,10|2,0:0|0:0,0:0:0:0:
400,384,76886,6,0,L|308:363,1,94.0500028701783,2|0,1:2|1:2,0:0:0:0:
512,230,77214,1,10,0:0:0:0:
451,173,77378,2,0,L|359:194,1,94.0500028701783,2|0,1:2|0:0,0:0:0:0:
161,118,77706,2,0,P|203:86|263:104,1,94.0500028701783,2|8,1:2|0:0,0:0:0:0:
140,285,78033,1,10,0:0:0:0:
140,285,78115,1,8,0:0:0:0:
140,285,78197,6,0,P|78:273|25:334,1,141.075004305267,2|0,1:2|0:0,0:0:0:0:
80,383,78525,1,10,0:0:0:0:
170,274,78687,1,2,0:0:0:0:
57,147,78849,1,0,1:0:0:0:
179,13,79011,1,2,1:2:0:0:
179,13,79173,2,0,P|189:57|206:117,1,94.0500028701783,8|0,0:0|0:0,0:0:0:0:
341,215,79497,5,0,1:2:0:0:
493,128,79660,1,2,1:2:0:0:
310,69,79823,1,10,0:0:0:0:
410,274,79986,2,0,B|434:234|434:234|424:189,1,94.0500028701783,2|0,1:2|0:0,0:0:0:0:
249,329,80312,5,2,1:2:0:0:
170,351,80475,1,12,0:0:0:0:
94,375,80638,1,2,1:2:0:0:
242,219,80801,6,0,P|269:174|328:164,1,94.0500028701783,14|2,0:0|1:2,0:0:0:0:
324,246,81125,1,2,1:2:0:0:
85,139,81287,6,0,P|59:93|80:37,1,94.0500028701783,6|0,1:2|1:2,0:0:0:0:
149,81,81611,1,2,1:2:0:0:
88,294,81773,6,0,L|-9:329,1,94.0500028701783,14|2,0:0|1:2,0:0:0:0:
93,146,82098,5,8,0:0:0:0:
206,295,82261,1,2,1:2:0:0:
262,92,82425,5,10,0:0:0:0:
280,240,82589,1,2,1:2:0:0:
415,134,82753,5,8,0:0:0:0:
367,244,82917,1,2,1:2:0:0:
512,240,83081,5,8,0:0:0:0:
435,296,83245,1,2,0:0:0:0:
315,135,83409,6,0,B|330:79|330:79|366:51,2,102.599996868897,10|2|8,0:0|1:2|0:0,0:0:0:0:
157,339,83898,1,2,1:2:0:0:
134,350,83979,1,0,1:2:0:0:
109,358,84061,5,8,0:0:0:0:
223,149,84224,1,2,1:2:0:0:
280,223,84387,5,10,0:0:0:0:
64,117,84550,1,2,1:2:0:0:
260,0,84713,6,0,P|297:33|301:82,2,102.599996868897,10|2|8,0:0|1:2|0:0,0:0:0:0:
98,188,85202,2,0,P|90:163|85:133,1,51.2999984344483,2|0,1:2|1:2,0:0:0:0:
176,149,85365,5,10,0:0:0:0:
91,384,85528,1,2,1:2:0:0:
0,205,85691,5,10,0:0:0:0:
214,355,85854,1,2,1:2:0:0:
310,92,86017,6,0,L|321:42,1,51.2999984344483,14|0,0:0|1:2,0:0:0:0:
418,28,86180,1,2,1:2:0:0:
427,33,86262,1,0,1:0:0:0:
436,38,86343,1,0,1:0:0:0:
445,44,86425,1,0,1:0:0:0:
453,49,86506,6,0,P|466:109|477:154,1,102.599996868897,14|0,0:0|1:0,0:0:0:0:
363,363,86821,2,0,P|340:381|299:370,1,51.2999984344483,2|0,1:2|1:2,0:0:0:0:
225,316,86979,2,0,L|336:282,1,102.599996868897,10|2,0:0|0:0,0:0:0:0:
219,87,87319,6,0,P|166:72|121:55,2,102.599996868897,14|2|2,0:0|1:2|1:2,0:0:0:0:
94,280,87815,5,8,0:0:0:0:
21,312,87977,1,0,1:2:0:0:
203,55,88141,5,10,0:0:0:0:
420,274,88305,1,10,0:0:0:0:
257,384,88469,1,10,0:0:0:0:
