osu file format v14

[General]
AudioFilename: audio.mp3
AudioLeadIn: 0
PreviewTime: 62450
Countdown: 0
SampleSet: Soft
StackLeniency: 0.7
Mode: 0
LetterboxInBreaks: 0
WidescreenStoryboard: 1

[Editor]
Bookmarks: 957,26010,36444,46879,56009,59923,62531,72966,80792,88455
DistanceSpacing: 1.6
BeatDivisor: 4
GridSize: 4
TimelineZoom: 1.7

[Metadata]
Title:Zoetrope
TitleUnicode:Zoetrope
Artist:yanaginagi
ArtistUnicode:やなぎなぎ
Creator:Realazy
Version:Kin's Hard
Source:AMNESIA
Tags:Akitoshi _83 pyroflayer borborygmos bor yaleufeu Kyuukai Linada Kin エウアル euaru アムネシア opening
BeatmapID:1273585
BeatmapSetID:599195

[Difficulty]
HPDrainRate:5.2
CircleSize:3.8
OverallDifficulty:6
ApproachRate:7.4
SliderMultiplier:1.52
SliderTickRate:1

[Events]
//Background and Video events
0,0,"Asphyxia's BG.jpg",0,0
//Break Periods
//Storyboard Layer 0 (Background)
//Storyboard Layer 1 (Fail)
//Storyboard Layer 2 (Pass)
//Storyboard Layer 3 (Foreground)
//Storyboard Sound Samples

[TimingPoints]
957,722.89156626506,4,2,1,45,1,0
957,-117.647058823529,4,2,1,45,0,0
6378,-117.647058823529,4,2,1,35,0,0
6740,-117.647058823529,4,2,1,45,0,0
12161,-117.647058823529,4,2,1,35,0,0
12523,-117.647058823529,4,2,1,45,0,0
17402,-117.647058823529,4,2,1,5,0,0
17583,-117.647058823529,4,2,1,35,0,0
17944,-117.647058823529,4,2,1,35,0,0
18306,750,4,2,1,45,1,0
19806,800,4,2,1,45,1,0
21406,652.173913043478,4,2,1,45,1,0
22710,750,4,2,1,45,1,0
24210,800,4,2,1,45,1,0
25010,1000,4,2,1,45,1,0
26010,326.086956521739,4,2,1,60,1,0
54705,-100,4,2,1,55,0,0
57314,-100,4,2,1,45,0,0
59923,-100,4,2,1,65,0,0
62531,-100,4,2,1,70,0,1
72558,-100,4,2,1,40,0,1
72803,-100,4,2,1,70,0,0
72966,-100,4,2,1,70,0,1
80629,-100,4,2,1,70,0,0
83401,-100,4,2,1,70,0,1
88129,-100,4,2,1,70,0,1
88455,-100,4,2,1,70,0,0

[Colours]
Combo1 : 98,81,255
Combo2 : 160,75,218
Combo3 : 232,51,55
Combo4 : 186,199,241

[HitObjects]
168,200,957,6,0,B|160:224|168:248|168:248|176:272|168:296,2,96.9000018482209,2|0|0,3:2|0:2|0:2,0:0:0:0:
255,225,2402,1,2,0:2:0:0:
344,200,2764,1,0,0:2:0:0:
280,136,3125,2,0,P|272:104|276:64,1,64.6000012321472,2|0,0:2|0:2,0:0:0:0:
392,125,3848,6,0,P|381:171|343:199,1,96.9000018482209,2|0,0:2|0:0,0:0:0:0:
216,148,4932,1,0,0:0:0:0:
216,148,5294,2,0,B|209:185|209:185|216:242|216:242|209:276,1,129.200002464294,2|0,0:2|0:2,0:0:0:0:
124,244,6378,1,2,3:2:0:0:
28,308,6740,6,0,P|12:268|16:228,1,64.6000012321472,2|0,3:2|0:2,0:0:0:0:
16,220,7282,2,0,B|9:187|9:187|12:157|12:157|6:124,1,96.9000018482209,2|0,0:0|0:0,0:0:0:0:
84,80,8185,1,2,0:2:0:0:
172,113,8547,1,0,0:2:0:0:
260,80,8908,1,2,0:2:0:0:
346,114,9270,1,0,0:2:0:0:
433,80,9631,6,0,P|436:144|416:176,1,96.9000018482209,2|2,0:2|0:2,0:0:0:0:
354,102,12161,5,2,3:2:0:0:
354,102,12523,2,0,B|320:96|320:96|280:100,1,64.6000012321472,2|0,3:2|0:2,0:0:0:0:
268,108,13065,2,0,P|212:120|148:108,1,96.9000018482209,2|0,0:2|0:2,0:0:0:0:
104,56,13969,1,2,0:2:0:0:
88,148,14330,1,0,0:2:0:0:
104,240,14691,1,2,0:2:0:0:
88,332,15052,1,0,0:2:0:0:
176,300,15414,5,2,0:2:0:0:
104,240,15776,1,0,0:2:0:0:
88,148,16137,2,0,P|80:112|96:68,1,64.6000012321472,2|0,0:2|0:2,0:0:0:0:
100,64,16679,2,0,B|132:60|132:60|168:68|168:68|200:64|200:64|232:60|256:72|276:96,1,161.500003080368,0|0,0:0|0:2,0:0:0:0:
208,160,17944,1,2,3:2:0:0:
204,164,18125,1,0,0:2:0:0:
200,168,18306,6,0,P|192:208|200:248,1,76,2|0,3:2|0:2,0:0:0:0:
216,268,18868,2,0,B|253:261|253:261|293:264|293:264|328:258,1,114,2|0,0:2|0:2,0:0:0:0:
360,252,19618,1,0,0:2:0:0:
360,252,19806,6,0,P|368:208|360:168,1,76,2|0,0:2|0:2,0:0:0:0:
328,76,20606,1,2,0:2:0:0:
256,152,21006,1,0,0:2:0:0:
180,72,21406,2,0,P|148:120|156:200,1,114,2|0,0:2|0:2,0:0:0:0:
256,192,22058,12,0,25760,0:2:0:0:
200,96,26010,6,0,B|212:88|244:88|260:92|252:100|268:104|300:104|312:96|312:96|296:88|276:88,1,152,12|0,1:2|1:2,0:0:0:0:
228,168,26499,1,0,1:2:0:0:
180,244,26662,1,8,0:2:0:0:
180,244,26825,2,0,P|168:336|208:380,1,152,0|0,1:2|1:0,0:0:0:0:
252,300,27314,5,0,0:2:0:0:
336,340,27477,2,0,B|412:324|412:324|436:336|464:340|492:328,1,152,8|0,0:2|1:2,0:0:0:0:
456,244,27966,1,8,0:2:0:0:
456,244,28129,2,0,P|436:176|468:68,1,152,0|8,1:2|0:2,0:0:0:0:
340,20,28618,6,0,P|348:64|336:112,1,76,4|0,1:2|0:0,0:0:0:0:
288,168,28944,2,0,P|280:212|292:260,1,76,0|0,1:2|0:2,0:0:0:0:
360,292,29270,1,8,0:2:0:0:
360,292,29433,2,0,P|300:276|212:296,1,152,0|0,1:2|1:2,0:0:0:0:
144,356,29923,5,0,0:2:0:0:
128,268,30086,2,0,B|124:228|124:228|140:156|140:156|136:116,1,152,8|0,0:2|1:2,0:0:0:0:
192,48,30575,2,0,P|228:56|268:52,1,76,12|0,0:2|0:2,0:0:0:0:
348,16,30901,1,8,0:2:0:0:
348,16,31064,1,8,0:2:0:0:
440,96,31227,6,0,L|424:248,1,152,4|0,1:2|1:2,0:0:0:0:
356,308,31716,1,0,0:2:0:0:
288,248,31879,1,8,0:2:0:0:
220,308,32042,2,0,P|196:240|240:172,1,152,0|0,1:0|1:2,0:0:0:0:
324,160,32531,5,0,0:2:0:0:
324,160,32694,2,0,P|348:92|304:24,1,152,8|0,0:2|1:2,0:0:0:0:
224,52,33183,1,8,0:2:0:0:
140,16,33346,2,0,B|136:56|136:56|148:128|148:128|144:168,1,152,0|8,1:2|0:2,0:0:0:0:
80,272,33836,6,0,L|92:368,1,76,4|0,1:2|0:0,0:0:0:0:
176,324,34162,2,0,L|188:228,1,76,0|0,1:2|0:2,0:0:0:0:
144,166,34488,1,8,0:2:0:0:
144,166,34651,2,0,B|148:128|148:128|136:56|136:56|140:16,1,152,0|0,1:2|1:2,0:0:0:0:
224,52,35140,5,0,1:2:0:0:
309,27,35303,2,0,P|347:90|324:160,1,152,8|0,0:2|1:2,0:0:0:0:
256,220,35792,2,0,L|264:304,1,76,12|0,0:2|0:2,0:0:0:0:
208,368,36118,1,8,0:2:0:0:
208,368,36281,1,8,0:2:0:0:
120,268,36444,6,0,P|112:224|196:164,1,152,4|0,1:2|1:2,0:0:0:0:
256,220,36933,1,0,0:2:0:0:
328,164,37096,1,8,0:2:0:0:
404,220,37260,2,0,P|420:148|372:80,1,152,0|8,1:2|0:2,0:0:0:0:
288,80,37749,5,0,1:2:0:0:
236,152,37912,2,0,P|255:223|332:256,1,152,8|0,0:2|0:2,0:0:0:0:
404,220,38401,2,0,L|408:144,1,76,8|0,0:2|0:2,0:0:0:0:
484,96,38727,2,0,L|488:172,1,76,8|0,0:2|0:2,0:0:0:0:
444,304,39053,6,0,B|424:312|388:316|364:308|372:300|348:292|316:296|296:304,2,152,4|0|8,1:2|1:2|0:2,0:0:0:0:
404,220,39868,2,0,L|408:144,1,76,0|0,1:2|0:2,0:0:0:0:
484,96,40194,2,0,L|480:20,1,76,0|0,1:2|0:2,0:0:0:0:
364,52,40520,6,0,B|324:60|324:60|248:56|248:56|212:64,1,152,8|0,0:2|0:2,0:0:0:0:
132,100,41009,1,8,0:2:0:0:
132,100,41173,1,0,1:2:0:0:
248,140,41336,2,0,P|252:180|248:216,1,76,8|0,0:2|0:2,0:0:0:0:
164,304,41662,6,0,B|280:296|280:296|240:336,1,152,4|0,1:2|1:2,0:0:0:0:
188,384,42151,1,0,0:2:0:0:
188,384,42314,1,8,0:2:0:0:
100,368,42477,2,0,P|72:292|112:228,2,152,0|0|8,1:2|1:2|0:2,0:0:0:0:
164,304,43292,6,0,L|276:296,1,76,0|0,0:0|1:0,0:0:0:0:
316,248,43618,2,0,P|328:208|312:148,1,76,8|0,0:2|0:2,0:0:0:0:
248,124,43944,2,0,P|236:164|252:224,1,76,8|0,0:2|0:2,0:0:0:0:
340,268,44270,6,0,B|456:260|456:260|412:292,1,152,4|0,1:2|1:2,0:0:0:0:
264,364,44923,1,8,0:2:0:0:
264,364,45086,2,0,B|256:320|256:320|264:260|264:260|256:212,1,152,0|8,1:2|0:2,0:0:0:0:
172,252,45575,6,0,P|128:256|80:248,1,76,0|8,1:2|0:2,0:0:0:0:
104,132,45901,2,0,P|148:128|196:136,1,76,0|0,1:2|0:2,0:0:0:0:
248,192,46227,1,8,0:2:0:0:
336,216,46390,1,8,0:2:0:0:
424,192,46553,1,8,0:2:0:0:
512,216,46716,1,8,0:2:0:0:
492,128,46879,6,0,L|448:284,1,152,4|0,1:2|1:2,0:0:0:0:
376,324,47368,1,0,0:2:0:0:
288,356,47531,2,0,P|244:364|200:352,1,76,0|0,1:2|0:2,0:0:0:0:
248,272,47857,2,0,P|205:256|173:224,1,76,0|0,1:0|0:2,0:0:0:0:
255,179,48183,6,0,P|226:144|232:32,1,152,0|0,1:0|1:2,0:0:0:0:
312,8,48673,1,0,0:2:0:0:
396,40,48836,2,0,L|476:36,1,76,0|0,1:2|0:2,0:0:0:0:
512,120,49162,2,0,L|432:116,1,76,0|0,1:2|0:2,0:0:0:0:
316,144,49488,6,0,B|300:184|316:220|316:220|332:256|316:296,1,152,4|0,1:2|1:2,0:0:0:0:
233,257,49977,1,0,0:2:0:0:
164,316,50140,2,0,P|124:320|76:312,1,76,0|0,1:2|0:2,0:0:0:0:
36,244,50466,2,0,B|40:204|40:204|36:160,1,76,0|0,1:2|0:2,0:0:0:0:
4,84,50792,6,0,B|44:80|44:80|120:88|120:88|156:84,1,152,0|0,1:0|1:2,0:0:0:0:
244,76,51281,1,0,0:2:0:0:
336,68,51444,2,0,P|360:120|344:212,1,152,0|0,1:2|1:2,0:0:0:0:
272,268,51933,1,0,0:2:0:0:
272,268,52096,6,0,B|232:264|232:264|156:272|156:272|120:268,1,152,4|0,1:2|1:2,0:0:0:0:
0,132,52749,2,0,B|40:128|40:128|116:136|116:136|152:132,1,152,0|0,1:2|1:2,0:0:0:0:
240,116,53238,1,0,0:2:0:0:
212,204,53401,6,0,L|220:284,1,76,4|0,1:2|0:2,0:0:0:0:
296,332,53727,2,0,L|304:252,1,76,0|0,1:2|0:2,0:0:0:0:
320,168,54053,2,0,P|356:172|400:168,1,76,0|0,1:2|0:2,0:0:0:0:
468,112,54379,2,0,B|460:72|460:72|464:32,1,76,0|0,1:2|0:2,0:0:0:0:
348,4,54705,6,0,B|356:44|356:44|352:84,1,76,8|0,1:2|1:2,0:0:0:0:
320,168,55031,1,0,1:2:0:0:
320,168,55113,1,0,1:2:0:0:
320,168,55194,1,8,0:2:0:0:
232,140,55357,2,0,L|156:144,1,76,0|0,0:2|1:2,0:0:0:0:
68,224,55683,2,0,L|144:228,1,76,8|0,0:2|0:2,0:0:0:0:
244,320,56009,6,0,L|320:316,1,76,8|0,0:2|1:2,0:0:0:0:
408,232,56336,2,0,L|332:228,1,76,8|0,0:2|1:2,0:0:0:0:
244,144,56662,2,0,L|320:140,1,76,8|8,0:2|0:0,0:0:0:0:
356,140,56906,1,8,0:0:0:0:
396,140,56988,2,0,L|472:144,1,76,8|8,0:2|0:3,0:0:0:0:
512,244,57314,6,0,B|496:360|496:360|468:320,1,152,2|0,0:0|0:2,0:0:0:0:
424,256,57803,1,0,0:2:0:0:
400,228,57966,2,0,B|364:216|328:228|328:228|292:240|248:228,1,152,2|0,0:0|0:2,0:0:0:0:
192,160,58455,1,0,0:2:0:0:
176,144,58618,2,0,P|140:208|156:288,1,152,2|0,0:0|0:2,0:0:0:0:
232,324,59107,1,0,0:2:0:0:
239,326,59270,2,0,B|279:334|279:334|351:322|351:322|391:330,1,152,2|0,0:0|0:2,0:0:0:0:
476,352,59759,1,0,0:2:0:0:
476,352,59923,5,8,1:2:0:0:
496,264,60086,1,8,1:2:0:0:
476,176,60249,1,8,1:2:0:0:
496,88,60412,1,8,1:2:0:0:
408,116,60901,5,8,1:2:0:0:
320,96,61064,1,8,1:2:0:0:
232,116,61227,1,8,1:2:0:0:
144,96,61390,1,8,1:2:0:0:
168,184,61879,5,8,1:2:0:0:
168,184,61961,1,0,1:2:0:0:
168,184,62042,1,0,0:2:0:0:
148,272,62205,2,0,B|156:364|156:364|120:344,1,114,8|0,1:2|0:2,0:0:0:0:
156,364,62531,6,0,L|248:356,1,76,12|0,1:2|0:2,0:0:0:0:
308,304,62857,2,0,L|400:312,1,76,8|0,0:2|0:0,0:0:0:0:
460,364,63183,2,0,P|476:288|432:228,1,152,0|8,1:2|0:2,0:0:0:0:
344,220,63673,1,0,0:2:0:0:
344,220,63836,6,0,L|252:228,1,76,0|0,1:2|1:2,0:0:0:0:
208,296,64162,1,8,0:2:0:0:
180,208,64325,2,0,B|168:172|180:140|180:140|196:104|180:60,1,152,0|0,1:2|1:2,0:0:0:0:
100,100,64814,1,8,0:2:0:0:
264,172,65140,6,0,L|348:164,1,76,4|0,1:2|0:2,0:0:0:0:
400,96,65466,2,0,P|372:160|388:240,1,152,8|0,0:2|1:2,0:0:0:0:
432,316,65955,1,0,1:2:0:0:
432,316,66118,2,0,L|356:323,1,76,8|0,1:2|0:2,0:0:0:0:
248,376,66444,6,0,L|96:361,1,152,0|8,1:2|0:2,0:0:0:0:
4,352,66933,2,0,B|12:312|12:312|4:240|4:240|12:200,1,152,0|0,1:2|1:2,0:0:0:0:
96,244,67423,1,8,0:2:0:0:
180,208,67586,1,8,0:2:0:0:
180,208,67667,1,8,0:2:0:0:
180,208,67749,6,0,B|292:216|292:216|260:172,1,152,4|8,1:2|0:2,0:0:0:0:
208,116,68238,1,0,0:2:0:0:
208,116,68401,2,0,P|200:72|208:36,1,76,0|0,1:2|1:2,0:0:0:0:
292,8,68727,2,0,B|332:16|332:16|384:12,1,76,8|0,0:2|0:2,0:0:0:0:
488,0,69053,6,0,P|440:36|444:124,1,152,0|8,1:2|0:2,0:0:0:0:
512,184,69542,2,0,B|500:224|500:224|504:264,1,76,0|0,1:2|0:2,0:0:0:0:
512,356,69868,1,0,1:2:0:0:
432,316,70031,2,0,L|352:320,1,76,8|0,0:2|0:2,0:0:0:0:
260,224,70357,6,0,L|340:228,1,76,14|0,0:2|1:2,0:0:0:0:
240,152,70683,2,0,L|160:156,1,76,8|0,0:2|1:2,0:0:0:0:
260,80,71009,2,0,L|340:84,1,76,8|0,0:2|1:2,0:0:0:0:
240,8,71336,2,0,L|160:12,1,76,8|0,0:2|1:2,0:0:0:0:
84,56,71662,6,0,B|72:92|84:132|84:132|96:172|84:208,1,152,4|8,1:2|0:2,0:0:0:0:
44,288,72151,2,8,L|0:284,2,38,8|8|8,0:2|0:2|0:2,0:0:0:0:
136,280,72477,1,8,0:0:0:0:
136,280,72558,1,8,0:0:0:0:
136,280,72640,1,8,1:0:0:0:
212,328,72803,1,0,1:0:0:0:
324,280,72966,6,0,P|332:240|324:192,1,76,4|0,1:2|0:2,0:0:0:0:
256,152,73292,2,0,P|248:112|256:64,1,76,8|0,0:2|0:0,0:0:0:0:
324,24,73618,2,0,B|440:32|440:32|408:60,1,152,0|8,1:2|0:2,0:0:0:0:
340,112,74107,1,0,0:2:0:0:
340,112,74270,6,0,P|332:152|344:196,1,76,0|0,1:2|1:2,0:0:0:0:
384,268,74596,1,8,0:2:0:0:
292,272,74759,2,0,B|176:276|176:276|200:248,1,152,0|0,1:2|1:2,0:0:0:0:
264,184,75249,1,8,0:2:0:0:
352,204,75412,1,0,0:2:0:0:
440,184,75575,6,0,B|452:144|440:108|440:108|428:68|440:32,1,152,2|8,1:2|0:2,0:0:0:0:
268,100,76227,1,0,1:2:0:0:
184,64,76390,1,0,1:2:0:0:
100,100,76553,2,0,L|24:96,1,76,8|0,0:2|0:2,0:0:0:0:
124,188,76879,6,0,L|276:179,1,152,0|8,1:2|0:2,0:0:0:0:
356,136,77368,2,0,B|364:176|364:176|360:252|360:252|368:288,1,152,0|0,1:2|1:2,0:0:0:0:
448,244,77857,1,8,1:2:0:0:
444,336,78020,1,8,0:2:0:0:
444,336,78102,1,8,0:2:0:0:
444,336,78183,6,0,P|396:372|300:348,1,152,0|10,1:2|0:2,0:0:0:0:
276,272,78673,1,0,0:2:0:0:
220,344,78836,1,0,1:2:0:0:
220,344,78999,1,2,1:2:0:0:
180,260,79162,2,0,L|104:264,1,76,8|2,0:2|0:2,0:0:0:0:
208,172,79488,6,0,L|284:176,1,76,2|0,1:2|1:2,0:0:0:0:
340,248,79814,1,10,0:2:0:0:
340,248,79977,2,0,P|368:212|332:100,1,152,2|0,1:2|1:2,0:0:0:0:
260,96,80466,1,8,0:2:0:0:
208,172,80629,1,0,0:2:0:0:
128,56,80792,6,0,B|140:80|140:108|128:132|128:132|116:156|116:184|128:208,1,152,14|0,1:2|1:2,0:0:0:0:
192,264,81281,2,0,B|232:260|232:260|308:268|308:268|344:264,1,152,10|0,0:2|1:2,0:0:0:0:
312,180,81770,1,10,0:2:0:0:
400,196,81933,6,0,P|432:264|396:336,1,152,4|0,1:2|1:2,0:0:0:0:
343,264,82423,1,8,0:2:0:0:
256,292,82586,2,0,L|264:368,2,76,0|8|0,1:2|0:2|1:2,0:0:0:0:
172,256,83075,2,0,L|180:180,1,76,8|0,0:2|0:2,0:0:0:0:
228,104,83401,5,14,0:2:0:0:
308,148,83564,2,0,B|364:156|364:132|428:144|428:144|400:168,1,152,2|2,1:2|1:2,0:0:0:0:
340,228,84053,1,8,0:2:0:0:
340,228,84216,2,0,P|332:272|340:308,1,76,2|8,1:2|0:2,0:0:0:0:
416,348,84542,1,0,1:2:0:0:
496,256,84705,5,10,0:2:0:0:
495,255,84868,2,0,P|483:181|491:105,1,152,2|2,1:2|1:2,0:0:0:0:
408,64,85357,1,8,0:2:0:0:
324,100,85520,1,2,1:2:0:0:
240,64,85683,2,0,P|232:116|248:152,1,76,8|0,0:2|1:2,0:0:0:0:
308,196,86009,5,14,0:2:0:0:
220,224,86173,2,0,B|140:208|148:248|60:224,2,152,2|12|2,1:2|0:2|1:2,0:0:0:0:
288,284,86988,1,8,0:2:0:0:
376,260,87151,1,0,1:2:0:0:
452,312,87314,5,14,0:2:0:0:
452,312,87477,2,0,B|472:272|468:240|456:216|456:216|472:192|472:152,2,152,2|12|8,1:2|1:2|1:2,0:0:0:0:
352,384,88292,1,8,1:2:0:0:
288,284,88455,1,14,1:2:0:0:
