osu file format v14

[General]
AudioFilename: audio.mp3
AudioLeadIn: 0
PreviewTime: 62450
Countdown: 0
SampleSet: Soft
StackLeniency: 0.2
Mode: 0
LetterboxInBreaks: 0
WidescreenStoryboard: 1

[Editor]
Bookmarks: 26010,26752,36444,46879,52096,57314,62531,72966
DistanceSpacing: 0.5
BeatDivisor: 4
GridSize: 8
TimelineZoom: 1

[Metadata]
Title:Zoetrope
TitleUnicode:Zoetrope
Artist:yanaginagi
ArtistUnicode:やなぎなぎ
Creator:Realazy
Version:bor's Insane
Source:AMNESIA
Tags:Akitoshi _83 pyroflayer borborygmos bor yaleufeu Kyuukai Linada Kin エウアル euaru アムネシア opening
BeatmapID:1266404
BeatmapSetID:599195

[Difficulty]
HPDrainRate:5
CircleSize:5
OverallDifficulty:8
ApproachRate:9
SliderMultiplier:1.4
SliderTickRate:1

[Events]
//Background and Video events
0,0,"Asphyxia's BG.jpg",0,0
//Break Periods
//Storyboard Layer 0 (Background)
//Storyboard Layer 1 (Fail)
//Storyboard Layer 2 (Pass)
//Storyboard Layer 3 (Foreground)
//Storyboard Sound Samples

[TimingPoints]
957,722.89156626506,4,2,0,45,1,0
6017,-200,4,2,2,35,0,0
8185,-200,4,2,0,35,0,0
12161,-200,4,2,2,35,0,0
12432,-200,4,2,2,5,0,0
12523,-100,4,2,2,35,0,0
13969,-200,4,2,0,35,0,0
17944,-200,4,2,2,35,0,0
18306,750,4,2,2,45,1,0
19806,800,4,2,2,45,1,0
21406,652.173913043478,4,2,2,45,1,0
22058,-100,4,2,2,20,0,0
22710,750,4,2,2,20,1,0
24210,800,4,2,2,20,1,0
25010,1000,4,2,2,20,1,0
25510,-100,4,2,2,5,0,0
26010,326.086956521739,4,2,2,60,1,0
46879,-133.333333333333,4,2,2,60,0,0
56009,-100,4,2,2,60,0,0
57314,-100,4,2,0,60,0,0
59923,-100,4,2,2,60,0,0
62531,-76.9230769230769,4,2,2,70,0,1
72884,-76.9230769230769,4,2,2,70,0,0
72966,-76.9230769230769,4,2,2,70,0,1
83401,-76.9230769230769,4,2,2,50,0,0

[Colours]
Combo1 : 98,81,255
Combo2 : 160,75,218
Combo3 : 232,51,55
Combo4 : 186,199,241

[HitObjects]
313,261,957,5,2,0:0:0:0:
374,228,1318,1,0,0:0:0:0:
388,160,1679,1,0,0:0:0:0:
326,247,2402,1,2,0:0:0:0:
378,202,2764,1,0,0:0:0:0:
378,133,3125,1,0,0:0:0:0:
336,231,3848,5,2,0:0:0:0:
378,176,4210,1,0,0:0:0:0:
363,109,4571,1,0,0:0:0:0:
342,214,5294,1,2,0:0:0:0:
372,151,5655,1,0,0:0:0:0:
343,88,6017,2,0,L|299:81,1,35
170,169,6740,5,2,0:0:0:0:
140,233,7101,1,0,0:0:0:0:
169,296,7463,2,0,P|188:304|207:312,1,35,0|0,0:0|0:0,0:0:0:0:
83,347,8185,2,0,P|66:358|50:371,1,35,2|0,0:0|0:0,0:0:0:0:
81,247,8908,2,0,P|77:227|75:206,1,35,2|0,0:0|0:0,0:0:0:0:
144,384,9631,5,2,0:0:0:0:
196,339,9993,1,0,0:0:0:0:
196,269,10354,1,0,0:0:0:0:
196,339,11077,1,0,0:0:0:0:
144,384,11800,2,0,L|97:377,1,35
257,320,12523,5,2,0:0:0:0:
309,275,12884,1,0,0:0:0:0:
309,205,13246,1,0,0:0:0:0:
283,316,13969,2,0,P|286:283|263:248,2,70,2|0|2,0:0|0:0|0:0,0:0:0:0:
210,354,15776,6,0,P|190:350|176:343,1,35,0|0,0:0|0:0,0:0:0:0:
89,378,16499,1,0,0:0:0:0:
85,384,16679,2,0,P|98:357|104:260,1,122.5,2|2,0:0|0:0,0:0:0:0:
64,201,18306,5,2,0:0:0:0:
256,192,18681,12,0,25510,0:0:0:0:
0,104,26010,6,0,L|149:94,1,140
206,56,26499,1,2,0:0:0:0:
83,7,26662,2,0,L|76:88,1,70,8|2,0:0|0:0,0:0:0:0:
293,79,27151,6,0,L|304:1,1,70,2|0,0:0|0:0,0:0:0:0:
357,147,27477,1,8,0:0:0:0:
439,113,27640,2,0,L|529:119,1,70,2|2,0:0|0:0,0:0:0:0:
357,147,27966,2,0,L|267:153,1,70,8|0,0:0|0:0,0:0:0:0:
318,358,28455,5,0,0:0:0:0:
352,297,28618,2,0,B|333:229|333:229|285:291,2,140,4|2|8,0:0|0:0|0:0,0:0:0:0:
318,358,29433,1,2,0:0:0:0:
154,288,29760,6,0,L|188:207,1,70,2|2,0:0|3:0,0:0:0:0:
215,384,30086,1,8,0:0:0:0:
148,360,30249,2,0,L|75:368,1,70,2|0,0:0|0:0,0:0:0:0:
19,254,30575,1,8,0:0:0:0:
0,321,30738,1,2,0:0:0:0:
19,254,30901,1,8,0:0:0:0:
19,254,31064,1,8,0:0:0:0:
21,134,31227,6,0,B|45:152|45:152|162:158,1,140,4|0,0:0|0:0,0:0:0:0:
223,138,31716,1,2,0:0:0:0:
119,68,31879,2,0,L|136:-8,1,70,8|2,0:0|0:0,0:0:0:0:
115,223,32368,6,0,L|39:240,1,70,0|2,0:0|0:0,0:0:0:0:
198,260,32694,1,8,0:0:0:0:
122,232,32857,2,0,L|46:249,1,70,2|2,0:0|0:0,0:0:0:0:
156,384,33183,2,0,L|139:308,1,70,8|0,0:0|0:0,0:0:0:0:
345,354,33673,5,8,0:0:0:0:
306,296,33836,2,0,B|336:230|336:230|381:292,2,140,4|2|8,0:0|0:0|0:0,0:0:0:0:
345,354,34651,1,2,0:0:0:0:
358,96,34977,6,0,L|324:177,1,70,0|2,0:0|0:0,0:0:0:0:
297,0,35303,1,8,0:0:0:0:
364,24,35466,2,0,L|437:16,1,70,2|2,0:0|0:0,0:0:0:0:
493,130,35792,1,8,0:0:0:0:
512,63,35955,1,2,0:0:0:0:
493,130,36118,1,8,0:0:0:0:
493,130,36281,1,8,0:0:0:0:
447,208,36444,6,0,B|407:200|407:200|297:217,1,140,4|0,0:0|0:0,0:0:0:0:
308,215,36933,1,2,0:0:0:0:
256,278,37096,2,0,P|269:322|285:346,2,70,8|0|0,0:0|3:0|3:0,0:0:0:0:
429,323,37586,6,0,P|347:327|292:354,1,140,8|2,0:0|0:0,0:0:0:0:
152,357,38075,2,0,P|199:365|231:362,1,70,2|2,3:0|0:0,0:0:0:0:
139,239,38401,2,0,P|166:277|191:298,1,70,8|2,0:0|0:0,0:0:0:0:
213,146,38727,2,0,P|205:193|208:225,1,70,8|0,0:0|0:0,0:0:0:0:
141,47,39053,6,0,B|162:75|162:75|175:180,1,140,4|2,0:0|0:0,0:0:0:0:
354,0,39705,2,0,P|354:34|361:69,2,70,8|0|0,0:0|3:0|0:0,0:0:0:0:
512,92,40194,6,0,P|444:84|364:92,1,140,2|8,0:0|0:0,0:0:0:0:
308,213,40683,2,0,P|361:170|371:151,1,70,2|2,0:0|0:0,0:0:0:0:
384,304,41009,2,0,P|391:236|384:215,1,70,8|2,0:0|0:0,0:0:0:0:
501,309,41336,2,0,P|458:256|439:246,1,70,8|0,0:0|3:0,0:0:0:0:
338,362,41662,6,0,L|184:373,1,140,4|2,0:0|0:0,0:0:0:0:
198,371,42151,1,2,0:0:0:0:
133,325,42314,2,0,P|99:329|52:344,2,70,8|0|2,0:0|0:0|3:0,0:0:0:0:
35,366,42803,6,0,P|19:298|68:234,1,140,2|8,0:0|0:0,0:0:0:0:
189,179,43292,2,0,P|158:199|111:209,1,70,2|0,0:0|3:0,0:0:0:0:
163,77,43537,1,0,3:0:0:0:
156,66,43618,2,0,P|148:102|122:142,1,70,8|2,0:0|0:0,0:0:0:0:
52,9,43944,2,0,P|71:40|81:86,1,70,8|0,0:0|0:0,0:0:0:0:
242,0,44270,6,0,P|248:70|249:163,1,140,4|0,0:0|0:0,0:0:0:0:
499,269,44923,2,0,P|493:199|492:106,1,140,8|2,0:0|3:0,0:0:0:0:
399,258,45412,1,8,0:0:0:0:
454,334,45575,6,0,P|387:324|287:322,1,140,2|2,0:0|0:0,0:0:0:0:
57,158,46227,2,0,P|94:163|149:164,3,70,8|8|8|8,0:0|0:0|0:0|0:0,0:0:0:0:
45,168,46879,5,4,0:0:0:0:
173,0,47205,1,2,0:0:0:0:
173,0,47368,1,0,0:0:0:0:
173,0,47531,2,0,P|174:27|178:53,2,52.5000020027161,2|0|2,0:0|0:0|0:0,0:0:0:0:
146,76,48020,6,0,P|203:88|249:127,1,105.000004005432,0|0,0:0|0:0,0:0:0:0:
300,232,48509,2,0,P|280:212|264:172,1,52.5000020027161,2|0,0:0|0:0,0:0:0:0:
187,258,48836,2,0,P|187:229|203:190,1,52.5000020027161,2|0,0:0|0:0,0:0:0:0:
88,196,49162,2,0,P|108:176|147:160,1,52.5000020027161,2|0,0:0|0:0,0:0:0:0:
213,125,49488,5,4,0:0:0:0:
308,373,49814,1,2,0:0:0:0:
308,373,49977,1,0,0:0:0:0:
308,373,50140,2,0,P|315:343|320:318,2,52.5000020027161,2|0|2,0:0|0:0|0:0,0:0:0:0:
292,313,50629,6,0,P|328:266|385:265,1,105.000004005432,0|0,0:0|0:0,0:0:0:0:
468,275,51037,1,0,0:0:0:0:
479,281,51118,2,0,P|453:297|427:306,1,52.5000020027161,2|0,0:0|0:0,0:0:0:0:
442,168,51444,2,0,P|435:197|423:222,1,52.5000020027161,2|0,0:0|0:0,0:0:0:0:
334,113,51770,2,0,P|349:135|358:160,1,52.5000020027161,2|2,0:0|3:0,0:0:0:0:
342,105,52015,1,2,3:0:0:0:
350,97,52096,6,0,P|356:62|366:32,1,52.5000020027161,2|0,3:0|0:0,0:0:0:0:
483,0,52423,2,0,P|477:27|467:65,1,52.5000020027161,2|0,0:0|0:0,0:0:0:0:
334,98,52749,2,0,P|337:68|350:33,1,52.5000020027161,2|0,0:0|0:0,0:0:0:0:
478,144,53075,1,2,0:0:0:0:
419,193,53238,6,0,P|395:198|359:204,1,52.5000020027161,0|2,0:0|0:0,0:0:0:0:
245,166,53564,2,0,P|216:159|185:155,1,52.5000020027161,0|2,0:0|0:0,0:0:0:0:
406,204,53890,2,0,P|378:211|346:215,1,52.5000020027161,0|2,0:0|0:0,0:0:0:0:
232,177,54216,2,0,P|205:171|172:166,1,52.5000020027161,0|8,0:0|0:0,0:0:0:0:
109,155,54542,1,2,0:0:0:0:
65,14,54705,5,8,0:0:0:0:
145,33,54868,1,0,0:0:0:0:
145,33,54950,1,0,0:0:0:0:
145,33,55031,1,2,0:0:0:0:
51,124,55194,2,0,L|83:130,1,26.2500010013581,8|0,3:0|0:0,0:0:0:0:
116,162,55357,1,0,0:0:0:0:
116,162,55439,1,0,0:0:0:0:
116,162,55520,1,2,0:0:0:0:
211,235,55683,2,0,P|183:238|138:248,1,52.5000020027161,8|0,3:0|0:0,0:0:0:0:
12,328,56009,6,0,P|17:289|34:240,1,70,8|0,3:0|0:0,0:0:0:0:
230,248,56336,2,0,P|222:282|208:336,1,70,8|0,3:0|0:0,0:0:0:0:
213,315,56662,1,8,3:0:0:0:
311,384,56825,1,2,3:0:0:0:
314,365,56906,1,2,3:0:0:0:
326,351,56988,1,2,3:0:0:0:
343,343,57069,1,0,0:0:0:0:
361,345,57151,1,0,0:0:0:0:
348,384,57314,5,2,0:0:0:0:
439,102,59923,5,8,3:0:0:0:
439,102,60086,1,8,3:0:0:0:
352,8,60249,1,8,3:0:0:0:
352,8,60412,1,8,3:0:0:0:
370,254,60901,1,8,3:0:0:0:
414,302,61064,1,8,3:0:0:0:
485,183,61227,1,8,3:0:0:0:
474,244,61390,1,8,3:0:0:0:
215,70,61879,5,8,0:0:0:0:
215,70,61961,1,8,3:0:0:0:
215,70,62042,1,8,3:0:0:0:
133,11,62205,2,0,P|83:23|75:77,1,105,4|0,0:0|0:0,0:0:0:0:
93,84,62531,5,4,0:0:0:0:
72,169,62694,1,2,0:0:0:0:
200,143,62857,1,8,0:0:0:0:
139,206,63020,1,0,0:0:0:0:
263,247,63183,2,0,P|212:252|177:272,1,90.9999958343508,2|2,0:0|0:0,0:0:0:0:
177,271,63509,1,8,0:0:0:0:
276,359,63673,6,0,P|274:307|256:269,1,90.9999958343508,2|0,0:0|0:0,0:0:0:0:
384,287,63999,2,0,P|356:242|321:219,1,90.9999958343508,2|8,0:0|0:0,0:0:0:0:
441,170,64325,2,0,P|394:145|353:142,1,90.9999958343508,0|2,0:0|0:0,0:0:0:0:
432,40,64651,2,0,P|380:42|342:60,1,90.9999958343508,0|8,0:0|0:0,0:0:0:0:
186,115,64977,6,0,P|258:144|300:-4,2,272.999987503052,2|8|2,3:0|0:0|0:0,0:0:0:0:
148,18,66118,1,8,0:0:0:0:
43,19,66281,1,0,0:0:0:0:
21,112,66444,6,0,P|78:122|136:166,1,90.9999958343508,2|2,0:0|0:0,0:0:0:0:
168,203,66770,1,8,0:0:0:0:
9,249,66933,2,0,P|63:229|135:238,1,90.9999958343508,4|0,0:0|0:0,0:0:0:0:
67,373,67259,2,0,P|104:328|171:300,1,90.9999958343508,2|8,0:0|0:0,0:0:0:0:
307,307,67586,1,8,3:0:0:0:
324,321,67667,1,8,3:0:0:0:
331,341,67749,6,0,P|299:285|399:272,2,181.999991668702,8|8|2,0:0|0:0|0:0,0:0:0:0:
331,341,68564,1,2,0:0:0:0:
446,297,68727,1,8,0:0:0:0:
488,374,68890,1,0,0:0:0:0:
512,283,69053,6,0,P|454:314|407:311,1,90.9999958343508,2|0,0:0|0:0,0:0:0:0:
337,279,69379,1,8,0:0:0:0:
476,165,69542,2,0,P|441:220|399:241,1,90.9999958343508,4|0,0:0|0:0,0:0:0:0:
385,80,69868,2,0,P|382:145|356:184,1,90.9999958343508,2|8,0:0|0:0,0:0:0:0:
370,166,70194,1,2,0:0:0:0:
293,133,70357,5,8,0:0:0:0:
263,51,70520,1,2,0:0:0:0:
159,15,70683,1,8,0:0:0:0:
164,102,70846,1,2,0:0:0:0:
55,130,71009,1,8,0:0:0:0:
60,43,71173,1,2,0:0:0:0:
152,122,71336,1,2,3:0:0:0:
152,122,71499,1,2,3:0:0:0:
258,115,71662,6,0,P|272:59|259:15,1,90.9999958343508,4|0,0:0|0:0,0:0:0:0:
193,0,71988,1,8,0:0:0:0:
275,40,72151,2,0,P|306:25|328:4,1,45.4999979171754,2|2,3:0|3:0,0:0:0:0:
295,48,72314,2,0,P|322:26|339:1,1,45.4999979171754,2|2,3:0|3:0,0:0:0:0:
434,8,72477,2,0,P|417:38|411:67,1,45.4999979171754,8|8,3:0|3:0,0:0:0:0:
412,12,72640,2,0,P|402:45|402:75,1,45.4999979171754,4|0,0:0|0:0,0:0:0:0:
446,138,72803,1,4,3:0:0:0:
461,154,72884,1,4,3:0:0:0:
472,177,72966,5,4,0:1:0:0:
474,264,73129,1,2,0:0:0:0:
355,212,73292,1,8,0:0:0:0:
401,286,73455,1,0,0:0:0:0:
271,301,73618,2,0,P|319:316|349:343,1,90.9999958343508,2|2,0:0|0:0,0:0:0:0:
348,342,73944,1,8,0:0:0:0:
228,379,74107,6,0,P|230:327|248:289,1,90.9999958343508
120,307,74433,2,0,P|148:262|183:239,1,90.9999958343508,2|8,0:0|0:0,0:0:0:0:
63,190,74759,2,0,P|110:165|151:162,1,90.9999958343508,4|0,0:0|0:0,0:0:0:0:
72,60,75086,2,0,P|124:62|162:80,1,90.9999958343508,2|8,0:0|0:0,0:0:0:0:
325,115,75412,6,0,P|204:120|208:0,2,272.999987503052,2|8|2,3:0|0:0|0:0,0:0:0:0:
378,23,76553,1,8,0:0:0:0:
483,13,76716,1,0,0:0:0:0:
493,99,76879,6,0,P|445:109|393:143,1,90.9999958343508,2|2,0:0|0:0,0:0:0:0:
325,210,77205,1,8,0:0:0:0:
492,221,77368,2,0,P|445:205|383:209,1,90.9999958343508,4|0,0:0|0:0,0:0:0:0:
430,326,77694,2,0,P|397:289|341:261,1,90.9999958343508,2|8,0:0|0:0,0:0:0:0:
323,384,78020,1,2,3:0:0:0:
312,363,78102,1,2,3:0:0:0:
294,348,78183,6,0,P|239:349|185:366,1,90.9999958343508,8|2,3:0|0:0,0:0:0:0:
100,250,78509,2,0,P|153:263|209:260,1,90.9999958343508,8|0,0:0|0:0,0:0:0:0:
242,157,78836,1,2,0:0:0:0:
242,157,78999,2,0,P|195:157|143:163,2,90.9999958343508,2|8|0,0:0|0:0|0:0,0:0:0:0:
318,191,79488,5,2,0:0:0:0:
318,191,79651,2,0,P|366:178|424:171,1,90.9999958343508,2|8,0:0|0:0,0:0:0:0:
304,205,79977,2,0,P|351:196|410:185,1,90.9999958343508,2|0,0:0|0:0,0:0:0:0:
501,207,80303,1,2,0:0:0:0:
486,77,80466,1,8,0:0:0:0:
430,142,80629,1,0,0:0:0:0:
363,0,80792,6,0,P|373:45|378:95,1,90.9999958343508,12|2,0:0|0:0,0:0:0:0:
338,162,81118,1,2,0:0:0:0:
371,0,81281,2,0,P|381:45|386:95,1,90.9999958343508,4|0,0:0|0:0,0:0:0:0:
370,173,81607,2,0,P|356:216|335:262,1,90.9999958343508,2|12,0:0|0:0,0:0:0:0:
282,322,81933,6,0,P|248:352|207:381,2,90.9999958343508,0|12|0,0:0|0:0|0:0,0:0:0:0:
337,257,82423,1,2,0:0:0:0:
273,213,82586,2,0,P|195:227|169:239,1,90.9999958343508,2|12,0:0|0:0,0:0:0:0:
58,109,82912,2,0,P|136:95|162:83,1,90.9999958343508,0|12,0:0|0:0,0:0:0:0:
214,22,83238,1,8,0:0:0:0:
94,4,83401,5,6,1:0:0:0:
94,4,83564,1,0,0:0:0:0:
214,22,83727,1,8,0:0:0:0:
94,4,83890,1,2,0:0:0:0:
214,22,84053,1,4,3:0:0:0:
94,4,84216,1,2,0:0:0:0:
94,4,84379,1,8,0:0:0:0:
94,4,84542,1,2,0:0:0:0:
273,97,84705,5,12,0:0:0:0:
273,97,84868,1,0,0:0:0:0:
153,115,85031,1,8,0:0:0:0:
273,97,85194,1,2,0:0:0:0:
153,115,85357,1,4,3:0:0:0:
273,97,85520,1,2,0:0:0:0:
273,97,85683,1,8,0:0:0:0:
273,97,85846,1,2,0:0:0:0:
94,190,86009,5,4,0:0:0:0:
94,190,86173,1,4,3:0:0:0:
214,208,86336,1,2,0:0:0:0:
94,190,86499,1,12,0:0:0:0:
214,208,86662,1,2,0:0:0:0:
94,190,86825,1,2,0:0:0:0:
94,190,86988,1,12,0:0:0:0:
94,190,87151,1,0,0:0:0:0:
273,283,87314,5,12,0:0:0:0:
273,283,87477,1,4,3:0:0:0:
153,301,87640,1,0,0:0:0:0:
273,283,87803,1,12,0:0:0:0:
153,301,87966,1,2,0:0:0:0:
273,283,88129,1,8,0:0:0:0:
273,283,88292,1,12,0:0:0:0:
273,283,88455,1,4,0:0:0:0:
