osu file format v14

[General]
AudioFilename: audio.mp3
AudioLeadIn: 0
PreviewTime: 62450
Countdown: 0
SampleSet: Soft
StackLeniency: 0.7
Mode: 0
LetterboxInBreaks: 0
WidescreenStoryboard: 1

[Editor]
Bookmarks: 957,26010,36444,46879,56009,59923,62531,72966,80792,88455
DistanceSpacing: 1
BeatDivisor: 4
GridSize: 8
TimelineZoom: 1.7

[Metadata]
Title:Zoetrope
TitleUnicode:Zoetrope
Artist:yanaginagi
ArtistUnicode:やなぎなぎ
Creator:Realazy
Version:Normal
Source:AMNESIA
Tags:Akitoshi _83 pyroflayer borborygmos bor yaleufeu Kyuukai Linada Kin エウアル euaru アムネシア opening
BeatmapID:1266407
BeatmapSetID:599195

[Difficulty]
HPDrainRate:3
CircleSize:3
OverallDifficulty:3
ApproachRate:4
SliderMultiplier:1.06
SliderTickRate:1

[Events]
//Background and Video events
0,0,"Asphyxia's BG.jpg",0,0
//Break Periods
//Storyboard Layer 0 (Background)
//Storyboard Layer 1 (Fail)
//Storyboard Layer 2 (Pass)
//Storyboard Layer 3 (Foreground)
//Storyboard Sound Samples

[TimingPoints]
957,722.89156626506,4,2,1,45,1,0
6378,-100,4,2,1,35,0,0
6740,-100,4,2,1,45,0,0
12161,-100,4,2,1,35,0,0
12523,-100,4,2,1,45,0,0
17944,-100,4,2,1,35,0,0
18306,750,4,2,1,45,1,0
19806,800,4,2,1,45,1,0
21406,652.173913043478,4,2,1,45,1,0
22710,750,4,2,1,45,1,0
24210,800,4,2,1,45,1,0
25010,1000,4,2,1,45,1,0
26010,326.086956521739,4,2,1,60,1,0
54705,-100,4,2,1,55,0,0
57314,-100,4,2,1,45,0,0
59923,-100,4,2,1,65,0,0
62531,-100,4,2,1,70,0,1
72395,-100,4,2,1,40,0,1
72477,-100,4,2,1,70,0,1
72558,-100,4,2,1,40,0,1
72803,-100,4,2,1,70,0,0
72966,-100,4,2,1,70,0,1
80629,-100,4,2,1,70,0,0
83401,-100,4,2,1,70,0,1
88129,-100,4,2,1,70,0,1
88455,-100,4,2,1,70,0,0

[Colours]
Combo1 : 98,81,255
Combo2 : 160,75,218
Combo3 : 232,51,55
Combo4 : 186,199,241

[HitObjects]
100,82,957,6,0,P|85:132|104:183,1,106,2|0,3:2|0:0,0:0:0:0:
170,248,2402,2,0,L|276:247,1,106,2|2,0:2|0:2,0:0:0:0:
370,258,3848,6,0,P|356:207|370:156,1,106,2|0,0:2|0:2,0:0:0:0:
315,78,5294,2,0,P|265:91|214:77,1,106,2|0,0:2|0:2,0:0:0:0:
166,74,6378,1,2,3:2:0:0:
121,94,6740,6,0,P|111:145|120:197,1,106,2|0,3:2|0:0,0:0:0:0:
197,256,8185,2,0,P|207:204|198:152,1,106,2|2,0:2|0:2,0:0:0:0:
246,78,9631,6,0,P|297:64|348:79,1,106,2|0,0:2|0:2,0:0:0:0:
398,158,11077,2,0,P|347:172|296:157,1,106,0|0,0:0|0:2,0:0:0:0:
264,122,12161,1,2,3:2:0:0:
246,78,12523,6,0,P|195:63|145:77,1,106,2|0,3:2|0:0,0:0:0:0:
83,150,13969,2,0,P|77:202|99:249,1,106,2|2,0:2|0:2,0:0:0:0:
194,284,15414,6,0,L|299:286,1,106,2|2,0:2|0:2,0:0:0:0:
349,204,16860,2,0,L|244:202,1,106,0|0,0:0|0:2,0:0:0:0:
205,172,17944,1,2,3:2:0:0:
178,134,18306,6,0,P|179:81|211:40,1,106,2|0,3:2|0:0,0:0:0:0:
298,23,19806,2,0,L|403:23,2,106,2|2|2,0:2|0:2|0:2,0:0:0:0:
256,192,22058,12,0,25010,0:0:0:0:
227,59,26010,6,0,P|277:72|328:59,1,106,4|0,1:2|0:2,0:0:0:0:
422,43,26662,2,0,P|403:119|435:190,1,159,8|0,0:2|1:0,0:0:0:0:
486,270,27477,2,0,L|327:269,1,159,8|8,0:2|0:2,0:0:0:0:
240,231,28292,1,0,0:2:0:0:
167,292,28618,6,0,P|146:245|153:193,1,106,4|0,1:2|1:2,0:0:0:0:
186,103,29270,2,0,P|264:120|342:105,1,159,8|0,0:2|1:2,0:0:0:0:
391,23,30086,2,0,P|432:89|415:165,1,159,8|12,0:2|0:2,0:0:0:0:
356,240,30901,1,8,0:2:0:0:
261,249,31227,6,0,P|267:196|251:146,1,106,4|0,1:2|1:2,0:0:0:0:
178,84,31879,2,0,B|109:108|109:108|70:184,1,159,8|0,0:2|1:2,0:0:0:0:
66,280,32694,2,0,P|129:325|207:320,1,159,8|8,0:2|0:2,0:0:0:0:
302,323,33510,1,0,0:0:0:0:
380,376,33836,6,0,P|393:326|381:275,1,106,4|0,1:2|1:2,0:0:0:0:
331,189,34488,2,0,P|317:112|364:51,1,159,8|0,0:2|1:2,0:0:0:0:
413,137,35303,2,0,P|427:214|380:275,1,159,8|12,0:2|0:2,0:0:0:0:
293,323,36118,1,8,0:2:0:0:
198,331,36444,6,0,L|92:328,1,106,4|0,1:2|1:2,0:0:0:0:
32,253,37096,2,0,P|59:179|50:101,1,159,8|8,0:2|0:2,0:0:0:0:
110,26,37912,1,8,0:0:0:0:
253,27,38401,2,0,P|305:35|358:27,1,106,8|8,0:2|0:2,0:0:0:0:
406,109,39053,6,0,P|302:127|198:107,1,212,4|8,1:2|0:2,0:0:0:0:
73,36,40194,2,0,L|82:194,1,159,0|0,1:2|0:2,0:0:0:0:
126,279,41009,1,8,0:2:0:0:
219,301,41336,1,8,0:2:0:0:
307,336,41662,6,0,P|311:284|288:237,1,106,4|0,1:2|1:2,0:0:0:0:
222,167,42314,2,0,B|120:198|120:198|69:184,1,159,8|0,0:2|1:2,0:0:0:0:
120,103,43129,1,8,0:2:0:0:
246,41,43618,2,0,P|292:66|344:59,1,106,8|8,0:2|0:2,0:0:0:0:
438,61,44270,6,0,P|398:157|418:260,1,212,4|8,1:2|0:2,0:0:0:0:
459,346,45249,1,0,0:2:0:0:
366,323,45575,2,0,P|317:306|265:313,1,106,0|0,1:2|1:2,0:0:0:0:
176,351,46227,1,8,0:2:0:0:
124,270,46553,1,8,0:2:0:0:
129,175,46879,6,0,P|179:187|230:174,1,106,4|0,1:2|1:2,0:0:0:0:
298,106,47531,1,0,1:2:0:0:
390,130,47857,1,0,1:0:0:0:
454,59,48183,2,0,P|481:103|482:155,1,106,0|0,0:0|1:2,0:0:0:0:
452,246,48836,2,0,P|399:246|353:271,1,106,0|0,1:2|1:2,0:0:0:0:
275,326,49488,5,4,1:2:0:0:
179,320,49814,1,0,1:2:0:0:
92,361,50140,2,0,P|84:310|103:261,1,106,0|0,1:2|1:2,0:0:0:0:
151,178,50792,2,0,L|256:178,1,106,0|0,0:0|1:2,0:0:0:0:
298,264,51444,2,0,L|403:264,1,106,0|0,1:2|1:2,0:0:0:0:
480,206,52096,6,0,P|497:256|489:308,2,106,4|0|0,1:2|1:2|1:2,0:0:0:0:
439,119,53075,1,0,1:2:0:0:
348,151,53401,2,0,P|298:165|249:148,2,106,4|0|0,1:2|1:2|1:2,0:0:0:0:
302,67,54379,1,0,1:2:0:0:
206,61,54705,6,0,P|134:33|67:71,2,159,8|8|8,1:2|1:2|0:2,0:0:0:0:
248,147,56009,2,0,L|249:263,1,106,8|8,0:2|0:2,0:0:0:0:
342,271,56662,2,0,L|341:155,1,106,8|8,1:2|0:2,0:0:0:0:
398,87,57314,6,0,P|305:41|205:70,3,212,2|2|2|2,0:0|0:0|0:0|0:0,0:0:0:0:
125,244,59923,5,8,1:2:0:0:
125,244,60249,1,8,1:2:0:0:
315,237,60901,1,8,1:2:0:0:
315,237,61227,1,8,1:2:0:0:
370,55,61879,2,0,P|317:50|269:70,1,106,8|8,0:2|0:2,0:0:0:0:
172,115,62531,6,0,P|163:64|179:14,2,106,12|8|0,1:2|0:2|1:2,0:0:0:0:
226,205,63509,1,8,0:2:0:0:
318,258,63836,2,0,L|424:254,1,106,0|8,1:2|0:2,0:0:0:0:
465,155,64488,2,0,P|431:116|417:65,1,106,0|8,0:2|0:2,0:0:0:0:
318,32,65140,6,0,P|269:50|216:52,1,106,4|8,1:2|0:2,0:0:0:0:
111,36,65792,1,0,1:2:0:0:
24,96,66118,1,8,0:2:0:0:
34,201,66444,2,0,P|32:253|54:301,1,106,0|8,1:2|0:2,0:0:0:0:
156,333,67096,2,0,P|158:281|136:233,1,106,0|8,0:2|1:2,0:0:0:0:
134,127,67749,6,0,L|239:127,1,106,4|8,1:2|0:2,0:0:0:0:
346,135,68401,1,0,1:2:0:0:
439,84,68727,2,0,P|452:134|440:185,1,106,8|0,0:2|1:2,0:0:0:0:
366,261,69379,2,0,B|263:240|263:240|168:289,1,212,8|8,0:2|0:2,0:0:0:0:
64,313,70357,6,0,P|75:262|71:209,1,106,12|8,1:2|0:2,0:0:0:0:
28,112,71009,2,0,L|134:112,1,106,8|8,0:2|0:2,0:0:0:0:
230,67,71662,1,4,1:2:0:0:
321,13,71988,2,0,B|345:69|321:117|321:117|297:165|321:221,1,212,8|0,0:2|1:0,0:0:0:0:
410,271,72966,6,0,P|424:220|413:169,2,106,4|8|0,1:2|0:2|1:2,0:0:0:0:
328,337,73944,2,0,L|222:336,1,106,8|0,0:2|1:2,0:0:0:0:
119,360,74596,2,0,P|133:310|126:258,1,106,8|0,0:2|0:2,0:0:0:0:
100,155,75249,1,8,0:2:0:0:
158,66,75575,6,0,B|222:58|254:98|254:98|286:58|350:66,1,212,0|0,1:2|1:2,0:0:0:0:
447,107,76553,2,0,P|458:159|491:198,1,106,8|0,0:2|1:2,0:0:0:0:
445,293,77205,2,0,P|394:277|343:286,1,106,8|0,0:2|0:2,0:0:0:0:
247,330,77857,1,8,0:2:0:0:
151,377,78183,6,0,P|140:326|155:276,1,106,0|10,1:2|0:2,0:0:0:0:
192,176,78836,1,0,1:2:0:0:
247,85,79162,2,0,P|198:70|147:81,1,106,8|2,0:2|1:2,0:0:0:0:
90,172,79814,2,0,P|139:187|190:176,1,106,10|0,0:2|0:2,0:0:0:0:
296,157,80466,1,8,0:2:0:0:
383,96,80792,6,0,P|401:172|362:239,2,159,14|14|10,1:2|0:2|0:2,0:0:0:0:
303,27,82096,2,0,L|197:27,1,106,10|10,0:0|0:2,0:0:0:0:
93,51,82749,2,0,P|76:100|85:152,1,106,8|8,0:2|0:0,0:0:0:0:
124,251,83401,5,14,1:2:0:0:
219,296,83727,1,8,0:2:0:0:
321,317,84053,2,0,P|373:314|412:279,1,106,8|8,0:2|0:2,0:0:0:0:
445,178,84705,1,10,1:2:0:0:
447,74,85031,1,8,0:2:0:0:
358,132,85357,2,0,B|301:143|301:143|255:130,1,106,8|8,1:2|0:2,0:0:0:0:
174,61,86009,6,0,P|100:35|26:58,2,159,14|14|8,1:2|1:2|0:2,0:0:0:0:
254,129,87314,2,0,P|280:202|256:276,1,159,14|14,0:2|1:2,0:0:0:0:
170,339,88129,2,0,L|117:338,2,53,8|8|12,1:2|1:2|1:2,0:0:0:0:
