osu file format v14

[General]
AudioFilename: audio.mp3
AudioLeadIn: 0
PreviewTime: 62450
Countdown: 0
SampleSet: Soft
StackLeniency: 0.7
Mode: 0
LetterboxInBreaks: 0
WidescreenStoryboard: 1

[Editor]
Bookmarks: 957,26010,36444,46879,56009,59923,62531,72966,80792,88455
DistanceSpacing: 1
BeatDivisor: 4
GridSize: 32
TimelineZoom: 2.699999

[Metadata]
Title:Zoetrope
TitleUnicode:Zoetrope
Artist:yanaginagi
ArtistUnicode:やなぎなぎ
Creator:Realazy
Version:Linada's Expert
Source:AMNESIA
Tags:Akitoshi _83 pyroflayer borborygmos bor yaleufeu Kyuukai Linada Kin エウアル euaru アムネシア opening
BeatmapID:1266406
BeatmapSetID:599195

[Difficulty]
HPDrainRate:6.4
CircleSize:3.6
OverallDifficulty:8.7
ApproachRate:9.3
SliderMultiplier:1.92
SliderTickRate:1

[Events]
//Background and Video events
0,0,"Asphyxia's BG.jpg",0,0
//Break Periods
//Storyboard Layer 0 (Background)
//Storyboard Layer 1 (Fail)
//Storyboard Layer 2 (Pass)
//Storyboard Layer 3 (Foreground)
//Storyboard Sound Samples

[TimingPoints]
957,722.89156626506,4,2,1,45,1,0
957,-117.647058823529,4,2,1,45,0,0
17357,-117.647058823529,4,2,1,5,0,0
17447,-117.647058823529,4,2,1,45,0,0
18306,750,4,2,1,45,1,0
18306,-117.647058823529,4,2,1,45,0,0
19806,800,4,2,1,45,1,0
21406,652.173913043478,4,2,1,45,1,0
21406,-133.333333333333,4,2,1,45,0,0
22710,750,4,2,1,45,1,0
24210,800,4,2,1,45,1,0
25010,1000,4,2,1,45,1,0
26010,326.086956521739,4,2,1,50,1,0
46879,-90.9090909090909,4,2,1,50,0,0
47531,-111.111111111111,4,2,1,50,0,0
49488,-90.9090909090909,4,2,1,50,0,0
50140,-111.111111111111,4,2,1,50,0,0
54705,-100,4,2,1,45,0,0
56009,-100,4,2,1,70,0,0
56662,-100,4,2,1,45,0,0
57314,-153.846153846153,4,2,1,35,0,0
59923,-100,4,2,1,65,0,0
62205,-133.333333333333,4,2,1,65,0,0
62531,-100,4,2,1,65,0,1
69542,-133.333333333333,4,2,1,65,0,1
70031,-83.3333333333333,4,2,1,65,0,1
70357,-100,4,2,1,65,0,1
72803,-100,4,2,1,65,0,0
72966,-100,4,2,1,65,0,1
80466,-133.333333333333,4,2,1,65,0,1
80792,-100,4,2,1,65,0,0
83401,-83.3333333333333,4,2,1,70,0,1
88129,-100,4,2,1,75,0,1
88455,-100,4,2,1,75,0,0

[Colours]
Combo1 : 98,81,255
Combo2 : 160,75,218
Combo3 : 232,51,55
Combo4 : 186,199,241

[HitObjects]
118,117,957,6,0,P|126:156|122:197,1,81.6000015563965,2|0,0:0|0:0,0:0:0:0:
99,275,1679,1,2,0:0:0:0:
42,215,2041,1,2,0:0:0:0:
179,257,2402,2,0,L|260:247,1,81.6000015563965,2|0,0:0|0:0,0:0:0:0:
328,171,3125,2,0,L|246:161,1,81.6000015563965,2|0,0:0|0:0,0:0:0:0:
144,140,3848,6,0,P|224:132|275:71,1,163.200003112793,2|0,0:0|0:0,0:0:0:0:
400,75,4932,1,0,0:0:0:0:
400,75,5294,2,0,L|405:238,1,163.200003112793,2|0,0:0|0:0,0:0:0:0:
331,302,6378,1,2,0:0:0:0:
236,270,6740,6,0,P|180:250|122:267,2,122.400002334595,2|2|2,0:0|0:0|0:0,0:0:0:0:
297,216,8185,2,0,P|285:177|289:136,1,81.6000015563965,0|2,0:0|0:0,0:0:0:0:
315,59,8908,2,0,L|233:59,1,81.6000015563965,0|2,0:0|0:0,0:0:0:0:
153,75,9631,6,0,P|177:129|162:187,1,122.400002334595,2|2,0:0|0:0,0:0:0:0:
133,216,10354,2,0,B|198:175|251:223|251:223|289:258|348:232|348:232|322:279|336:322,1,326.400006225586,2|0,0:0|0:0,0:0:0:0:
336,322,12161,1,2,0:0:0:0:
453,193,12523,6,0,P|462:154|455:114,1,81.6000015563965,2|0,0:0|0:0,0:0:0:0:
433,70,13065,2,0,P|375:89|316:77,1,122.400002334595,2|2,0:0|0:0,0:0:0:0:
231,27,13969,2,0,L|149:28,1,81.6000015563965,0|2,0:0|0:0,0:0:0:0:
97,111,14691,2,0,L|178:109,1,81.6000015563965,0|2,0:0|0:0,0:0:0:0:
275,92,15414,5,0,0:0:0:0:
335,169,15776,1,2,0:0:0:0:
374,258,16137,2,0,P|335:265|295:257,1,81.6000015563965,0|2,0:0|0:0,0:0:0:0:
253,226,16679,2,0,P|198:203|139:215,1,122.400002334595,2|0,0:0|0:0,0:0:0:0:
139,215,17583,1,0,0:0:0:0:
271,312,17944,1,2,0:0:0:0:
271,312,18125,1,2,0:0:0:0:
271,312,18306,6,0,L|363:307,1,81.6000015563965,2|0,0:0|0:0,0:0:0:0:
390,324,18868,2,0,P|373:267|395:211,1,122.400002334595,2|0,0:0|0:0,0:0:0:0:
442,140,19618,1,2,0:0:0:0:
442,140,19806,2,0,L|346:133,1,96,0|2,0:0|0:0,0:0:0:0:
277,42,20606,2,0,L|181:48,1,96,0|2,0:0|0:0,0:0:0:0:
39,35,21406,6,0,P|86:61|111:108,1,108.000004119873,0|2,0:0|0:0,0:0:0:0:
256,192,22058,12,0,25760,0:0:0:0:
90,50,26010,6,0,P|179:36|227:112,1,192,6|0,0:0|0:0,0:0:0:0:
207,228,26499,1,2,0:0:0:0:
145,109,26662,1,8,0:3:0:0:
120,307,26825,1,2,0:0:0:0:
130,323,27151,6,0,B|216:278|237:356|314:317,1,192,2|8,0:0|0:3,0:0:0:0:
428,299,27640,1,0,0:0:0:0:
271,245,27803,1,2,0:0:0:0:
457,202,27966,1,8,0:3:0:0:
314,317,28129,1,2,0:0:0:0:
325,332,28455,1,2,0:0:0:0:
220,189,28618,6,0,B|178:165|134:183|134:183|109:166|109:166|74:177|23:167,1,192,6|2,0:0|0:0,0:0:0:0:
171,261,29107,1,2,0:0:0:0:
70,85,29270,1,8,0:3:0:0:
232,174,29433,1,2,0:0:0:0:
246,160,29760,6,0,P|334:179|350:268,1,192,2|8,0:0|0:3,0:0:0:0:
296,380,30249,1,0,0:0:0:0:
418,358,30412,1,0,0:0:0:0:
274,237,30575,5,12,0:3:0:0:
448,216,30738,1,2,0:0:0:0:
274,75,30901,5,8,0:3:0:0:
461,223,31064,1,8,0:3:0:0:
259,251,31227,6,0,P|212:255|167:241,1,96,6|0,0:0|0:0,0:0:0:0:
61,85,31553,2,0,L|72:180,1,96,0|2,0:0|0:0,0:0:0:0:
150,344,31879,1,8,0:3:0:0:
221,174,32042,1,2,0:0:0:0:
233,158,32368,6,0,B|272:161|306:147|306:147|348:162|348:162|375:148|418:148,1,192,2|8,0:0|0:3,0:0:0:0:
512,209,32857,1,2,0:0:0:0:
403,239,33020,1,0,0:0:0:0:
505,107,33183,1,8,0:3:0:0:
451,315,33346,1,2,0:0:0:0:
460,332,33673,1,8,0:3:0:0:
382,152,33836,6,0,B|278:113|289:195|192:143,1,192,6|0,0:0|0:0,0:0:0:0:
85,173,34325,1,2,0:0:0:0:
231,303,34488,1,8,0:3:0:0:
253,83,34651,1,2,0:0:0:0:
242,67,34977,6,0,P|150:63|104:142,1,192,2|8,0:0|0:3,0:0:0:0:
231,303,35466,1,2,0:0:0:0:
197,145,35629,1,0,0:0:0:0:
137,335,35792,5,8,0:3:0:0:
293,350,35955,1,0,0:0:0:0:
100,251,36118,5,8,0:3:0:0:
311,358,36281,1,8,0:3:0:0:
354,177,36444,6,0,P|264:190|246:278,1,192,6|0,0:0|0:0,0:0:0:0:
332,368,36933,1,2,0:0:0:0:
414,263,37096,2,0,L|320:248,1,96,8|2,0:3|0:0,0:0:0:0:
421,354,37423,1,2,0:0:0:0:
501,156,37586,6,0,L|309:169,1,192,10|8,0:3|0:3,0:0:0:0:
151,270,38075,2,0,L|246:278,1,96,2|0,0:0|0:0,0:0:0:0:
79,152,38401,5,10,0:3:0:0:
276,86,38564,1,0,0:0:0:0:
52,62,38727,5,10,0:3:0:0:
244,241,38890,1,0,0:0:0:0:
59,245,39053,6,0,B|65:205|55:175|55:175|73:138|73:138|49:102|53:61,1,192,2|2,0:0|0:0,0:0:0:0:
193,353,39705,1,8,0:3:0:0:
288,183,39868,1,0,0:0:0:0:
151,270,40031,1,2,0:0:0:0:
316,108,40194,6,0,L|411:112,1,96,2|0,0:0|0:0,0:0:0:0:
179,183,40520,1,10,0:3:0:0:
418,32,40683,2,0,L|510:53,1,96,2|0,0:0|0:0,0:0:0:0:
396,303,41009,5,10,0:3:0:0:
316,108,41173,1,0,0:0:0:0:
313,364,41336,5,10,0:3:0:0:
412,192,41499,1,0,0:0:0:0:
211,347,41662,6,0,B|117:371|118:308|23:346,1,192,6|0,0:0|0:0,0:0:0:0:
170,260,42151,1,2,0:0:0:0:
11,210,42314,1,8,0:3:0:0:
146,68,42477,2,0,L|125:161,1,96,2|2,0:0|0:0,0:0:0:0:
313,309,42803,6,0,L|252:126,1,192,2|8,0:0|0:3,0:0:0:0:
226,332,43292,1,2,0:0:0:0:
406,240,43455,1,0,0:0:0:0:
412,242,43537,1,0,0:0:0:0:
418,244,43619,5,10,0:3:0:0:
198,246,43781,1,2,0:0:0:0:
406,322,43944,6,0,P|453:317|487:284,1,96,10|0,0:3|0:0,0:0:0:0:
416,57,44270,6,0,B|406:132|406:132|426:181|426:181|417:244,1,192,6|2,0:0|0:0,0:0:0:0:
324,378,44759,1,0,0:0:0:0:
231,199,44923,2,0,L|326:195,1,96,10|0,0:3|0:0,0:0:0:0:
60,268,45249,2,0,L|155:271,1,96,2|8,0:0|0:3,0:0:0:0:
316,114,45575,5,2,0:0:0:0:
243,293,45738,1,8,0:3:0:0:
114,148,45901,2,0,L|205:175,1,96
406,322,46227,5,10,0:3:0:0:
155,271,46390,1,8,0:3:0:0:
409,132,46553,5,8,0:3:0:0:
164,162,46716,1,8,0:3:0:0:
446,201,46879,6,0,P|483:110|403:53,1,211.200006445313,4|0,0:3|0:0,0:0:0:0:
380,265,47368,1,2,0:0:0:0:
380,265,47531,2,0,P|416:287|458:294,1,86.3999973632813,2|0,0:0|0:0,0:0:0:0:
409,132,47857,2,0,P|366:138|330:161,1,86.3999973632813,2|0,0:0|0:0,0:0:0:0:
220,349,48183,6,0,L|307:345,1,86.3999973632813,2|0,0:0|0:0,0:0:0:0:
204,138,48509,2,0,L|118:143,1,86.3999973632813,2|0,0:0|0:0,0:0:0:0:
133,353,48836,2,0,L|220:349,1,86.3999973632813,2|0,0:0|0:0,0:0:0:0:
204,138,49162,1,2,0:0:0:0:
203,127,49243,1,0,0:0:0:0:
202,116,49325,1,0,0:0:0:0:
201,105,49406,1,0,0:0:0:0:
201,94,49488,6,0,B|246:103|282:85|282:85|301:93|319:103|319:103|361:85|403:101,1,211.200006445313,4|2,0:3|0:0,0:0:0:0:
379,261,49977,1,2,0:0:0:0:
379,261,50140,2,0,L|366:175,1,86.3999973632813,2|0,0:0|0:0,0:0:0:0:
413,71,50466,1,2,0:0:0:0:
442,320,50629,6,0,P|362:344|297:293,1,172.799994726563,2|0,0:0|0:0,0:0:0:0:
287,270,51037,1,0,0:0:0:0:
287,270,51118,2,0,L|201:285,1,86.3999973632813,6|0,0:3|0:0,0:0:0:0:
115,79,51444,2,0,L|200:94,1,86.3999973632813,2|0,0:0|0:0,0:0:0:0:
34,315,51770,1,2,0:0:0:0:
34,304,51851,1,0,0:0:0:0:
34,293,51933,1,0,0:0:0:0:
34,282,52014,1,0,0:0:0:0:
34,272,52096,6,0,B|73:274|101:268|101:268|134:287|134:287|158:278|200:284,1,172.799994726563,6|2,0:0|0:0,0:0:0:0:
266,182,52586,1,0,0:0:0:0:
266,182,52749,2,0,P|309:182|350:194,1,86.3999973632813,2|0,0:0|0:0,0:0:0:0:
315,347,53075,1,2,0:0:0:0:
315,347,53238,6,0,L|301:262,1,86.3999973632813,2|0,0:0|0:0,0:0:0:0:
243,100,53564,2,0,P|199:100|158:112,1,86.3999973632813,2|0,0:0|0:0,0:0:0:0:
200,284,53890,2,0,L|214:198,1,86.3999973632813,2|0,0:0|0:0,0:0:0:0:
303,14,54216,2,0,P|347:14|388:26,1,86.3999973632813,2|0,0:0|0:0,0:0:0:0:
347,193,54542,1,2,0:0:0:0:
158,111,54705,5,10,0:3:0:0:
394,32,54868,1,8,0:3:0:0:
394,32,54950,1,8,0:3:0:0:
394,32,55031,1,8,0:3:0:0:
149,93,55194,5,10,0:3:0:0:
419,139,55357,1,8,0:3:0:0:
438,143,55438,1,8,0:3:0:0:
457,147,55520,1,8,0:3:0:0:
251,195,55683,6,0,L|252:99,1,96,8|0,0:3|0:0,0:0:0:0:
347,193,56009,5,10,0:3:0:0:
136,248,56173,1,0,0:3:0:0:
348,284,56336,5,10,0:3:0:0:
122,171,56499,1,0,0:3:0:0:
370,112,56662,5,10,0:3:0:0:
377,111,56743,1,8,0:3:0:0:
385,110,56825,1,8,0:3:0:0:
393,110,56906,1,8,0:3:0:0:
401,109,56988,1,8,0:3:0:0:
409,108,57069,1,8,0:3:0:0:
417,108,57151,1,8,0:3:0:0:
408,312,57314,6,0,L|346:303,1,62.3999971435548,2|0,0:0|0:0,0:0:0:0:
266,291,57640,2,0,L|204:282,1,62.3999971435548,2|0,0:0|0:0,0:0:0:0:
334,120,57966,6,0,L|357:177,1,62.3999971435548,2|0,0:0|0:0,0:0:0:0:
385,255,58292,2,0,L|408:312,1,62.3999971435548,2|0,0:0|0:0,0:0:0:0:
204,282,58618,6,0,L|242:232,1,62.3999971435548,2|0,0:0|0:0,0:0:0:0:
295,170,58944,2,0,L|333:120,1,62.3999971435548,2|0,0:0|0:0,0:0:0:0:
408,312,59270,6,0,L|346:303,1,62.3999971435548,2|0,0:0|0:0,0:0:0:0:
265,290,59596,2,0,L|203:281,1,62.3999971435548,2|0,0:0|0:0,0:0:0:0:
90,190,59923,5,10,0:3:0:0:
332,120,60086,1,10,0:3:0:0:
125,87,60249,1,10,0:3:0:0:
265,290,60412,1,10,0:3:0:0:
254,305,60901,5,10,0:3:0:0:
245,69,61064,1,10,0:3:0:0:
408,312,61227,1,10,0:3:0:0:
192,179,61390,1,10,0:3:0:0:
350,204,61879,6,0,L|302:197,1,48,10|10,1:3|1:3,0:0:0:0:
161,171,62042,1,8,1:3:0:0:
440,196,62205,6,0,P|387:194|342:222,1,108.000004119873,6|0,0:3|0:0,0:0:0:0:
327,241,62531,5,6,0:0:0:0:
478,282,62694,1,0,0:0:0:0:
312,338,62857,1,8,0:3:0:0:
490,269,63020,1,2,0:0:0:0:
300,350,63183,2,0,P|252:355|205:346,1,96,2|0,0:0|0:0,0:0:0:0:
64,234,63509,1,8,0:3:0:0:
180,89,63673,6,0,P|212:150|187:215,1,144,2|0,0:3|0:0,0:0:0:0:
174,236,63999,1,2,0:3:0:0:
306,96,64162,1,8,0:3:0:0:
306,96,64325,2,0,P|352:87|398:99,1,96,2|0,0:0|0:0,0:0:0:0:
416,343,64651,1,2,0:0:0:0:
351,174,64814,1,8,0:3:0:0:
491,301,64977,1,2,0:0:0:0:
487,296,65058,1,0,0:0:0:0:
483,291,65140,6,0,P|421:258|356:283,1,144,4|0,0:3|0:0,0:0:0:0:
342,303,65466,1,8,0:3:0:0:
512,199,65629,1,0,0:0:0:0:
282,225,65792,1,2,0:0:0:0:
483,291,65955,1,2,0:0:0:0:
353,144,66118,5,10,0:3:0:0:
416,343,66281,1,2,0:0:0:0:
428,101,66444,6,0,P|350:55|273:105,1,192,2|10,0:0|0:3,0:0:0:0:
342,303,66933,1,2,0:0:0:0:
353,144,67096,1,0,0:0:0:0:
234,311,67259,1,2,0:0:0:0:
416,225,67423,1,8,0:3:0:0:
269,60,67586,1,10,0:3:0:0:
264,64,67667,1,8,0:3:0:0:
259,68,67749,6,0,B|255:104|247:123|247:123|263:156|263:156|251:176|253:205,1,144,12|0,0:3|0:0,0:0:0:0:
253,229,68075,1,8,0:3:0:0:
86,339,68238,1,0,0:0:0:0:
57,228,68401,1,2,0:0:0:0:
165,276,68564,1,2,0:0:0:0:
39,133,68727,5,10,0:3:0:0:
183,371,68890,1,2,0:0:0:0:
447,183,69053,6,0,B|406:173|377:180|377:180|338:156|338:156|304:164|263:156,1,192,6|2,0:3|0:0,0:0:0:0:
377,335,69542,6,0,P|406:273|371:213,1,144.000005493164,6|2,0:3|0:0,0:0:0:0:
214,266,70031,6,0,L|328:277,1,115.199996484375,10|0,0:3|0:0,0:0:0:0:
67,163,70357,5,14,0:3:0:0:
300,75,70520,1,2,0:0:0:0:
68,64,70683,5,10,0:3:0:0:
295,170,70846,1,2,0:0:0:0:
139,1,71009,5,10,0:3:0:0:
225,235,71172,1,2,0:0:0:0:
235,4,71335,5,10,0:3:0:0:
128,232,71499,1,2,0:0:0:0:
300,75,71662,6,0,L|443:69,1,144,6|0,0:3|0:0,0:0:0:0:
467,69,71988,1,10,0:3:0:0:
448,240,72151,5,10,0:3:0:0:
422,278,72232,1,8,0:3:0:0:
378,298,72314,1,8,0:3:0:0:
332,291,72395,1,8,0:3:0:0:
297,261,72477,1,10,0:3:0:0:
282,215,72558,1,8,0:3:0:0:
295,170,72640,1,8,0:3:0:0:
329,137,72721,1,8,0:3:0:0:
376,129,72803,1,8,0:3:0:0:
257,340,72966,5,6,0:0:0:0:
195,133,73129,1,2,0:0:0:0:
369,215,73292,5,10,0:3:0:0:
170,266,73455,1,2,0:0:0:0:
356,59,73618,6,0,L|452:70,1,96
332,291,73944,1,8,3:3:0:0:
162,65,74107,6,0,P|194:126|169:191,1,144,2|0,0:3|0:0,0:0:0:0:
156,212,74433,1,2,0:3:0:0:
5,120,74596,1,8,0:3:0:0:
5,120,74759,2,0,L|101:130,1,96,2|0,0:0|0:0,0:0:0:0:
306,283,75086,1,2,0:0:0:0:
275,137,75249,1,8,0:3:0:0:
361,338,75412,1,2,0:0:0:0:
366,342,75493,1,0,0:0:0:0:
371,346,75575,6,0,P|394:280|362:217,1,144,4|0,0:0|0:0,0:0:0:0:
347,199,75901,1,8,0:3:0:0:
472,324,76064,1,2,0:0:0:0:
281,378,76227,2,0,P|233:383|187:369,1,96,2|0,0:0|0:0,0:0:0:0:
39,201,76553,5,10,0:3:0:0:
252,142,76716,1,2,0:0:0:0:
141,309,76879,6,0,B|134:266|152:233|152:233|134:204|134:204|150:167|136:126,1,192,2|8,0:0|0:3,0:0:0:0:
38,259,77368,1,2,0:0:0:0:
229,179,77531,1,0,0:0:0:0:
44,152,77694,1,2,0:0:0:0:
219,283,77857,1,8,0:3:0:0:
158,52,78020,1,10,0:3:0:0:
153,48,78101,1,8,0:3:0:0:
148,44,78183,6,0,P|116:105|141:170,1,144,12|0,0:3|0:0,0:0:0:0:
160,186,78509,1,8,0:3:0:0:
323,91,78673,1,0,0:0:0:0:
198,110,78836,1,2,0:0:0:0:
369,169,78999,2,0,P|405:138|416:92,1,96,2|8,0:0|0:3,0:0:0:0:
290,279,79325,1,0,0:0:0:0:
294,284,79406,1,0,0:0:0:0:
298,289,79488,6,0,L|393:295,1,96,2|0,0:3|0:0,0:0:0:0:
228,376,79814,1,10,0:3:0:0:
77,227,79977,2,0,P|155:178|234:223,1,192,2|2,0:0|0:0,0:0:0:0:
147,367,80466,6,0,P|168:318|155:266,1,108.000004119873,6|0,0:3|0:0,0:0:0:0:
81,311,80792,5,14,0:3:0:0:
308,300,80955,1,2,0:0:0:0:
149,178,81118,1,10,0:3:0:0:
240,384,81281,5,10,0:3:0:0:
270,220,81444,1,0,0:3:0:0:
166,336,81607,5,10,0:3:0:0:
140,70,81770,1,0,0:3:0:0:
338,131,81933,5,8,0:3:0:0:
331,140,82014,1,8,0:3:0:0:
324,150,82096,5,10,0:3:0:0:
270,220,82259,1,2,0:0:0:0:
406,176,82423,5,10,0:3:0:0:
251,211,82586,1,2,0:0:0:0:
468,251,82749,5,10,0:3:0:0:
232,202,82912,1,2,0:0:0:0:
448,348,83075,5,10,0:3:0:0:
213,193,83239,1,2,0:0:0:0:
355,384,83401,6,0,P|360:333|362:269,1,115.199996484375,14|0,0:3|0:0,0:0:0:0:
240,47,83727,5,10,0:3:0:0:
262,257,83890,1,2,0:0:0:0:
331,128,84053,5,8,0:3:0:0:
166,259,84216,1,2,0:0:0:0:
131,76,84379,5,10,0:3:0:0:
268,276,84542,1,2,0:0:0:0:
347,114,84705,6,0,P|402:106|461:103,1,115.199996484375,10|2,0:3|0:0,0:0:0:0:
261,296,85031,5,10,0:3:0:0:
97,157,85194,1,2,0:0:0:0:
305,211,85357,5,8,0:3:0:0:
56,242,85520,1,2,0:0:0:0:
266,123,85683,5,10,0:3:0:0:
77,332,85846,1,2,0:0:0:0:
330,215,86009,6,0,P|387:217|445:225,1,115.199996484375,14|0,0:3|0:0,0:0:0:0:
445,225,86254,1,0,0:3:0:0:
445,225,86336,1,2,0:3:0:0:
224,151,86499,1,14,0:3:0:0:
209,145,86825,5,2,0:0:0:0:
413,158,86988,1,10,0:3:0:0:
212,301,87151,1,2,0:0:0:0:
271,64,87314,5,14,0:3:0:0:
303,362,87477,1,0,0:0:0:0:
305,373,87558,1,0,0:0:0:0:
307,384,87639,1,2,0:0:0:0:
196,139,87803,1,14,0:3:0:0:
182,133,88129,5,10,0:3:0:0:
392,267,88292,1,10,0:3:0:0:
399,17,88455,1,14,0:3:0:0:
