osu file format v14

[General]
AudioFilename: audio.mp3
AudioLeadIn: 0
PreviewTime: 62450
Countdown: 0
SampleSet: Soft
StackLeniency: 0.7
Mode: 0
LetterboxInBreaks: 0
WidescreenStoryboard: 1

[Editor]
Bookmarks: 957,26010,36444,46879,47205,56009,59923,62531,72966,80792,88455
DistanceSpacing: 1.2
BeatDivisor: 4
GridSize: 4
TimelineZoom: 1.5

[Metadata]
Title:Zoetrope
TitleUnicode:Zoetrope
Artist:yanaginagi
ArtistUnicode:やなぎなぎ
Creator:Realazy
Version:Kyuukai's Insane
Source:AMNESIA
Tags:Akitoshi _83 pyroflayer borborygmos bor yaleufeu Kyuukai Linada Kin エウアル euaru アムネシア opening
BeatmapID:1266405
BeatmapSetID:599195

[Difficulty]
HPDrainRate:6
CircleSize:4
OverallDifficulty:8.3
ApproachRate:9
SliderMultiplier:1.6
SliderTickRate:1

[Events]
//Background and Video events
0,0,"Asphyxia's BG.jpg",0,0
//Break Periods
//Storyboard Layer 0 (Background)
//Storyboard Layer 1 (Fail)
//Storyboard Layer 2 (Pass)
//Storyboard Layer 3 (Foreground)
//Storyboard Sound Samples

[TimingPoints]
957,722.89156626506,4,2,1,45,1,0
957,-117.647058823529,4,2,1,45,0,0
6378,-117.647058823529,4,2,1,35,0,0
6740,-117.647058823529,4,2,1,45,0,0
12161,-117.647058823529,4,2,1,35,0,0
12523,-117.647058823529,4,2,1,45,0,0
17944,-117.647058823529,4,2,1,35,0,0
18306,750,4,2,1,45,1,0
19806,800,4,2,1,45,1,0
21406,652.173913043478,4,2,1,45,1,0
22710,750,4,2,1,45,1,0
24210,800,4,2,1,45,1,0
25010,1000,4,2,1,45,1,0
26010,326.086956521739,4,2,1,60,1,0
46879,-117.647058823529,4,2,1,60,0,0
54705,-100,4,2,1,55,0,0
57314,-133.333333333333,4,2,1,45,0,0
59923,-100,4,2,1,65,0,0
62531,-100,4,2,1,70,0,1
72477,-100,4,2,1,40,0,1
72558,-100,4,2,1,70,0,1
72803,-100,4,2,1,70,0,0
72966,-100,4,2,1,70,0,1
80629,-100,4,2,1,70,0,0
83401,-100,4,2,1,70,0,1
88455,-100,4,2,1,70,0,0

[Colours]
Combo1 : 98,81,255
Combo2 : 160,75,218
Combo3 : 232,51,55
Combo4 : 186,199,241

[HitObjects]
60,89,957,6,0,B|138:66|138:111|219:87,1,136.000002593994,2|0,3:2|0:0,0:0:0:0:
267,58,2041,1,0,0:2:0:0:
333,105,2402,2,0,P|370:108|419:100,2,68.0000012969971,2|0|2,0:2|0:2|0:2,0:0:0:0:
260,142,3487,1,0,0:2:0:0:
324,188,3848,6,0,B|336:220|324:256|324:256|312:288|323:321,1,136.000002593994,2|0,0:2|0:2,0:0:0:0:
388,368,4932,1,0,0:0:0:0:
452,320,5294,6,0,B|464:288|452:252|452:252|440:220|451:187,1,136.000002593994,2|0,0:2|0:2,0:0:0:0:
388,132,6378,1,2,3:2:0:0:
328,186,6740,6,0,P|250:204|187:175,1,136.000002593994,2|0,3:2|0:0,0:0:0:0:
138,130,7824,1,0,0:0:0:0:
81,189,8185,2,0,L|90:262,2,68.0000012969971,2|0|2,0:2|0:2|0:2,0:0:0:0:
72,107,9270,1,0,0:2:0:0:
130,49,9631,6,0,P|189:61|279:44,3,136.000002593994,2|0|0|0,0:2|0:2|0:0|0:2,0:0:0:0:
340,24,12161,1,2,3:2:0:0:
410,65,12523,6,0,L|410:133,1,68.0000012969971,2|0,3:2|0:2,0:0:0:0:
353,192,13246,2,0,L|353:260,1,68.0000012969971,0|0,0:0|0:2,0:0:0:0:
318,333,13969,2,0,P|361:340|390:333,2,68.0000012969971,2|0|2,0:2|0:2|0:2,0:0:0:0:
244,296,15053,1,0,0:2:0:0:
172,333,15414,6,0,P|129:340|100:333,1,68.0000012969971,2|0,0:2|0:2,0:0:0:0:
36,291,16137,2,0,P|29:248|36:219,1,68.0000012969971,2|0,0:2|0:2,0:0:0:0:
73,152,16860,2,0,P|134:168|214:148,1,136.000002593994,0|0,0:0|0:2,0:0:0:0:
270,106,17944,1,2,3:2:0:0:
340,166,18306,6,0,B|364:229|364:229|323:225|288:244|288:244|256:285|204:273,1,240,2|0,3:2|0:2,0:0:0:0:
181,185,19806,6,0,P|115:262|193:363,1,240,2|0,0:2|0:2,0:0:0:0:
184,361,21406,5,2,0:2:0:0:
256,192,21895,12,0,25760,0:2:0:0:
360,117,26010,6,0,L|458:105,2,80,4|0|0,1:2|0:0|0:2,0:0:0:0:
278,83,26499,1,0,1:2:0:0:
247,165,26662,2,0,B|258:261,1,80,8|0,0:2|1:2,0:0:0:0:
256,244,27151,1,0,1:0:0:0:
164,131,27314,5,0,0:2:0:0:
164,131,27477,2,0,B|66:149,1,80,8|0,0:2|0:2,0:0:0:0:
247,165,27803,1,0,1:2:0:0:
247,165,27966,2,0,P|252:110|233:74,1,80,8|0,0:2|1:2,0:0:0:0:
178,26,28292,1,0,0:2:0:0:
124,139,28455,1,8,0:2:0:0:
409,73,28618,6,0,P|370:68|331:75,1,80,4|0,1:2|0:0,0:0:0:0:
459,235,28944,2,0,P|466:195|461:156,1,80,0|0,1:2|0:2,0:0:0:0:
299,183,29270,2,0,P|336:196|375:194,1,80,8|0,0:2|1:2,0:0:0:0:
375,194,29760,1,0,1:2:0:0:
278,205,29923,5,0,0:2:0:0:
278,205,30086,2,0,L|287:288,1,80,8|0,0:2|0:2,0:0:0:0:
399,92,30412,1,0,1:2:0:0:
255,227,30575,2,0,L|264:310,1,80,12|0,0:2|1:2,0:0:0:0:
215,384,30901,1,8,0:2:0:0:
278,205,31064,1,8,0:2:0:0:
132,343,31227,6,0,L|33:339,1,80,4|0,1:2|0:0,0:0:0:0:
64,181,31553,2,0,L|144:185,1,80,0|0,1:2|1:2,0:0:0:0:
138,264,31879,2,0,L|58:260,1,80,8|0,0:2|1:0,0:0:0:0:
58,260,32368,1,0,1:2:0:0:
162,182,32531,5,0,0:2:0:0:
162,182,32694,2,0,B|130:68,1,80,8|0,0:2|0:2,0:0:0:0:
140,269,33020,1,0,1:2:0:0:
140,269,33183,2,0,P|184:268|224:247,1,80,8|0,0:2|1:2,0:0:0:0:
312,161,33510,1,0,0:0:0:0:
278,324,33673,1,8,0:2:0:0:
431,230,33836,6,0,L|352:233,1,80,4|0,1:2|0:0,0:0:0:0:
198,320,34162,2,0,L|277:323,1,80,0|0,1:2|0:2,0:0:0:0:
442,309,34488,2,0,L|430:229,1,80,8|0,0:2|1:2,0:0:0:0:
430,229,34977,1,0,1:2:0:0:
327,86,35140,5,0,1:2:0:0:
327,86,35303,2,0,L|342:186,1,80,8|0,0:2|0:0,0:0:0:0:
338,165,35629,1,0,1:2:0:0:
150,115,35792,2,0,L|250:100,1,80,12|0,0:2|1:2,0:0:0:0:
336,69,36118,1,8,0:2:0:0:
343,197,36281,1,8,0:2:0:0:
193,28,36444,6,0,L|10:57,1,160,4|0,1:2|1:2,0:0:0:0:
11,137,36933,1,0,1:2:0:0:
60,209,37096,2,0,L|160:194,2,80,8|0|0,0:2|1:2|0:2,0:0:0:0:
207,260,37586,2,0,P|230:203|168:111,1,160,8|8,0:2|0:0,0:0:0:0:
48,283,38075,2,0,L|225:257,1,160,0|8,0:2|0:2,0:0:0:0:
206,259,38727,1,8,0:2:0:0:
415,123,39053,6,0,L|401:300,1,160,4|0,1:2|1:2,0:0:0:0:
326,326,39542,1,0,0:2:0:0:
266,264,39705,2,0,L|160:262,1,80,8|0,0:2|1:2,0:0:0:0:
157,345,40031,1,0,0:2:0:0:
157,345,40194,2,0,L|316:342,1,160,0|8,1:2|0:2,0:0:0:0:
325,208,40683,2,0,P|284:271|341:354,1,160,0|8,0:2|0:2,0:0:0:0:
411,282,41173,1,0,1:2:0:0:
286,139,41336,2,0,L|194:145,1,80,8|0,0:2|0:2,0:0:0:0:
411,282,41662,6,0,L|401:117,1,160,4|0,1:2|1:2,0:0:0:0:
335,64,42151,1,0,1:2:0:0:
286,139,42314,2,0,L|194:145,2,80,8|0|0,0:2|1:2|0:2,0:0:0:0:
145,79,42803,2,0,P|119:173|174:228,1,160,0|8,1:2|0:2,0:0:0:0:
253,254,43292,1,0,0:0:0:0:
91,333,43455,1,0,1:0:0:0:
91,333,43537,1,0,1:0:0:0:
91,333,43618,2,0,P|73:276|71:249,1,80,8|0,0:2|1:2,0:0:0:0:
172,140,43944,2,0,P|166:179|152:216,1,80,8|0,0:2|0:2,0:0:0:0:
267,273,44270,6,0,P|336:296|416:232,1,160,4|0,1:2|0:2,0:0:0:0:
392,160,44759,1,0,1:2:0:0:
392,160,44923,2,0,P|323:137|243:201,1,160,8|0,0:2|0:2,0:0:0:0:
244,282,45412,1,8,0:2:0:0:
244,282,45575,2,0,L|238:361,2,80,0|8|0,1:2|0:2|1:2,0:0:0:0:
188,213,46064,1,0,0:2:0:0:
188,213,46145,1,0,0:0:0:0:
188,213,46227,5,8,0:2:0:0:
82,128,46390,1,8,0:2:0:0:
226,128,46553,1,8,0:2:0:0:
143,291,46716,1,8,0:2:0:0:
82,128,46879,6,0,L|93:34,1,68.0000012969971,4|0,1:2|0:2,0:0:0:0:
162,22,47205,2,0,L|256:33,1,68.0000012969971,0|0,1:2|0:2,0:0:0:0:
292,81,47531,2,0,L|359:73,1,68.0000012969971,0|0,1:2|0:2,0:0:0:0:
427,27,47857,1,0,1:0:0:0:
487,81,48020,1,0,0:2:0:0:
508,159,48183,2,0,P|496:239|437:286,1,136.000002593994,0|0,0:0|1:2,0:0:0:0:
389,320,48673,1,0,0:2:0:0:
323,271,48836,2,0,L|237:277,1,68.0000012969971,0|0,1:2|0:2,0:0:0:0:
225,351,49162,2,0,L|310:357,1,68.0000012969971,0|0,1:2|0:2,0:0:0:0:
394,232,49488,6,0,P|397:158|389:92,1,136.000002593994,4|0,1:2|1:2,0:0:0:0:
334,37,49977,1,0,0:2:0:0:
261,74,50140,2,0,L|174:58,2,68.0000012969971,0|0|0,1:2|0:2|1:2,0:0:0:0:
317,132,50629,1,0,0:2:0:0:
112,220,50792,6,0,L|103:75,1,136.000002593994,0|0,0:0|1:2,0:0:0:0:
132,8,51281,1,0,0:2:0:0:
184,70,51444,2,0,L|189:152,1,68.0000012969971,0|0,1:2|0:2,0:0:0:0:
108,152,51770,2,0,L|103:84,1,68.0000012969971,0|0,1:2|0:2,0:0:0:0:
25,193,52096,6,0,L|29:260,1,68.0000012969971,4|0,1:2|0:2,0:0:0:0:
104,296,52423,2,0,L|108:228,1,68.0000012969971,0|0,1:2|0:2,0:0:0:0:
189,221,52749,2,0,P|248:251|315:255,1,136.000002593994,0|0,1:2|1:2,0:0:0:0:
392,225,53238,1,0,0:2:0:0:
421,148,53401,1,4,1:2:0:0:
410,67,53564,2,0,P|376:70|342:65,1,68.0000012969971,0|0,0:2|1:2,0:0:0:0:
267,35,53890,2,0,P|233:30|199:34,1,68.0000012969971,0|0,0:2|1:2,0:0:0:0:
151,99,54216,2,0,P|117:104|83:99,2,68.0000012969971,0|0|0,0:2|1:2|0:2,0:0:0:0:
247,194,54705,6,0,L|242:304,1,80,8|0,1:2|1:2,0:0:0:0:
380,334,55031,1,0,1:2:0:0:
380,334,55113,1,0,0:2:0:0:
380,334,55194,2,0,L|270:329,1,80,8|0,1:2|1:2,0:0:0:0:
463,286,55520,1,0,1:2:0:0:
463,286,55683,6,0,L|468:176,1,80,8|0,0:2|0:2,0:0:0:0:
340,66,56009,2,0,L|343:145,1,80,8|0,0:2|1:2,0:0:0:0:
476,277,56336,2,0,L|481:167,1,80,8|0,0:2|1:2,0:0:0:0:
342,145,56662,2,0,L|346:225,1,80,8|8,1:2|0:3,0:0:0:0:
346,225,56906,1,8,0:3:0:0:
347,225,56988,1,8,0:2:0:0:
233,161,57151,1,8,0:3:0:0:
161,244,57314,6,0,L|87:247,2,60.0000022888184,2|0|0,0:0|0:0|0:2,0:0:0:0:
228,303,57803,1,0,0:2:0:0:
143,332,57966,2,0,L|69:335,2,60.0000022888184,2|0|0,0:0|0:0|0:2,0:0:0:0:
228,303,58455,1,0,0:2:0:0:
312,332,58618,2,0,L|386:335,2,60.0000022888184,2|0|0,0:0|0:0|0:2,0:0:0:0:
228,303,59107,1,0,0:2:0:0:
289,243,59270,2,0,L|348:245,2,60.0000022888184,2|0|0,0:0|0:0|0:2,0:0:0:0:
228,303,59759,1,0,0:2:0:0:
101,246,59923,5,8,1:2:0:0:
235,168,60086,1,8,1:2:0:0:
228,303,60249,1,8,1:2:0:0:
135,152,60412,1,8,1:2:0:0:
377,152,60901,5,8,1:2:0:0:
284,303,61064,1,8,1:2:0:0:
277,168,61227,1,8,1:2:0:0:
411,246,61390,1,8,1:2:0:0:
256,64,61879,5,8,0:2:0:0:
256,64,61961,1,8,0:2:0:0:
256,64,62042,1,0,1:2:0:0:
321,122,62205,2,0,P|367:122|417:90,1,80,8|0,0:2|0:0,0:0:0:0:
256,192,62531,6,0,L|256:288,2,80,12|0|8,1:2|0:2|0:2,0:0:0:0:
191,122,63020,1,0,0:0:0:0:
191,122,63183,2,0,P|145:122|95:90,1,80,0|0,1:2|1:2,0:0:0:0:
32,64,63509,1,8,0:2:0:0:
63,180,63673,2,0,P|48:216|50:256,1,80,0|0,0:2|1:2,0:0:0:0:
165,334,63999,6,0,P|205:337|242:322,1,80,0|8,1:2|0:2,0:0:0:0:
140,178,64325,2,0,P|101:170|63:180,1,80,0|0,1:2|0:2,0:0:0:0:
166,335,64651,2,0,P|175:289|161:245,1,80,0|8,1:2|0:2,0:0:0:0:
82,295,64977,1,0,0:2:0:0:
232,190,65140,5,4,1:2:0:0:
337,289,65303,1,0,0:2:0:0:
232,190,65466,1,8,0:2:0:0:
317,142,65629,1,0,0:0:0:0:
257,288,65792,2,0,P|300:292|346:286,1,80,0|0,1:2|1:2,0:0:0:0:
389,208,66118,2,0,P|432:204|478:210,1,80,8|0,0:2|0:2,0:0:0:0:
290,56,66444,6,0,L|277:234,1,160,0|8,1:2|0:2,0:0:0:0:
175,276,66933,2,0,L|183:174,1,80,0|0,1:2|0:2,0:0:0:0:
295,315,67259,1,0,1:2:0:0:
158,365,67423,1,8,1:2:0:0:
16,292,67586,1,8,0:2:0:0:
16,292,67667,1,8,0:2:0:0:
16,292,67749,6,0,P|43:220|26:132,1,160,4|8,1:2|0:2,0:0:0:0:
90,67,68238,1,0,0:2:0:0:
143,174,68401,1,0,1:2:0:0:
29,139,68564,1,0,1:2:0:0:
179,88,68727,2,0,P|218:85|258:88,1,80,8|0,0:2|0:2,0:0:0:0:
348,224,69053,6,0,B|344:176|332:148|332:148|360:112|348:56,1,160,0|8,1:2|0:2,0:0:0:0:
178,88,69542,2,0,P|218:83|258:88,1,80,0|0,1:2|0:2,0:0:0:0:
109,171,69868,1,0,1:2:0:0:
247,286,70031,2,0,P|256:247|259:208,1,80,8|0,0:2|0:2,0:0:0:0:
171,351,70357,5,12,1:2:0:0:
255,182,70520,1,0,1:2:0:0:
352,293,70683,5,8,0:2:0:0:
258,158,70846,1,0,1:2:0:0:
106,221,71009,5,8,0:2:0:0:
254,351,71173,1,0,1:2:0:0:
352,193,71336,5,8,0:2:0:0:
179,266,71499,1,0,0:2:0:0:
416,242,71662,6,0,P|428:169|416:143,1,80,4|0,1:2|1:2,0:0:0:0:
387,77,71988,1,8,0:2:0:0:
286,198,72151,1,8,0:2:0:0:
246,200,72232,1,8,0:2:0:0:
210,183,72314,1,8,0:2:0:0:
188,150,72395,1,8,0:0:0:0:
184,111,72477,5,8,0:0:0:0:
201,75,72558,1,8,0:0:0:0:
232,51,72640,1,0,1:0:0:0:
272,47,72721,1,0,1:0:0:0:
308,62,72803,1,0,1:0:0:0:
92,112,72966,5,4,1:2:0:0:
92,112,73129,1,0,0:2:0:0:
145,223,73292,1,8,0:2:0:0:
184,111,73455,1,0,0:0:0:0:
53,224,73618,2,0,L|69:309,1,80,0|0,1:2|1:2,0:0:0:0:
215,339,73944,1,8,0:2:0:0:
322,238,74107,6,0,L|223:230,1,80,0|0,0:2|1:2,0:0:0:0:
386,189,74433,2,0,P|402:231|397:275,1,80,0|8,1:2|0:2,0:0:0:0:
466,178,74759,2,0,P|464:138|479:101,1,80,0|0,1:2|0:2,0:0:0:0:
413,54,75086,2,0,P|373:52|336:67,1,80,0|8,1:2|0:2,0:0:0:0:
237,112,75412,1,0,0:0:0:0:
237,112,75493,1,0,0:0:0:0:
237,112,75575,6,0,P|169:72|92:87,1,160,0|8,1:2|0:2,0:0:0:0:
52,231,76064,1,0,0:0:0:0:
151,182,76227,1,0,1:2:0:0:
28,147,76390,1,0,1:2:0:0:
137,275,76553,2,0,P|175:282|220:274,1,80,8|0,0:2|0:2,0:0:0:0:
352,164,76879,6,0,P|332:221|385:310,1,160,0|8,1:2|0:2,0:0:0:0:
505,230,77368,2,0,L|425:222,1,80,0|0,1:0|0:0,0:0:0:0:
292,316,77694,1,0,1:2:0:0:
413,380,77857,1,8,0:2:0:0:
321,215,78020,1,8,0:2:0:0:
321,215,78102,1,8,0:2:0:0:
321,215,78183,6,0,L|210:213,1,80,0|0,1:2|0:2,0:0:0:0:
148,189,78509,1,10,0:2:0:0:
218,319,78673,2,0,L|139:321,1,80,0|0,0:2|1:2,0:0:0:0:
75,271,78999,2,0,P|59:310|68:360,1,80,2|8,1:2|0:2,0:0:0:0:
218,319,79325,1,2,0:2:0:0:
85,84,79488,5,2,1:2:0:0:
51,181,79651,1,0,1:2:0:0:
234,137,79814,1,10,0:2:0:0:
164,71,79977,2,0,L|82:84,1,80,2|0,1:2|0:2,0:0:0:0:
234,137,80303,1,0,1:2:0:0:
273,53,80466,2,0,L|377:56,1,80,8|0,0:2|1:2,0:0:0:0:
439,198,80792,6,0,P|465:101|413:49,1,160,14|0,1:2|1:2,0:0:0:0:
300,192,81281,2,0,P|368:229|439:198,1,160,14|0,0:2|1:2,0:0:0:0:
372,142,81770,1,10,0:2:0:0:
436,286,81933,1,0,1:2:0:0:
300,192,82096,2,0,P|256:184|203:200,1,80,10|0,0:0|1:2,0:0:0:0:
258,342,82423,2,0,P|266:303|260:264,1,80,10|2,0:2|1:2,0:0:0:0:
108,300,82749,2,0,P|147:308|187:302,1,80,8|2,0:2|1:2,0:0:0:0:
150,149,83075,2,0,P|142:188|149:228,1,80,8|2,0:0|0:2,0:0:0:0:
236,84,83401,6,0,L|319:73,1,80,14|2,1:2|1:2,0:0:0:0:
450,159,83727,2,0,L|371:149,1,80,8|2,0:2|1:2,0:0:0:0:
234,60,84053,6,0,L|326:64,1,80,8|2,0:2|1:2,0:0:0:0:
452,183,84379,2,0,L|368:156,1,80,8|0,0:2|1:2,0:0:0:0:
236,252,84705,5,10,1:2:0:0:
267,162,84868,1,2,1:2:0:0:
408,292,85031,1,8,0:2:0:0:
204,344,85194,1,2,1:2:0:0:
336,228,85357,1,8,1:2:0:0:
308,324,85520,1,2,1:2:0:0:
236,252,85683,1,8,0:2:0:0:
360,132,85846,1,0,1:2:0:0:
311,350,86009,6,0,B|244:327|244:327|196:355|140:329,1,160,14|0,1:2|1:2,0:0:0:0:
174,169,86499,2,0,P|187:207|193:247,1,80,14|0,1:2|1:2,0:0:0:0:
65,318,86825,1,2,1:2:0:0:
65,318,86988,2,0,P|51:280|46:240,1,80,8|0,0:2|1:2,0:0:0:0:
122,92,87314,5,14,0:2:0:0:
51,237,87477,1,2,1:2:0:0:
288,128,87803,5,14,1:2:0:0:
288,128,88129,5,8,1:2:0:0:
51,237,88292,1,8,1:2:0:0:
160,32,88455,1,12,1:2:0:0:
