osu file format v14

[General]
AudioFilename: audio.mp3
AudioLeadIn: 0
PreviewTime: 62450
Countdown: 0
SampleSet: Soft
StackLeniency: 0.4
Mode: 0
LetterboxInBreaks: 0
WidescreenStoryboard: 1

[Editor]
Bookmarks: 957,26010,36444,46879,56009,59923,62531,72966,80792,88455
DistanceSpacing: 1.2
BeatDivisor: 4
GridSize: 32
TimelineZoom: 2.2

[Metadata]
Title:Zoetrope
TitleUnicode:Zoetrope
Artist:yanaginagi
ArtistUnicode:やなぎなぎ
Creator:Realazy
Version:Fragmented Memories
Source:AMNESIA
Tags:Akitoshi _83 pyroflayer borborygmos bor yaleufeu Kyuukai Linada Kin エウアル euaru アムネシア opening
BeatmapID:1267571
BeatmapSetID:599195

[Difficulty]
HPDrainRate:6.5
CircleSize:4.2
OverallDifficulty:9
ApproachRate:9.3
SliderMultiplier:1.82
SliderTickRate:1

[Events]
//Background and Video events
0,0,"Asphyxia's BG.jpg",0,0
//Break Periods
//Storyboard Layer 0 (Background)
//Storyboard Layer 1 (Fail)
//Storyboard Layer 2 (Pass)
//Storyboard Layer 3 (Foreground)
//Storyboard Sound Samples

[TimingPoints]
957,722.89156626506,4,2,1,45,1,0
957,-117.647058823529,4,2,1,45,0,0
6378,-117.647058823529,4,2,1,35,0,0
6740,-117.647058823529,4,2,1,45,0,0
12161,-117.647058823529,4,2,1,35,0,0
12523,-117.647058823529,4,2,1,45,0,0
17944,-117.647058823529,4,2,1,35,0,0
18306,750,4,2,1,45,1,0
18306,-117.647058823529,4,2,1,45,0,0
19806,800,4,2,1,45,1,0
19806,-133.333333333333,4,2,1,45,0,0
21406,652.173913043478,4,2,1,45,1,0
21406,-153.846153846154,4,2,1,45,0,0
22710,750,4,2,1,45,1,0
24210,800,4,2,1,45,1,0
25010,1000,4,2,1,45,1,0
26010,326.086956521739,4,2,1,60,1,0
26010,-100,4,2,1,60,0,0
46879,-117.647058823529,4,2,1,60,0,0
48509,-111.111111111111,4,2,1,60,0,0
48836,-105.263157894737,4,2,1,60,0,0
49162,-100,4,2,1,60,0,0
49488,-117.647058823529,4,2,1,60,0,0
51118,-111.111111111111,4,2,1,60,0,0
51444,-105.263157894737,4,2,1,60,0,0
51770,-100,4,2,1,60,0,0
52096,-117.647058823529,4,2,1,60,0,0
54705,-100,4,2,1,55,0,0
57314,-133.333333333333,4,2,1,45,0,0
59923,-100,4,2,1,65,0,0
62531,-100,4,2,1,70,0,1
72232,-100,4,2,1,70,0,1
72395,-100,4,2,1,40,0,1
72477,-100,4,2,1,70,0,1
72558,-100,4,2,1,40,0,1
72803,-100,4,2,1,70,0,0
72966,-100,4,2,1,70,0,1
80629,-100,4,2,1,70,0,0
83401,-90.9090909090909,4,2,1,70,0,1
88129,-100,4,2,1,70,0,1
88455,-100,4,2,1,70,0,0

[Colours]
Combo1 : 98,81,255
Combo2 : 160,75,218
Combo3 : 232,51,55
Combo4 : 186,199,241

[HitObjects]
265,135,957,6,0,P|320:121|356:76,2,116.025002213001,2|0|0,3:2|0:2|0:2,0:0:0:0:
184,180,2402,2,0,P|193:217|184:254,1,77.3500014753342,2|0,0:2|0:2,0:0:0:0:
76,272,3125,2,0,P|66:234|75:197,1,77.3500014753342,2|0,0:2|0:2,0:0:0:0:
126,109,3848,6,0,P|185:86|244:108,1,128.916669125557,2|0,0:2|0:2,0:0:0:0:
244,118,5294,2,0,P|184:96|126:118,1,128.916669125557,0|0,0:2|0:2,0:0:0:0:
72,212,6378,1,2,3:2:0:0:
178,176,6740,6,0,P|175:215|191:249,1,77.3500014753342,2|0,3:2|0:2,0:0:0:0:
220,286,7282,2,0,P|163:275|107:291,1,116.025002213001,2|0,0:0|0:0,0:0:0:0:
15,286,8185,2,0,L|19:208,1,77.3500014753342,2|0,0:2|0:2,0:0:0:0:
104,171,8908,2,0,P|140:183|178:178,1,77.3500014753342,2|0,0:2|0:2,0:0:0:0:
267,151,9631,6,0,P|305:146|341:158,1,77.3500014753342,2|0,0:2|0:2,0:0:0:0:
379,185,10173,1,2,0:2:0:0:
379,185,10354,2,0,B|395:202|399:232|388:258|388:258|380:283|382:306|400:329|400:329|374:318|346:323|328:340|328:340|310:355|279:363|250:348,1,309.400005901337,0|0,0:2|0:2,0:0:0:0:
164,289,12161,1,2,3:2:0:0:
64,330,12523,6,0,P|57:293|61:255,1,77.3500014753342,2|0,3:2|0:2,0:0:0:0:
79,212,13065,2,0,P|85:155|70:100,1,116.025002213001,2|0,0:2|0:2,0:0:0:0:
34,13,13969,2,0,P|71:6|109:13,1,77.3500014753342,2|0,0:2|0:2,0:0:0:0:
193,52,14691,2,0,P|230:58|268:51,1,77.3500014753342,2|0,0:2|0:2,0:0:0:0:
354,15,15414,6,0,P|361:52|353:90,1,77.3500014753342,2|0,0:2|0:2,0:0:0:0:
268,129,16137,2,0,P|260:166|267:204,1,77.3500014753342,2|0,0:2|0:2,0:0:0:0:
290,244,16679,2,0,P|238:219|185:237,1,116.025002213001,0|0,0:0|0:0,0:0:0:0:
146,329,17583,1,0,0:2:0:0:
295,348,17944,1,2,3:2:0:0:
295,348,18125,1,0,0:2:0:0:
295,348,18306,6,0,P|332:336|363:313,1,77.3500014753342,2|0,3:2|0:2,0:0:0:0:
389,275,18868,2,0,P|375:218|385:162,1,116.025002213001,2|0,0:2|0:2,0:0:0:0:
409,113,19618,1,0,0:2:0:0:
385,75,19806,2,0,P|354:87|320:86,1,68.250002603531,2|0,0:2|0:2,0:0:0:0:
262,26,20606,2,0,P|230:14|196:17,1,68.250002603531,2|0,0:2|0:2,0:0:0:0:
144,86,21406,6,0,P|137:129|155:169,1,88.724995938492,2|0,0:2|0:2,0:0:0:0:
256,192,22058,12,0,25760,0:2:0:0:
406,166,26010,6,0,P|413:252|335:287,1,182,4|0,1:2|0:2,0:0:0:0:
199,259,26499,1,0,1:2:0:0:
349,215,26662,1,8,0:2:0:0:
269,334,26825,1,0,1:2:0:0:
269,334,27151,1,0,1:0:0:0:
349,215,27314,1,0,0:2:0:0:
207,137,27477,6,0,L|297:141,1,91,8|0,0:2|0:2,0:0:0:0:
280,20,27803,1,0,1:2:0:0:
443,52,27966,2,0,L|352:56,1,91,8|0,0:2|1:2,0:0:0:0:
237,83,28292,1,0,0:2:0:0:
366,167,28455,1,8,0:2:0:0:
280,20,28618,6,0,P|195:20|164:100,1,182,4|0,1:2|1:2,0:0:0:0:
207,210,29107,1,0,0:2:0:0:
46,174,29270,2,0,P|74:139|77:95,1,91,8|0,0:2|1:2,0:0:0:0:
179,294,29760,2,0,P|222:284|266:293,1,91,0|0,1:2|0:2,0:0:0:0:
110,347,30086,6,0,L|105:257,1,91,8|0,0:2|0:2,0:0:0:0:
224,383,30412,1,0,1:2:0:0:
211,192,30575,1,12,0:2:0:0:
353,281,30738,1,0,1:2:0:0:
179,294,30901,5,8,0:2:0:0:
400,204,31064,1,8,0:2:0:0:
400,356,31227,6,0,P|443:280|400:204,1,182,4|0,1:2|1:2,0:0:0:0:
298,145,31716,1,0,1:2:0:0:
453,112,31879,1,8,0:2:0:0:
453,112,32042,1,0,1:0:0:0:
219,46,32368,2,0,P|262:58|307:54,1,91,0|0,1:2|0:2,0:0:0:0:
297,217,32694,6,0,L|211:192,1,91,8|0,0:2|0:2,0:0:0:0:
100,150,33020,1,0,1:2:0:0:
159,313,33183,2,0,L|245:288,1,91,8|0,0:2|1:2,0:0:0:0:
246,287,33673,1,8,0:2:0:0:
393,356,33836,6,0,P|473:319|486:233,1,182,4|0,1:2|1:2,0:0:0:0:
429,127,34325,1,0,0:2:0:0:
283,178,34488,2,0,L|373:192,1,91,8|0,0:2|1:2,0:0:0:0:
380,199,34977,5,0,1:2:0:0:
380,199,35058,1,0,1:2:0:0:
380,199,35140,1,0,1:2:0:0:
231,31,35303,1,8,0:2:0:0:
283,178,35629,5,0,1:2:0:0:
316,0,35792,1,12,0:2:0:0:
215,120,35955,1,0,1:2:0:0:
384,58,36118,5,8,0:2:0:0:
146,61,36281,1,8,0:2:0:0:
207,206,36444,6,0,P|124:235|51:187,1,182,4|0,1:2|1:2,0:0:0:0:
136,137,36933,1,0,1:2:0:0:
179,304,37096,2,0,P|134:311|89:304,2,91,8|0|0,0:2|1:2|0:2,0:0:0:0:
325,250,37586,6,0,P|305:209|305:163,1,91,8|0,0:2|1:2,0:0:0:0:
364,354,37912,2,0,P|320:360|276:348,1,91,8|0,0:0|0:2,0:0:0:0:
179,304,38238,1,0,1:2:0:0:
325,250,38401,2,0,L|413:226,1,91,8|0,0:2|1:2,0:0:0:0:
344,71,38727,2,0,L|432:47,1,91,8|0,0:2|0:2,0:0:0:0:
303,164,39053,6,0,P|217:180|150:123,1,182,4|0,1:2|1:2,0:0:0:0:
243,82,39542,1,0,0:2:0:0:
68,74,39705,2,0,P|79:117|72:162,1,91,8|0,0:2|1:2,0:0:0:0:
11,264,40031,1,0,0:2:0:0:
132,237,40194,6,0,P|177:240|217:261,1,91,0|0,1:2|0:2,0:0:0:0:
376,340,40520,1,8,0:2:0:0:
376,340,40683,2,0,P|333:351|288:344,1,91,0|0,0:2|1:2,0:0:0:0:
210,185,41009,1,8,0:2:0:0:
325,254,41173,1,0,1:2:0:0:
211,349,41336,1,8,0:2:0:0:
287,182,41499,1,0,0:2:0:0:
291,179,41580,1,0,0:2:0:0:
294,177,41662,6,0,P|380:190|405:272,1,182,4|0,1:2|1:2,0:0:0:0:
353,374,42151,1,0,1:2:0:0:
202,275,42314,2,0,L|210:179,1,91,8|0,0:2|1:2,0:0:0:0:
218,66,42640,1,0,0:2:0:0:
78,82,42803,6,0,P|112:110|157:118,1,91,0|0,1:2|0:2,0:0:0:0:
346,79,43129,1,8,0:2:0:0:
268,151,43292,1,0,0:0:0:0:
460,119,43455,1,0,1:0:0:0:
460,119,43537,1,0,1:0:0:0:
460,119,43618,1,8,0:2:0:0:
346,79,43781,1,0,1:2:0:0:
282,224,43944,1,8,0:2:0:0:
218,66,44107,1,0,0:2:0:0:
127,229,44270,6,0,P|205:267|282:225,1,182,4|0,1:2|0:2,0:0:0:0:
202,171,44759,1,0,1:2:0:0:
45,173,44923,2,0,P|30:216|36:261,2,91,8|0|0,0:2|1:2|0:2,0:0:0:0:
183,359,45412,2,0,L|86:358,1,91,8|0,0:2|1:2,0:0:0:0:
272,326,45738,1,8,0:2:0:0:
272,326,45901,2,0,L|369:325,1,91,0|0,1:2|0:2,0:0:0:0:
474,166,46227,5,8,0:2:0:0:
437,366,46390,1,8,0:2:0:0:
391,160,46553,1,8,0:2:0:0:
512,329,46716,1,8,0:2:0:0:
323,215,46879,6,0,P|306:180|306:141,1,77.3500014753342,4|0,1:2|0:2,0:0:0:0:
307,57,47205,2,0,L|383:49,1,77.3500014753342,0|0,1:2|0:2,0:0:0:0:
234,20,47531,2,0,L|144:11,1,77.3500014753342,0|0,1:2|0:2,0:0:0:0:
89,64,47857,1,0,1:0:0:0:
218,109,48020,6,0,P|231:146|225:186,2,77.3500014753342,0|0|0,0:2|1:2|0:0,0:0:0:0:
54,164,48509,2,0,L|136:157,1,81.8999975006104,0|0,1:2|0:2,0:0:0:0:
108,291,48836,2,0,L|178:240,1,86.449997691536,0|0,1:2|0:2,0:0:0:0:
218,373,49162,2,0,L|254:290,1,91,0|0,1:2|0:2,0:0:0:0:
326,183,49488,6,0,P|335:219|362:247,1,77.3500014753342,4|0,1:2|0:2,0:0:0:0:
438,296,49814,1,0,1:2:0:0:
358,338,49977,1,0,0:2:0:0:
442,205,50140,2,0,P|456:169|456:131,1,77.3500014753342,0|0,1:2|0:2,0:0:0:0:
442,47,50466,1,0,1:2:0:0:
326,97,50629,6,0,P|290:111|251:110,2,77.3500014753342,0|0|0,0:2|1:2|0:0,0:0:0:0:
165,47,51118,2,0,L|160:128,1,81.8999975006104,0|0,1:2|0:2,0:0:0:0:
256,196,51444,2,0,L|251:109,1,86.449997691536,0|0,1:2|0:2,0:0:0:0:
175,201,51770,2,0,L|178:292,1,91,0|0,1:2|0:2,0:0:0:0:
57,383,52096,6,0,L|59:293,1,77.3500014753342,4|0,1:2|0:2,0:0:0:0:
135,358,52423,2,0,P|171:369|209:363,1,77.3500014753342,0|0,1:2|0:2,0:0:0:0:
290,315,52749,2,0,P|327:308|364:320,1,77.3500014753342,0|0,1:2|0:2,0:0:0:0:
443,352,53075,1,0,1:2:0:0:
443,352,53238,6,0,P|448:314|436:278,1,77.3500014753342,0|4,0:2|1:2,0:0:0:0:
368,213,53564,2,0,P|356:176|361:138,1,77.3500014753342,0|0,0:2|1:2,0:0:0:0:
415,64,53890,2,0,L|492:64,2,77.3500014753342,0|0|0,0:2|1:2|0:2,0:0:0:0:
296,29,54379,2,0,L|218:29,1,77.3500014753342,0|0,1:2|0:2,0:0:0:0:
97,150,54705,5,8,1:2:0:0:
179,242,54868,1,0,1:2:0:0:
201,242,54950,1,0,1:2:0:0:
223,243,55031,2,0,L|267:245,1,45.5,0|0,1:2|0:2,0:0:0:0:
434,218,55194,5,8,1:2:0:0:
352,126,55357,1,0,1:2:0:0:
330,126,55439,1,0,1:2:0:0:
308,125,55520,2,0,L|264:123,1,45.5,0|0,1:2|0:2,0:0:0:0:
149,76,55683,2,0,P|133:118|137:162,1,91,8|0,0:2|0:2,0:0:0:0:
206,353,56009,5,8,0:2:0:0:
263,123,56173,1,0,1:2:0:0:
282,319,56336,5,8,0:2:0:0:
219,66,56500,1,0,1:2:0:0:
111,316,56662,6,0,L|146:287,1,45.5,8|0,1:2|0:2,0:0:0:0:
266,200,56825,1,8,0:3:0:0:
284,198,56906,1,8,0:3:0:0:
302,197,56988,2,0,L|349:200,1,45.5,8|0,0:2|0:2,0:0:0:0:
467,272,57151,2,0,L|420:269,1,45.5,8|0,0:3|0:2,0:0:0:0:
282,319,57314,5,2,0:0:0:0:
282,319,57640,2,0,L|213:313,1,68.250002603531,0|0,0:2|0:2,0:0:0:0:
129,218,57966,1,2,0:0:0:0:
129,218,58292,2,0,L|134:149,1,68.250002603531,0|0,0:2|0:2,0:0:0:0:
230,65,58618,1,2,0:0:0:0:
230,65,58944,2,0,L|298:70,1,68.250002603531,0|0,0:2|0:2,0:0:0:0:
383,166,59270,1,2,0:0:0:0:
383,166,59596,2,0,L|377:234,1,68.250002603531,0|0,0:2|0:2,0:0:0:0:
213,313,59923,5,8,1:2:0:0:
372,89,60086,1,8,1:2:0:0:
352,363,60249,1,8,1:2:0:0:
230,65,60412,1,8,1:2:0:0:
230,65,60901,5,8,1:2:0:0:
71,289,61064,1,8,1:2:0:0:
91,15,61227,1,8,1:2:0:0:
213,313,61390,1,8,1:2:0:0:
220,320,61879,5,8,0:2:0:0:
220,320,61961,1,8,0:2:0:0:
220,320,62042,2,0,L|225:274,1,45.5,0|0,1:2|0:2,0:0:0:0:
227,93,62205,2,0,P|266:114|355:96,1,136.5,8|0,0:2|0:2,0:0:0:0:
498,74,62531,5,12,1:2:0:0:
354,98,62694,1,0,0:2:0:0:
455,0,62857,1,8,0:2:0:0:
478,157,63020,1,0,0:0:0:0:
333,186,63183,2,0,L|355:92,1,91,0|0,1:2|1:2,0:0:0:0:
391,300,63509,1,8,0:2:0:0:
219,257,63673,6,0,P|250:225|261:181,1,91,0|0,0:2|1:2,0:0:0:0:
276,38,63999,1,0,1:2:0:0:
173,178,64162,1,8,0:2:0:0:
60,61,64325,2,0,L|150:69,1,91,0|0,1:2|0:2,0:0:0:0:
261,180,64651,1,0,1:2:0:0:
52,239,64814,1,8,0:2:0:0:
196,340,64977,1,0,0:2:0:0:
179,332,65058,1,0,0:2:0:0:
161,323,65140,6,0,P|137:286|133:241,1,91,4|0,1:2|0:2,0:0:0:0:
253,65,65466,2,0,P|341:80|428:55,1,182,8|0,0:2|1:2,0:0:0:0:
512,166,65955,1,0,1:2:0:0:
326,239,66118,2,0,P|324:193|342:152,1,91,8|0,0:2|0:2,0:0:0:0:
447,327,66444,6,0,P|406:306|361:300,1,91,0|0,1:2|1:2,0:0:0:0:
166,342,66770,1,8,0:2:0:0:
247,182,66933,2,0,L|252:272,1,91,0|0,1:2|0:2,0:0:0:0:
139,366,67259,1,0,1:2:0:0:
106,163,67423,1,8,1:2:0:0:
11,341,67586,1,8,0:2:0:0:
37,334,67667,1,8,0:2:0:0:
62,322,67749,6,0,P|97:295|120:256,1,91,4|0,1:2|0:2,0:0:0:0:
130,66,68075,2,0,L|39:71,1,91,8|0,0:2|0:2,0:0:0:0:
193,147,68401,2,0,L|284:152,1,91,0|0,1:2|1:2,0:0:0:0:
487,153,68727,1,8,0:2:0:0:
388,62,68890,1,0,0:2:0:0:
340,234,69053,6,0,P|265:282|180:257,1,182,0|8,1:2|0:2,0:0:0:0:
96,152,69542,2,0,L|96:243,1,91,0|0,1:2|0:2,0:0:0:0:
180,358,69868,1,0,1:2:0:0:
250,174,70031,2,0,L|250:83,1,91,8|0,0:2|0:2,0:0:0:0:
449,155,70357,5,12,1:2:0:0:
171,69,70520,1,0,1:2:0:0:
445,74,70683,5,8,0:2:0:0:
168,159,70846,1,0,1:2:0:0:
476,162,71009,5,8,0:2:0:0:
144,60,71173,1,0,1:2:0:0:
473,65,71336,5,8,0:2:0:0:
238,186,71499,1,0,0:2:0:0:
456,312,71662,6,0,P|483:276|491:232,1,91,4|0,1:2|1:2,0:0:0:0:
443,42,71988,1,8,0:2:0:0:
380,195,72151,5,8,0:2:0:0:
346,211,72232,1,8,0:2:0:0:
307,215,72314,1,8,0:2:0:0:
271,207,72395,1,8,0:0:0:0:
238,186,72477,1,8,0:0:0:0:
204,167,72558,1,8,0:0:0:0:
168,159,72640,1,0,1:0:0:0:
129,163,72722,1,0,1:0:0:0:
96,180,72803,1,0,1:0:0:0:
6,358,72966,5,4,1:2:0:0:
68,207,73129,1,0,0:2:0:0:
198,373,73292,1,8,0:2:0:0:
96,309,73455,1,0,0:0:0:0:
241,163,73618,2,0,P|289:162|327:179,1,91,0|0,1:2|1:2,0:0:0:0:
413,328,73944,1,8,0:2:0:0:
269,346,74107,6,0,L|269:255,1,91,0|0,0:2|1:2,0:0:0:0:
184,122,74433,1,0,1:2:0:0:
96,309,74596,1,8,0:2:0:0:
60,164,74759,2,0,P|102:177|134:209,1,91,0|0,1:2|0:2,0:0:0:0:
210,370,75086,1,0,1:2:0:0:
320,190,75249,1,8,0:2:0:0:
380,361,75412,1,0,0:0:0:0:
380,361,75493,1,0,0:0:0:0:
380,361,75575,6,0,P|360:320|361:275,1,91,0|0,1:2|0:2,0:0:0:0:
424,69,75901,2,0,P|350:117|265:94,1,182,8|0,0:2|1:2,0:0:0:0:
172,0,76390,1,0,1:2:0:0:
170,226,76553,1,8,0:2:0:0:
95,105,76716,1,0,0:2:0:0:
244,188,76879,6,0,P|251:232|238:275,1,91,0|0,1:2|1:2,0:0:0:0:
53,369,77205,1,8,0:2:0:0:
79,220,77368,2,0,L|170:226,1,91,0|0,1:2|0:2,0:0:0:0:
315,168,77694,1,0,1:2:0:0:
194,69,77857,1,8,0:2:0:0:
396,155,78020,2,0,L|391:200,1,45.5,8|8,0:2|0:2,0:0:0:0:
368,314,78183,6,0,P|324:303|281:314,1,91,0|0,1:2|0:2,0:0:0:0:
97,361,78509,1,10,0:2:0:0:
195,236,78673,2,0,L|285:238,1,91,0|0,0:2|1:2,0:0:0:0:
326,384,78999,1,2,1:2:0:0:
195,236,79162,1,8,0:2:0:0:
309,128,79325,1,2,0:2:0:0:
309,128,79406,1,0,0:2:0:0:
309,128,79488,6,0,P|265:139|220:133,1,91,2|0,1:2|1:2,0:0:0:0:
45,46,79814,1,10,0:2:0:0:
0,177,79977,2,0,P|44:172|87:187,1,91,2|0,1:2|0:2,0:0:0:0:
167,310,80303,5,0,1:2:0:0:
158,116,80466,1,8,0:2:0:0:
112,255,80629,1,0,1:2:0:0:
314,181,80792,5,14,1:2:0:0:
167,195,80955,1,0,1:2:0:0:
167,195,81118,1,0,1:2:0:0:
277,82,81281,2,0,P|322:78|365:90,1,91,14|0,0:2|1:2,0:0:0:0:
167,195,81607,2,0,P|122:199|79:187,1,91,0|10,1:2|0:2,0:0:0:0:
261,322,81933,6,0,P|251:277|260:233,1,91,0|10,1:2|0:0,0:0:0:0:
313,52,82259,1,0,1:2:0:0:
261,234,82423,1,10,0:2:0:0:
403,42,82586,2,0,L|313:52,1,91,2|8,1:2|0:2,0:0:0:0:
496,135,82912,2,0,L|405:125,1,91,2|8,1:2|0:0,0:0:0:0:
233,34,83238,1,2,0:2:0:0:
397,301,83401,5,14,1:2:0:0:
268,133,83564,2,0,P|276:183|263:230,1,100.10000305481,2|8,1:2|0:2,0:0:0:0:
136,369,83890,1,2,1:2:0:0:
128,344,83971,1,0,1:2:0:0:
119,318,84053,2,0,P|119:268|141:223,1,100.10000305481,8|2,0:2|1:2,0:0:0:0:
369,162,84379,1,8,0:2:0:0:
142,28,84542,1,0,1:2:0:0:
364,234,84705,5,10,1:2:0:0:
137,100,84868,2,0,L|146:204,1,100.10000305481,2|8,1:2|0:2,0:0:0:0:
334,384,85194,1,2,1:2:0:0:
345,359,85276,1,0,1:2:0:0:
356,334,85357,2,0,L|365:230,1,100.10000305481,8|2,1:2|1:2,0:0:0:0:
455,7,85683,1,8,0:2:0:0:
174,77,85846,1,0,1:2:0:0:
434,329,86009,5,14,1:2:0:0:
168,106,86173,1,2,1:2:0:0:
162,135,86254,1,0,1:2:0:0:
156,164,86336,2,0,L|146:212,1,50.0500015274048,0|0,1:2|1:2,0:0:0:0:
115,351,86499,2,0,P|154:321|202:317,1,100.10000305481,14|0,1:2|1:2,0:0:0:0:
441,336,86825,5,2,1:2:0:0:
441,336,86906,1,0,1:2:0:0:
441,336,86988,1,8,0:2:0:0:
512,91,87151,1,0,1:2:0:0:
293,333,87314,5,14,0:2:0:0:
121,9,87477,1,2,1:2:0:0:
70,268,87640,1,8,0:2:0:0:
356,31,87803,1,14,1:2:0:0:
356,31,88129,5,8,1:2:0:0:
218,382,88292,1,8,1:2:0:0:
37,53,88455,1,12,1:2:0:0:
