osu file format v14

[General]
AudioFilename: audio.mp3
AudioLeadIn: 0
PreviewTime: 62450
Countdown: 0
SampleSet: Soft
StackLeniency: 0.7
Mode: 0
LetterboxInBreaks: 0
WidescreenStoryboard: 1

[Editor]
Bookmarks: 957,6740,12523,18306,21406,26010,31236,36444,41671,46879,52105,56018,59923,62531,67758,72966,78192,83410,88455
DistanceSpacing: 1.5
BeatDivisor: 4
GridSize: 8
TimelineZoom: 1.7

[Metadata]
Title:Zoetrope
TitleUnicode:Zoetrope
Artist:yanaginagi
ArtistUnicode:やなぎなぎ
Creator:Realazy
Version:Akitoshi's Advanced
Source:AMNESIA
Tags:Akitoshi _83 pyroflayer borborygmos bor yaleufeu Kyuukai Linada Kin エウアル euaru アムネシア opening
BeatmapID:1299790
BeatmapSetID:599195

[Difficulty]
HPDrainRate:4
CircleSize:3.2
OverallDifficulty:4.5
ApproachRate:6
SliderMultiplier:1.25
SliderTickRate:1

[Events]
//Background and Video events
0,0,"Asphyxia's BG.jpg",0,0
//Break Periods
//Storyboard Layer 0 (Background)
//Storyboard Layer 1 (Fail)
//Storyboard Layer 2 (Pass)
//Storyboard Layer 3 (Foreground)
//Storyboard Sound Samples

[TimingPoints]
957,722.89156626506,4,2,1,45,1,0
6378,-100,4,2,1,35,0,0
6740,-100,4,2,1,45,0,0
12161,-100,4,2,1,35,0,0
12523,-100,4,2,1,45,0,0
17944,-100,4,2,1,35,0,0
18306,750,4,2,1,45,1,0
19806,800,4,2,1,45,1,0
21406,652.173913043478,4,2,1,45,1,0
22710,750,4,2,1,45,1,0
24210,800,4,2,1,45,1,0
25010,1000,4,2,1,45,1,0
26010,326.086956521739,4,2,1,60,1,0
26010,-100,4,2,1,60,0,0
54705,-100,4,2,1,55,0,0
57314,-100,4,2,1,45,0,0
59923,-100,4,2,1,65,0,0
62531,-95.2380952380952,4,2,1,70,0,1
72395,-95.2380952380952,4,2,1,40,0,1
72477,-95.2380952380952,4,2,1,70,0,1
72558,-95.2380952380952,4,2,1,40,0,1
72803,-95.2380952380952,4,2,1,70,0,0
72966,-95.2380952380952,4,2,1,70,0,1
80629,-95.2380952380952,4,2,1,70,0,1
80792,-100,4,2,1,70,0,0
83401,-95.2380952380952,4,2,1,70,0,1
88129,-95.2380952380952,4,2,1,70,0,1
88455,-95.2380952380952,4,2,1,70,0,0

[Colours]
Combo1 : 98,81,255
Combo2 : 160,75,218
Combo3 : 232,51,55
Combo4 : 186,199,241

[HitObjects]
368,124,957,6,0,P|408:108|400:207,1,187.5,2|0,3:2|0:2,0:0:0:0:
320,204,2402,2,0,B|274:179|274:179|129:197,1,187.5,2|0,0:2|0:2,0:0:0:0:
47,209,3848,6,0,P|11:133|70:27,1,187.5,2|0,0:2|0:0,0:0:0:0:
139,22,5294,2,0,B|185:47|185:47|330:29,1,187.5,2|2,0:2|3:2,0:0:0:0:
396,83,6740,6,0,P|440:75|490:81,2,93.75,2|2|0,3:2|0:0|0:0,0:0:0:0:
317,134,8185,2,0,L|326:206,1,62.5,2|0,0:2|0:2,0:0:0:0:
234,222,8908,2,0,L|225:150,1,62.5,2|0,0:2|0:2,0:0:0:0:
147,109,9631,6,0,P|94:124|35:108,1,93.75,2|2,0:2|0:2,0:0:0:0:
20,88,10354,2,0,B|2:264|2:264|70:325,1,250,0|0,0:2|0:2,0:0:0:0:
135,363,12161,1,2,3:2:0:0:
223,331,12523,6,0,P|276:340|324:326,2,93.75,2|2|0,3:2|0:2|0:2,0:0:0:0:
165,257,13969,2,0,L|152:176,1,62.5,2|0,0:2|0:2,0:0:0:0:
65,168,14691,2,0,L|78:87,1,62.5,2|0,0:2|0:2,0:0:0:0:
143,41,15414,6,0,P|178:36|221:42,1,62.5,2|0,0:2|0:2,0:0:0:0:
292,71,16137,2,0,L|402:60,2,93.75,2|0|0,0:2|0:0|0:0,0:0:0:0:
210,240,17944,1,0,3:0:0:0:
210,240,18306,6,0,P|165:204|90:205,1,125,2|0,3:2|0:0,0:0:0:0:
31,266,19431,1,0,0:2:0:0:
62,348,19806,2,0,B|124:361|124:361|195:346,1,125,2|2,0:2|0:2,0:0:0:0:
274,321,21006,1,0,0:2:0:0:
256,192,21406,12,0,25010,0:0:0:0:
144,173,26010,6,0,L|279:160,1,125,4|0,1:2|0:2,0:0:0:0:
355,154,26499,1,0,1:2:0:0:
432,206,26662,1,8,0:2:0:0:
432,206,26825,2,0,B|449:268|449:268|434:337,1,125,0|0,1:2|1:0,0:0:0:0:
355,360,27314,5,0,0:2:0:0:
278,318,27477,2,0,L|206:326,2,62.5,8|0|0,0:2|0:2|1:2,0:0:0:0:
331,249,27966,1,8,0:2:0:0:
331,249,28129,2,0,P|348:191|317:111,1,125,0|8,1:2|0:2,0:0:0:0:
269,68,28618,6,0,L|197:60,1,62.5,4|0,1:2|0:0,0:0:0:0:
125,28,28944,2,0,L|53:36,1,62.5,0|0,1:2|0:2,0:0:0:0:
15,109,29270,1,8,0:2:0:0:
15,109,29433,2,0,P|14:173|54:227,1,125,0|0,1:2|1:2,0:0:0:0:
132,243,29923,5,0,0:2:0:0:
207,198,30086,2,0,L|198:127,2,62.5,8|0|0,0:2|0:2|1:2,0:0:0:0:
289,226,30575,2,0,L|298:155,1,62.5,12|0,0:2|1:2,0:0:0:0:
331,83,30901,1,8,0:2:0:0:
416,66,31064,1,8,0:2:0:0:
487,116,31227,6,0,L|493:243,1,125,4|0,1:2|1:2,0:0:0:0:
456,320,31716,1,0,1:2:0:0:
376,301,31879,1,8,0:2:0:0:
376,301,32042,2,0,P|334:294|288:305,1,62.5,0|0,1:0|0:0,0:0:0:0:
233,328,32368,6,0,L|91:315,1,125,0|8,1:2|0:2,0:0:0:0:
40,261,32857,2,0,P|34:229|38:195,1,62.5,0|0,0:2|1:2,0:0:0:0:
81,125,33183,1,8,0:2:0:0:
81,125,33346,2,0,B|130:136|130:136|231:125,1,125,0|8,1:2|0:2,0:0:0:0:
291,114,33836,6,0,L|304:194,1,62.5,4|0,1:2|0:0,0:0:0:0:
365,234,34162,2,0,L|352:314,1,62.5,0|0,1:2|0:2,0:0:0:0:
286,350,34488,2,0,P|252:358|205:349,2,62.5,8|0|0,0:2|1:2|0:0,0:0:0:0:
246,271,34977,6,0,B|185:260|185:260|104:275,1,125,0|8,1:2|0:2,0:0:0:0:
43,234,35466,2,0,L|34:161,1,62.5,0|0,0:0|1:2,0:0:0:0:
67,90,35792,2,0,L|140:81,1,62.5,12|0,0:2|1:2,0:0:0:0:
202,129,36118,1,8,0:2:0:0:
289,131,36281,1,8,0:2:0:0:
349,67,36444,6,0,P|398:68|460:126,1,125,4|0,1:2|1:2,0:0:0:0:
487,195,36933,1,0,1:2:0:0:
441,269,37096,2,0,L|457:330,2,62.5,8|0|0,0:2|1:2|0:2,0:0:0:0:
364,225,37586,6,0,P|306:225|243:271,1,125,8|8,0:2|0:0,0:0:0:0:
182,314,38075,2,0,L|98:307,1,62.5,0|0,0:2|1:2,0:0:0:0:
45,263,38401,2,0,P|35:229|41:197,1,62.5,8|0,0:2|1:2,0:0:0:0:
105,146,38727,2,0,P|115:112|109:80,1,62.5,8|0,0:2|0:2,0:0:0:0:
56,17,39053,6,0,P|113:38|193:11,1,125,4|0,1:2|1:2,0:0:0:0:
253,60,39542,1,0,0:2:0:0:
332,96,39705,2,0,L|396:86,2,62.5,8|0|0,0:2|1:2|0:2,0:0:0:0:
269,157,40194,6,0,P|250:218|272:293,1,125,0|8,1:2|0:2,0:0:0:0:
336,322,40683,2,0,L|401:318,1,62.5,0|0,0:2|1:2,0:0:0:0:
470,268,41009,2,0,P|480:237|477:201,1,62.5,8|0,0:2|1:2,0:0:0:0:
410,151,41336,2,0,P|400:120|403:84,1,62.5,8|0,0:2|0:2,0:0:0:0:
460,26,41662,6,0,P|400:46|338:21,2,125,4|0|8,1:2|1:2|0:2,0:0:0:0:
510,97,42477,2,0,L|502:181,1,62.5,0|0,1:2|0:2,0:0:0:0:
449,227,42803,6,0,P|389:207|327:232,1,125,0|8,1:2|0:2,0:0:0:0:
259,274,43292,2,0,L|180:276,1,62.5,0|0,0:0|1:0,0:0:0:0:
110,262,43618,2,0,P|90:235|87:195,1,62.5,8|0,0:2|1:2,0:0:0:0:
145,143,43944,2,0,P|165:116|168:76,1,62.5,8|0,0:2|0:2,0:0:0:0:
128,10,44270,6,0,P|182:37|262:21,2,125,4|0|8,1:2|0:2|0:2,0:0:0:0:
45,41,45086,2,0,L|33:113,1,62.5,0|0,1:2|0:2,0:0:0:0:
24,189,45412,1,8,0:2:0:0:
70,262,45575,6,0,P|104:269|153:252,1,62.5,0|8,1:2|0:2,0:0:0:0:
199,209,45901,2,0,P|254:189|329:212,1,125,0|8,1:2|0:2,0:0:0:0:
394,243,46390,1,8,0:2:0:0:
479,222,46553,1,8,0:2:0:0:
498,136,46716,1,8,0:2:0:0:
449,63,46879,6,0,P|387:68|330:42,1,125,4|0,1:2|1:2,0:0:0:0:
251,26,47368,1,0,0:2:0:0:
182,69,47531,2,0,L|115:62,1,62.5,0|0,1:2|0:2,0:0:0:0:
54,108,47857,1,0,1:0:0:0:
54,108,48020,6,0,P|31:167|52:235,1,125,0|0,0:2|0:2,0:0:0:0:
87,294,48509,2,0,L|163:288,1,62.5,0|0,1:2|0:2,0:0:0:0:
212,237,48836,2,0,P|249:216|350:231,1,125,0|0,1:2|1:2,0:0:0:0:
412,244,49325,1,0,0:2:0:0:
412,244,49488,6,0,L|419:109,1,125,4|0,1:2|1:2,0:0:0:0:
365,59,49977,1,0,0:2:0:0:
286,79,50140,2,0,P|256:83|214:71,1,62.5,0|0,1:2|0:2,0:0:0:0:
146,54,50466,1,0,1:2:0:0:
146,54,50629,6,0,B|124:96|124:96|130:184,1,125,0|0,0:2|0:2,0:0:0:0:
167,245,51118,2,0,P|198:238|238:243,1,62.5,0|0,1:2|0:2,0:0:0:0:
280,302,51444,2,0,P|262:251|299:177,1,125,0|0,1:2|1:2,0:0:0:0:
356,144,51933,1,0,0:2:0:0:
325,67,52096,6,0,L|189:80,2,125,4|0|0,1:2|1:2|1:2,0:0:0:0:
464,162,53075,1,0,1:2:0:0:
464,162,53238,2,0,P|474:222|455:290,1,125,0|0,0:2|0:2,0:0:0:0:
393,330,53727,1,0,1:2:0:0:
393,330,53890,2,0,P|333:320|265:339,1,125,0|0,0:2|0:2,0:0:0:0:
196,367,54379,1,0,1:2:0:0:
45,274,54705,6,0,B|32:197|32:197|53:129,1,125,8|0,1:2|1:2,0:0:0:0:
111,93,55194,2,0,P|149:130|225:132,1,125,8|0,1:2|1:2,0:0:0:0:
290,85,55683,2,0,L|377:94,1,62.5,8|0,0:2|0:2,0:0:0:0:
429,131,56009,6,0,B|446:186|446:186|427:259,1,125,8|8,0:2|0:2,0:0:0:0:
362,309,56499,1,0,1:2:0:0:
362,309,56662,2,0,L|286:312,1,62.5,8|8,1:2|0:3,0:0:0:0:
224,356,56988,2,0,L|148:353,1,62.5,8|8,0:2|0:3,0:0:0:0:
92,299,57314,5,2,0:0:0:0:
256,192,57395,12,2,59270,0:0:0:0:
156,202,59923,6,0,L|145:131,1,62.5,8|8,1:2|1:2,0:0:0:0:
58,140,60249,2,0,L|47:69,1,62.5,8|8,1:2|1:2,0:0:0:0:
300,5,60901,6,0,L|311:76,1,62.5,8|8,1:2|1:2,0:0:0:0:
398,67,61227,2,0,L|409:138,1,62.5,8|8,1:2|1:2,0:0:0:0:
291,364,61879,6,0,P|257:371|212:367,1,62.5,8|0,0:2|1:2,0:0:0:0:
142,358,62205,1,8,0:0:0:0:
12,228,62531,6,0,L|1:75,1,131.249995994568,12|8,1:2|0:2,0:0:0:0:
51,19,63020,1,0,0:0:0:0:
138,47,63183,2,0,P|183:64|268:44,1,131.249995994568,0|8,1:2|0:2,0:0:0:0:
353,30,63673,6,0,P|388:69|388:173,1,131.249995994568,0|0,0:2|1:2,0:0:0:0:
344,219,64162,1,8,0:2:0:0:
344,219,64325,2,0,L|357:304,1,65.624997997284,0|0,1:2|0:2,0:0:0:0:
445,283,64651,2,0,L|458:198,1,65.624997997284,0|8,1:2|0:2,0:0:0:0:
398,145,64977,6,0,P|337:128|277:156,1,131.249995994568,0|0,0:2|0:2,0:0:0:0:
216,224,65466,2,0,L|131:216,1,65.624997997284,8|0,0:2|0:0,0:0:0:0:
64,209,65792,1,0,1:2:0:0:
64,209,65955,1,0,1:2:0:0:
18,129,66118,2,0,P|14:93|25:58,1,65.624997997284,8|0,0:2|0:2,0:0:0:0:
104,25,66444,6,0,B|148:52|148:52|250:40,1,131.249995994568,0|8,1:2|0:2,0:0:0:0:
313,12,66933,2,0,L|389:22,1,65.624997997284,0|0,1:2|0:2,0:0:0:0:
407,107,67259,2,0,L|330:117,2,65.624997997284,0|8|8,1:2|1:2|0:2,0:0:0:0:
484,157,67749,6,0,P|504:219|474:295,1,131.249995994568,4|8,1:2|0:2,0:0:0:0:
419,343,68238,1,0,0:2:0:0:
419,343,68401,2,0,L|341:336,1,65.624997997284,0|0,1:2|1:2,0:0:0:0:
282,279,68727,2,0,L|204:286,1,65.624997997284,8|0,0:2|0:2,0:0:0:0:
150,348,69053,6,0,P|165:283|131:216,1,131.249995994568,0|8,1:2|0:2,0:0:0:0:
51,202,69542,2,0,L|65:66,1,131.249995994568,0|0,1:2|1:2,0:0:0:0:
144,27,70031,2,0,P|179:35|213:31,1,65.624997997284,8|0,0:2|0:2,0:0:0:0:
299,17,70357,6,0,L|312:89,1,65.624997997284,12|0,1:2|1:2,0:0:0:0:
395,116,70683,2,0,L|382:188,1,65.624997997284,8|0,0:2|1:2,0:0:0:0:
321,248,71009,2,0,P|285:255|246:246,1,65.624997997284,8|0,0:2|1:2,0:0:0:0:
174,207,71336,2,0,P|138:200|99:209,1,65.624997997284,8|0,0:2|0:2,0:0:0:0:
42,267,71662,6,0,P|19:209|54:133,1,131.249995994568,4|8,1:2|0:2,0:0:0:0:
110,87,72151,2,0,P|145:92|183:80,1,65.624997997284,8|8,0:2|0:2,0:0:0:0:
255,43,72477,2,0,B|305:36|305:36|336:45|336:45|391:37,1,131.249995994568,8|0,0:0|1:0,0:0:0:0:
459,90,72966,6,0,P|437:147|468:221,1,131.249995994568,4|8,1:2|0:2,0:0:0:0:
424,299,73455,1,0,0:0:0:0:
424,299,73618,2,0,P|367:277|293:308,1,131.249995994568,0|8,1:2|0:2,0:0:0:0:
212,311,74107,6,0,L|197:167,1,131.249995994568,0|0,0:2|1:2,0:0:0:0:
155,106,74596,1,8,0:2:0:0:
155,106,74759,2,0,P|119:101|85:112,1,65.624997997284,0|0,1:2|0:2,0:0:0:0:
29,177,75086,2,0,P|24:213|35:247,1,65.624997997284,0|8,1:2|0:2,0:0:0:0:
81,319,75412,6,0,L|229:310,1,131.249995994568,0|0,0:0|0:2,0:0:0:0:
297,277,75901,2,0,P|306:243|302:205,1,65.624997997284,8|0,0:2|0:0,0:0:0:0:
274,132,76227,1,0,1:2:0:0:
274,132,76390,1,0,1:2:0:0:
206,194,76553,2,0,P|172:203|134:199,1,65.624997997284,8|0,0:2|0:2,0:0:0:0:
50,191,76879,6,0,P|19:139|40:49,1,131.249995994568,0|8,1:2|0:2,0:0:0:0:
105,24,77368,2,0,L|188:15,2,65.624997997284,0|0|0,1:2|0:2|1:2,0:0:0:0:
134,111,77857,2,0,L|223:100,1,65.624997997284,8|8,0:2|0:2,0:0:0:0:
284,69,78183,6,0,B|352:52|347:110|430:90,2,131.249995994568,0|10|0,1:2|0:2|1:2,0:0:0:0:
198,103,78999,2,0,L|190:179,1,65.624997997284,2|8,1:2|0:2,0:0:0:0:
175,258,79325,1,2,0:2:0:0:
260,291,79488,6,0,L|270:382,2,65.624997997284,2|0|10,1:2|1:2|0:2,0:0:0:0:
292,205,79977,2,0,B|359:195|355:250|440:235,1,131.249995994568,2|0,1:2|1:2,0:0:0:0:
478,170,80466,1,8,0:2:0:0:
478,170,80629,1,0,1:2:0:0:
456,85,80792,6,0,L|466:8,2,62.5,14|0|0,1:2|1:2|1:2,0:0:0:0:
371,107,81281,2,0,L|294:117,1,62.5,14|0,0:2|1:2,0:0:0:0:
231,154,81607,2,0,L|154:144,1,62.5,0|10,1:2|0:2,0:0:0:0:
84,124,81933,6,0,P|123:157|121:246,1,125,0|0,1:2|1:2,0:0:0:0:
79,299,82423,1,10,0:2:0:0:
79,299,82586,2,0,L|8:303,2,62.5,2|8|2,1:2|0:2|1:2,0:0:0:0:
156,340,83075,2,0,L|227:344,1,62.5,8|2,0:0|0:2,0:0:0:0:
297,296,83401,5,14,1:2:0:0:
297,296,83564,2,0,P|359:292|428:332,2,131.249995994568,2|2|2,1:2|1:2|1:2,0:0:0:0:
224,239,84379,2,0,L|217:169,1,65.624997997284,8|0,0:2|1:2,0:0:0:0:
159,110,84705,5,10,1:2:0:0:
159,110,84868,2,0,P|97:114|28:74,2,131.249995994568,2|2|2,1:2|1:2|1:2,0:0:0:0:
224,45,85683,2,0,L|294:52,1,65.624997997284,8|0,0:2|1:2,0:0:0:0:
347,122,86009,6,0,L|417:115,2,65.624997997284,14|2|0,1:2|1:2|1:2,0:0:0:0:
284,189,86499,2,0,P|265:250|288:315,1,131.249995994568,14|2,1:2|1:2,0:0:0:0:
204,355,86988,2,0,P|170:347|119:351,1,65.624997997284,8|0,0:2|1:2,0:0:0:0:
69,287,87314,6,0,P|35:295|-16:291,2,65.624997997284,14|2|8,0:2|1:2|0:2,0:0:0:0:
137,225,87803,2,0,L|146:134,1,65.624997997284,14|0,1:2|0:0,0:0:0:0:
188,79,88129,1,8,1:2:0:0:
273,45,88292,1,8,1:2:0:0:
361,70,88455,1,12,1:2:0:0:
