osu file format v14

[General]
AudioFilename: audio.mp3
AudioLeadIn: 0
PreviewTime: 59638
Countdown: 0
SampleSet: Soft
StackLeniency: 1
Mode: 0
LetterboxInBreaks: 0
WidescreenStoryboard: 1

[Editor]
Bookmarks: 86638,95638,204950,206638
DistanceSpacing: 1
BeatDivisor: 4
GridSize: 4
TimelineZoom: 1.900005

[Metadata]
Title:Yukitoki
TitleUnicode:ユキトキ
Artist:yanaginagi
ArtistUnicode:やなぎなぎ
Creator:deetz
Version:Insane
Source:やはり俺の青春ラブコメはまちがっている。
Tags:Yanagi Nagi Yahari Ore no Seishun Love Come wa Machigatteiru. Oregairu Follow My Tracks Alternative Full Version 北川勝利 Katsutoshi Kitagawa 出羽良彰 Dewa Yoshiaki japanese anime opening op
BeatmapID:2532174
BeatmapSetID:1216983

[Difficulty]
HPDrainRate:5
CircleSize:4
OverallDifficulty:8
ApproachRate:9
SliderMultiplier:1.8
SliderTickRate:1

[Events]
//Background and Video events
0,0,"51488382_p0.jpg",0,0
//Break Periods
2,86838,94850
//Storyboard Layer 0 (Background)
//Storyboard Layer 1 (Fail)
//Storyboard Layer 2 (Pass)
//Storyboard Layer 3 (Foreground)
//Storyboard Layer 4 (Overlay)
//Storyboard Sound Samples

[TimingPoints]
1138,375,4,2,1,30,1,0
1138,-133.333333333333,4,2,1,30,0,0
9763,-133.333333333333,4,2,1,60,0,0
10138,-100,4,2,1,60,0,0
16513,-66.6666666666667,4,2,1,60,0,0
16888,-100,4,2,1,60,0,0
22138,-125,4,2,1,40,0,0
34138,-125,4,2,1,50,0,0
45763,-90.9090909090909,4,2,1,60,0,0
46138,-133.333333333333,4,2,1,35,0,0
52138,-133.333333333333,4,2,1,45,0,0
59638,-100,4,2,1,60,0,1
83638,-100,4,2,1,60,0,0
95638,-133.333333333333,4,2,1,40,0,0
107638,-125,4,2,1,50,0,0
119638,-142.857142857143,4,2,1,50,0,0
128638,-125,4,2,1,50,0,0
129200,-111.111111111111,4,2,1,50,0,0
129950,-100,4,2,1,50,0,0
133138,-100,4,2,1,50,0,1
157138,-125,4,2,1,50,0,0
178138,-100,4,2,1,50,0,0
181513,-125,4,2,1,50,0,0
182450,-100,4,2,1,50,0,0
183013,-125,4,2,1,50,0,0
184138,-100,4,2,1,50,0,0
184513,-125,4,2,1,50,0,0
185450,-100,4,2,1,50,0,0
187513,-125,4,2,1,50,0,0
188450,-100,4,2,1,50,0,0
189013,-125,4,2,1,50,0,0
190138,-100,4,2,1,50,0,0
190513,-125,4,2,1,50,0,0
191450,-100,4,2,1,50,0,0
206638,-133.333333333333,4,2,1,30,0,0
227638,-100,4,2,1,40,0,0
230638,-100,4,2,1,60,0,1
254638,-100,4,2,1,60,0,0
261013,-66.6666666666667,4,2,1,60,0,0
261388,-100,4,2,1,60,0,0

[Colours]
Combo1 : 255,94,55
Combo2 : 173,255,95
Combo3 : 17,254,176
Combo4 : 255,88,100

[HitObjects]
61,118,1138,6,0,P|61:63|63:29,1,67.5000025749208,2|0,0:3|0:0,0:0:0:0:
130,156,1513,2,0,P|130:211|128:245,1,67.5000025749208,2|2,0:0|0:0,0:0:0:0:
205,126,1888,2,0,P|219:64|299:42,1,135.000005149842,2|0,0:0|0:0,0:0:0:0:
346,71,2450,1,0,0:0:0:0:
465,195,2638,6,0,P|435:239|422:264,1,67.5000025749208,2|0,0:3|0:0,0:0:0:0:
442,329,3013,2,0,P|488:344|525:352,1,67.5000025749208,2|2,0:0|0:0,0:0:0:0:
364,301,3388,2,0,P|321:295|222:294,1,135.000005149842,2|0,0:0|0:0,0:0:0:0:
229,293,4138,6,0,P|237:334|238:362,1,67.5000025749208,2|0,0:3|0:0,0:0:0:0:
152,276,4513,2,0,P|119:272|76:273,1,67.5000025749208,2|2,0:0|0:0,0:0:0:0:
197,213,4888,2,0,P|168:165|91:154,1,135.000005149842,2|0,0:0|0:0,0:0:0:0:
25,180,5450,1,0,0:0:0:0:
122,30,5638,5,4,0:2:0:0:
256,192,5731,12,2,8075,0:0:0:0:
265,96,9763,6,0,P|324:102|355:102,1,67.5000025749208,8|8,0:0|0:0,0:0:0:0:
379,110,10044,1,8,0:0:0:0:
379,110,10138,2,0,P|402:53|510:64,2,180,4|8|0,0:1|0:0|0:0,0:0:0:0:
378,251,11075,1,2,0:0:0:0:
453,166,11262,1,8,0:0:0:0:
278,222,11450,2,0,P|296:263|308:307,1,90,2|0,0:0|0:0,0:0:0:0:
304,96,11825,2,0,P|258:89|216:76,1,90,0|8,0:3|0:0,0:0:0:0:
78,296,12200,5,2,0:1:0:0:
202,238,12388,1,0,0:0:0:0:
66,191,12575,1,8,0:3:0:0:
159,243,12763,1,8,0:0:0:0:
197,151,12951,1,4,0:3:0:0:
42,83,13138,5,4,0:2:0:0:
42,83,13513,2,0,P|114:61|130:56,1,90,8|2,0:0|0:0,0:0:0:0:
259,22,13888,1,2,0:0:0:0:
386,149,14075,1,2,0:0:0:0:
243,228,14263,1,10,0:0:0:0:
358,69,14450,6,0,B|405:42|405:42|479:64|471:177,1,180,4|4,0:0|0:3,0:0:0:0:
455,229,15013,1,8,0:0:0:0:
432,379,15200,5,4,0:0:0:0:
481,224,15388,1,2,0:0:0:0:
324,184,15575,1,8,0:3:0:0:
373,29,15763,1,8,0:0:0:0:
452,115,15950,1,2,0:0:0:0:
245,86,16138,6,0,L|211:77,5,30
229,163,16513,6,0,B|174:147|174:147|128:147|108:206,1,135.000005149842,4|0,0:2|0:0,0:0:0:0:
113,337,16888,1,0,0:0:0:0:
200,310,17075,2,0,P|254:300|301:296,1,90,0|8,0:0|0:0,0:0:0:0:
139,78,17450,2,0,P|100:37|-3:87,1,180,4|4,0:3|0:3,0:0:0:0:
25,156,18013,5,8,0:0:0:0:
42,274,18200,1,2,0:0:0:0:
133,198,18388,1,8,0:3:0:0:
258,349,18575,5,2,0:1:0:0:
248,142,18763,1,8,0:0:0:0:
138,231,18950,1,2,0:1:0:0:
369,258,19138,5,4,0:0:0:0:
369,258,19325,1,0,0:0:0:0:
375,338,19513,1,8,0:0:0:0:
442,177,19700,2,0,P|475:225|459:353,1,180,4|4,0:0|0:3,0:0:0:0:
283,270,20263,1,8,0:0:0:0:
163,151,20450,6,0,P|166:81|283:48,1,180,4|0,0:0|0:0,0:0:0:0:
212,318,21013,2,0,P|146:303|108:299,1,90,8|0,0:0|0:0,0:0:0:0:
65,228,21388,5,4,0:0:0:0:
117,377,21575,1,8,0:3:0:0:
269,195,21763,1,8,0:0:0:0:
184,233,21950,1,4,0:3:0:0:
350,359,22138,5,4,0:1:0:0:
350,359,22513,2,0,P|411:358|438:361,1,72,8|0,0:0|0:0,0:0:0:0:
501,355,22888,1,2,0:0:0:0:
386,277,23075,2,0,P|371:217|361:192,1,72,4|8,0:3|0:0,0:0:0:0:
512,147,23450,5,4,0:3:0:0:
475,218,23638,1,0,0:0:0:0:
368,72,23825,2,8,P|406:69|448:59,1,72,4|8,0:3|0:0,0:3:0:0:
424,145,24200,1,4,0:3:0:0:
289,228,24388,2,0,P|227:196|216:127,1,144,4|8,0:3|0:0,0:0:0:0:
231,49,24950,1,8,0:3:0:0:
77,35,25138,6,0,B|63:96|106:106|89:181,1,144,4|8,0:0|0:0,0:0:0:0:
41,325,25700,1,0,0:3:0:0:
11,231,25888,1,2,0:0:0:0:
151,304,26075,2,0,P|126:367|124:384,1,72,4|8,0:3|0:0,0:0:0:0:
181,224,26450,5,4,0:3:0:0:
324,315,26638,1,0,0:3:0:0:
239,350,26825,2,0,P|242:298|241:256,1,72,4|8,0:3|0:0,0:0:0:0:
257,155,27200,1,4,0:3:0:0:
135,81,27388,6,0,P|86:94|59:100,1,72,4|4,0:3|0:3,0:0:0:0:
228,22,27763,1,8,0:0:0:0:
228,22,28138,6,0,P|284:17|326:47,1,108,4|0,0:0|0:0,0:0:0:0:
327,83,28513,2,0,P|390:92|418:95,1,72,8|0,0:0|0:0,0:0:0:0:
465,37,28888,5,2,0:0:0:0:
374,177,29075,2,0,P|338:181|302:186,1,72,4|8,0:3|0:0,0:0:0:0:
475,265,29450,5,4,0:3:0:0:
371,335,29638,2,0,P|406:339|442:344,1,72,0|4,0:0|0:3,0:0:0:0:
249,305,30013,2,0,P|260:362|262:386,1,72,8|4,0:0|0:3,0:0:0:0:
365,229,30388,2,0,P|334:173|258:173,1,144,4|8,0:3|0:0,0:0:0:0:
201,229,30950,1,8,0:0:0:0:
77,121,31138,6,0,P|108:65|184:65,1,144,4|8,0:0|0:0,0:0:0:0:
189,154,31700,1,2,0:0:0:0:
178,309,31888,1,2,0:0:0:0:
62,276,32075,2,0,P|66:240|66:204,1,72,4|8,0:3|0:0,0:0:0:0:
277,235,32450,6,0,P|285:306|267:375,1,144,4|4,0:0|0:3,0:0:0:0:
177,384,33013,1,8,0:0:0:0:
391,294,33200,2,0,P|431:286|467:282,1,72,4|0,0:0|0:0,0:0:0:0:
216,178,33575,1,8,0:0:0:0:
216,178,33669,1,8,0:0:0:0:
216,178,33763,2,0,P|181:166|146:158,1,72,8|4,0:0|0:3,0:0:0:0:
410,69,34138,5,4,0:1:0:0:
410,69,34513,1,8,0:0:0:0:
335,121,34700,1,8,0:3:0:0:
429,153,34888,1,2,0:0:0:0:
338,253,35075,2,0,P|293:237|266:234,1,72,4|8,0:3|0:0,0:0:0:0:
164,21,35450,5,4,0:3:0:0:
260,61,35638,1,0,0:0:0:0:
225,159,35825,1,2,0:0:0:0:
135,32,36013,5,8,0:0:0:0:
231,72,36201,1,8,0:3:0:0:
196,170,36388,2,0,P|147:179|116:190,1,72,0|4,0:0|0:3,0:0:0:0:
32,210,36763,1,8,0:0:0:0:
173,261,36950,5,0,0:0:0:0:
34,354,37138,2,0,B|85:332|121:368|176:346,1,144,4|8,0:2|0:0,0:0:0:0:
270,236,37700,5,8,0:3:0:0:
341,376,37888,1,0,0:0:0:0:
310,216,38075,2,0,P|291:289|289:307,1,72,2|8,0:1|0:0,0:0:0:0:
92,204,38450,2,2,P|84:136|160:88,1,144,2|4,0:1|0:3,0:1:0:0:
216,90,39013,1,8,0:0:0:0:
394,225,39200,5,2,0:1:0:0:
463,103,39388,1,0,0:0:0:0:
336,160,39575,1,8,0:3:0:0:
333,25,39763,2,0,P|374:36|413:39,1,72,2|4,1:1|0:3,0:0:0:0:
512,226,40138,6,0,P|482:271|377:276,1,144,4|8,0:0|0:0,0:0:0:0:
338,345,40700,1,4,0:3:0:0:
261,310,40888,1,0,0:0:0:0:
221,170,41075,5,4,0:3:0:0:
94,280,41263,1,8,0:0:0:0:
196,348,41450,1,2,0:0:0:0:
123,202,41638,6,0,P|87:179|-4:217,1,144,4|8,0:2|0:0,0:0:0:0:
173,270,42200,1,4,0:3:0:0:
24,376,42388,2,0,P|59:368|94:362,1,72,0|2,0:3|0:3,0:3:0:0:
251,248,42763,1,8,0:0:0:0:
274,221,42856,1,2,0:2:0:0:
285,187,42950,1,2,0:2:0:0:
282,151,43044,1,2,0:2:0:0:
264,120,43138,6,0,P|217:108|123:91,1,144,4|8,0:0|0:0,0:0:0:0:
43,0,43700,1,4,0:3:0:0:
32,170,43888,2,0,P|68:205|150:172,1,144,4|8,0:2|0:0,0:0:0:0:
215,27,44450,1,4,0:3:0:0:
216,222,44638,6,0,P|216:268|213:324,1,72,4|0,0:2|0:0,0:0:0:0:
412,146,45013,1,8,0:0:0:0:
293,256,45200,1,4,0:3:0:0:
424,356,45388,1,8,0:0:0:0:
323,248,45575,1,4,0:3:0:0:
512,232,45763,1,4,0:3:0:0:
512,232,45856,2,4,P|461:250|407:279,1,99.0000030212403,4|4,0:3|0:3,0:3:0:0:
401,245,46138,5,4,0:2:0:0:
401,245,46513,1,8,0:2:0:0:
401,245,46888,2,0,P|357:259|328:265,1,67.5000025749208
263,281,47263,1,8,0:0:0:0:
210,229,47450,2,0,P|153:253|154:326,1,135.000005149842,4|0,0:3|0:0,0:0:0:0:
206,367,48013,1,8,0:0:0:0:
75,365,48200,2,0,P|63:324|52:294,1,67.5000025749208,4|0,0:3|0:0,0:0:0:0:
101,152,48575,2,0,P|90:184|81:217,1,67.5000025749208,0|8,0:0|0:0,0:0:0:0:
15,159,48950,1,0,0:0:0:0:
0,0,49138,5,4,0:2:0:0:
41,77,49325,2,0,P|80:73|131:70,1,67.5000025749208,6|2,0:3|0:0,0:0:0:0:
197,74,49700,5,0,0:0:0:0:
295,46,49888,1,2,0:2:0:0:
393,70,50075,1,2,0:2:0:0:
491,46,50263,1,2,0:2:0:0:
481,203,50450,6,0,P|430:192|360:264,1,135.000005149842,4|0,0:2|0:0,0:0:0:0:
408,352,51013,1,8,0:0:0:0:
276,276,51200,2,0,P|270:323|263:353,1,67.5000025749208,2|2,0:0|0:0,0:0:0:0:
125,349,51575,1,8,0:0:0:0:
125,349,51669,1,8,0:0:0:0:
125,349,51763,2,0,P|119:302|112:272,1,67.5000025749208,8|4,0:0|0:3,0:0:0:0:
59,68,52138,5,4,0:0:0:0:
59,68,52513,2,0,P|96:73|138:77,1,67.5000025749208,8|0,0:0|0:0,0:0:0:0:
279,79,52888,1,0,0:0:0:0:
163,169,53076,1,4,0:3:0:0:
205,20,53263,1,8,0:0:0:0:
288,200,53450,6,0,P|331:222|418:186,1,135.000005149842,4|4,0:3|0:3,0:0:0:0:
438,120,54013,1,8,0:0:0:0:
441,285,54200,2,0,P|392:300|372:312,1,67.5000025749208,4|0,0:2|0:0,0:0:0:0:
273,101,54575,2,0,P|320:121|343:124,1,67.5000025749208,4|8,0:3|0:0,0:0:0:0:
220,246,54950,1,8,0:3:0:0:
72,159,55138,6,0,P|43:194|58:300,1,135.000005149842,4|0,0:0|0:0,0:0:0:0:
140,346,55700,1,2,0:0:0:0:
140,346,55794,1,2,0:0:0:0:
140,346,55888,1,8,0:0:0:0:
381,266,56075,1,2,0:0:0:0:
381,266,56169,1,2,0:0:0:0:
381,266,56263,1,8,0:0:0:0:
233,384,56450,5,8,0:0:0:0:
233,384,56544,1,8,0:0:0:0:
233,384,56638,1,8,0:0:0:0:
257,157,56825,1,8,0:0:0:0:
257,157,56919,1,8,0:0:0:0:
257,157,57013,1,8,0:0:0:0:
99,250,57200,1,8,0:0:0:0:
99,250,57294,1,8,0:0:0:0:
99,250,57388,1,8,0:0:0:0:
399,117,57575,5,8,0:0:0:0:
200,259,57763,1,8,0:0:0:0:
442,367,57950,1,8,0:0:0:0:
98,370,59638,5,4,0:1:0:0:
305,308,59825,1,0,0:0:0:0:
142,375,60013,1,8,0:0:0:0:
93,198,60200,1,0,0:0:0:0:
229,249,60388,2,0,P|223:312|214:346,1,90,4|0,0:3|0:0,0:0:0:0:
54,291,60763,1,8,0:0:0:0:
294,168,60950,6,0,P|261:89|175:81,1,180,4|4,0:2|0:3,0:0:0:0:
100,42,61513,1,8,0:0:0:0:
215,331,61700,2,0,P|259:294|301:276,1,90,4|0,0:3|0:0,0:0:0:0:
45,131,62075,5,4,0:3:0:0:
24,241,62263,1,2,0:0:0:0:
123,191,62450,1,2,0:0:0:0:
187,383,62638,5,4,0:0:0:0:
79,338,62825,1,0,0:0:0:0:
153,113,63013,1,8,0:0:0:0:
267,230,63200,1,0,0:0:0:0:
267,230,63294,1,8,0:0:0:0:
267,230,63388,2,0,P|254:279|250:321,1,90,4|4,0:3|0:3,0:0:0:0:
120,272,63763,1,8,0:0:0:0:
265,97,63950,6,8,P|228:35|104:50,1,180,4|4,0:0|0:3,0:0:0:0:
79,110,64513,1,8,0:0:0:0:
52,370,64700,5,4,0:0:0:0:
52,370,65075,1,4,0:0:0:0:
176,309,65263,1,8,0:0:0:0:
90,384,65450,1,8,0:0:0:0:
66,181,65638,5,4,0:0:0:0:
220,371,65825,2,0,P|272:358|315:352,1,90,0|8,0:3|0:0,0:0:0:0:
387,123,66200,2,4,P|343:102|230:149,1,180,4|4,0:3|0:3,0:3:0:0:
293,244,66763,2,0,P|355:255|400:259,1,90,8|0,0:0|0:0,0:0:0:0:
485,210,67138,5,4,0:0:0:0:
252,319,67325,2,0,P|200:306|157:300,1,90,0|8,0:3|0:0,0:0:0:0:
85,71,67700,2,4,P|129:50|242:97,1,180,4|4,0:3|0:3,0:3:0:0:
179,192,68263,2,0,P|117:203|72:207,1,90,8|0,0:0|0:0,0:0:0:0:
1,217,68638,5,4,0:0:0:0:
55,369,68825,1,4,0:3:0:0:
148,278,69013,1,8,0:0:0:0:
179,384,69200,5,0,0:0:0:0:
179,384,69294,1,8,0:0:0:0:
179,384,69388,1,0,0:0:0:0:
46,290,69575,1,8,0:3:0:0:
250,201,69763,1,8,0:0:0:0:
136,68,69950,2,0,B|86:51|86:51|40:101|78:179,1,180,4|4,0:0|0:3,0:0:0:0:
146,225,70513,1,8,0:0:0:0:
323,108,70700,2,0,P|387:93|479:187,1,180,4|4,0:0|0:3,0:0:0:0:
457,200,71169,1,8,0:0:0:0:
457,200,71263,1,8,0:0:0:0:
286,326,71450,5,8,0:0:0:0:
286,326,71544,1,8,0:0:0:0:
286,326,71638,1,4,0:1:0:0:
444,361,71825,1,0,0:0:0:0:
357,183,72013,1,8,0:0:0:0:
238,358,72200,1,0,0:0:0:0:
161,195,72388,2,0,P|204:206|249:210,1,90,4|0,0:3|0:3,0:0:0:0:
45,302,72763,1,8,0:0:0:0:
187,103,72950,6,4,P|142:68|40:124,1,180,4|4,0:2|0:3,0:3:0:0:
79,276,73513,1,8,0:0:0:0:
263,348,73700,2,4,P|315:326|318:210,1,180,4|4,0:2|0:3,0:3:0:0:
327,68,74263,2,0,P|376:84|419:90,1,90,8|0,0:0|0:0,0:0:0:0:
512,68,74638,5,4,0:0:0:0:
442,280,74825,1,0,0:0:0:0:
380,165,75013,1,8,0:0:0:0:
497,116,75200,1,0,0:0:0:0:
497,116,75294,1,8,0:0:0:0:
497,116,75388,2,0,P|482:164|472:207,1,90,4|4,0:3|0:3,0:0:0:0:
344,262,75763,1,8,0:0:0:0:
183,177,75950,6,0,P|145:224|192:330,1,180,4|4,0:0|0:3,0:0:0:0:
333,305,76513,1,8,0:0:0:0:
295,127,76700,2,0,P|246:111|158:81,1,135,4|0,0:0|0:0,0:0:0:0:
122,69,77075,1,4,0:3:0:0:
94,243,77263,1,8,0:0:0:0:
0,167,77450,1,8,0:0:0:0:
37,323,77638,5,4,0:0:0:0:
168,171,77825,2,0,P|177:234|175:277,1,90,0|8,0:3|0:0,0:0:0:0:
5,93,78200,2,4,P|29:41|158:32,1,180,4|4,0:3|0:3,0:3:0:0:
254,219,78763,2,0,P|254:263|262:308,1,90,8|0,0:0|0:0,0:0:0:0:
475,61,79138,5,4,0:0:0:0:
344,213,79325,2,0,P|335:150|337:107,1,90,0|8,0:3|0:0,0:0:0:0:
507,291,79700,2,4,P|483:343|354:352,1,180,4|4,0:3|0:3,0:3:0:0:
258,165,80263,2,0,P|257:120|249:75,1,90,8|0,0:0|0:0,0:0:0:0:
37,323,80638,5,4,0:0:0:0:
167,375,80825,2,0,P|219:379|271:387,1,90,4|8,0:3|0:0,0:0:0:0:
347,167,81200,1,0,0:0:0:0:
347,167,81294,1,8,0:0:0:0:
347,167,81388,1,0,0:0:0:0:
225,308,81575,1,4,0:3:0:0:
382,369,81763,1,8,0:0:0:0:
210,219,81950,2,4,B|160:191|160:191|87:201|66:313,1,180,4|4,0:3|0:3,0:3:0:0:
100,363,82513,5,8,0:0:0:0:
29,118,82700,1,8,0:3:0:0:
135,333,82888,2,0,P|196:334|237:339,1,90,8|4,0:0|0:3,0:0:0:0:
466,205,83263,5,8,0:0:0:0:
466,205,83638,1,4,0:1:0:0:
256,192,83731,12,2,86638,0:0:0:0:
73,176,95450,5,0,0:0:0:0:
94,97,95638,2,0,P|166:88|246:126,1,135.000005149842,4|0,0:0|0:0,0:0:0:0:
282,164,96200,1,2,0:0:0:0:
347,116,96388,2,0,P|393:106|422:102,1,67.5000025749208,2|0,0:0|0:0,0:0:0:0:
453,173,96763,1,0,0:0:0:0:
374,312,96950,5,2,0:0:0:0:
474,252,97138,2,0,P|466:284|458:317,1,67.5000025749208,2|0,0:0|0:0,0:0:0:0:
328,237,97513,1,0,0:0:0:0:
346,330,97700,5,2,0:0:0:0:
233,328,97888,2,0,P|196:315|165:308,1,67.5000025749208,2|0,0:0|0:0,0:0:0:0:
66,278,98263,1,2,0:3:0:0:
66,278,98638,6,0,P|46:229|86:159,1,135.000005149842,4|0,0:2|0:0,0:0:0:0:
163,160,99200,1,2,0:0:0:0:
147,80,99388,2,0,P|101:61|76:49,1,67.5000025749208,2|0,0:0|0:0,0:0:0:0:
279,97,99763,1,0,0:0:0:0:
223,43,99950,5,2,0:0:0:0:
240,172,100138,2,0,P|273:175|306:180,1,67.5000025749208,2|0,0:0|0:0,0:0:0:0:
432,118,100513,2,0,P|388:121|357:130,1,67.5000025749208,0|2,0:0|0:0,0:0:0:0:
363,232,100888,1,2,0:0:0:0:
469,265,101075,1,2,0:3:0:0:
378,335,101263,1,2,0:3:0:0:
378,335,101638,6,0,P|323:323|231:322,1,135.000005149842,4|0,0:0|0:0,0:0:0:0:
171,356,102200,1,2,0:0:0:0:
65,290,102388,2,0,P|59:336|54:369,1,67.5000025749208,2|0,0:0|0:0,0:0:0:0:
169,252,102763,2,0,P|163:202|152:165,1,67.5000025749208,0|0,0:0|0:3,0:0:0:0:
123,9,103138,5,4,0:2:0:0:
203,43,103325,1,0,0:0:0:0:
138,102,103513,1,0,0:0:0:0:
250,157,103700,1,2,0:0:0:0:
303,38,103888,2,0,P|336:36|370:38,1,67.5000025749208,2|0,0:0|0:3,0:3:0:0:
433,166,104263,1,2,0:3:0:0:
433,166,104638,6,0,P|448:213|421:314,1,135.000005149842,4|0,0:0|0:0,0:0:0:0:
322,373,105200,1,2,0:0:0:0:
290,292,105388,2,0,P|347:294|381:294,1,67.5000025749208,2|0,0:0|0:0,0:0:0:0:
222,345,105763,1,0,0:0:0:0:
151,247,105950,5,4,0:2:0:0:
80,352,106138,1,0,0:0:0:0:
161,281,106325,1,4,0:3:0:0:
161,281,106700,2,0,P|96:273|79:274,1,67.5000025749208,2|0,0:0|0:0,0:0:0:0:
25,108,107075,5,8,0:0:0:0:
25,108,107169,1,8,0:0:0:0:
25,108,107263,1,8,0:0:0:0:
247,66,107450,1,8,0:0:0:0:
117,42,107638,6,0,P|101:96|126:184,1,144,4|8,1:0|0:0,0:0:0:0:
199,179,108200,1,2,0:0:0:0:
325,237,108388,1,0,0:0:0:0:
207,381,108575,5,4,0:3:0:0:
288,315,108763,1,8,0:0:0:0:
177,255,108950,1,4,0:3:0:0:
110,366,109138,6,0,P|75:357|39:356,1,72,0|4,0:0|0:3,0:0:0:0:
24,213,109513,2,0,P|57:211|94:203,1,72,8|0,0:0|0:0,0:0:0:0:
191,63,109888,2,0,P|169:27|57:21,1,144,4|8,0:3|0:0,0:0:0:0:
2,69,110450,1,2,0:0:0:0:
123,279,110638,6,0,P|192:278|239:226,1,144,4|8,0:0|0:0,0:0:0:0:
282,139,111200,1,2,0:0:0:0:
366,221,111388,1,0,0:0:0:0:
508,147,111575,5,4,0:3:0:0:
450,234,111763,1,8,0:0:0:0:
356,171,111950,1,4,0:3:0:0:
441,59,112138,6,0,P|430:106|426:142,1,72,0|4,0:0|0:3,0:0:0:0:
296,286,112513,2,0,P|287:251|281:215,1,72,8|0,0:0|0:0,0:0:0:0:
226,0,112888,1,4,0:3:0:0:
155,170,113075,1,4,0:3:0:0:
321,104,113263,1,8,0:0:0:0:
321,104,113638,6,0,B|280:76|280:76|229:71|177:121,1,144,4|8,0:0|0:0,0:0:0:0:
0,94,114200,1,4,0:3:0:0:
134,171,114388,1,0,0:0:0:0:
111,75,114575,1,4,0:3:0:0:
35,223,114763,1,8,0:0:0:0:
62,145,114950,5,4,0:3:0:0:
112,253,115138,2,0,P|166:276|243:225,1,144,4|8,0:0|0:0,0:0:0:0:
276,154,115700,1,4,0:3:0:0:
450,146,115888,5,0,0:0:0:0:
321,227,116075,1,4,0:3:0:0:
410,319,116263,2,0,P|413:270|419:236,1,72,8|0,0:0|0:0,0:0:0:0:
427,64,116638,6,0,P|394:25|302:43,1,144,4|8,0:2|0:0,0:0:0:0:
260,107,117200,1,4,0:3:0:0:
148,39,117388,5,0,0:0:0:0:
43,132,117575,1,4,0:3:0:0:
130,74,117763,2,0,P|143:132|146:161,1,72,8|0,0:0|0:0,0:0:0:0:
212,309,118138,6,0,P|179:348|87:330,1,144,4|8,0:0|0:0,0:0:0:0:
69,253,118700,1,8,0:0:0:0:
69,253,118794,1,8,0:0:0:0:
69,253,118888,1,8,0:0:0:0:
285,213,119075,1,8,0:0:0:0:
175,144,119263,1,8,0:0:0:0:
283,355,119450,1,8,0:0:0:0:
367,287,119638,6,0,P|402:286|441:283,1,62.9999980773926,4|0,0:0|0:0,0:0:0:0:
478,210,120013,2,0,P|446:207|415:207,1,62.9999980773926
350,130,120388,2,0,P|385:129|424:126,1,62.9999980773926,2|0,0:0|0:0,0:0:0:0:
468,75,120763,1,2,0:0:0:0:
351,20,120950,2,0,P|304:25|265:90,1,125.999996154785,2|0,0:0|0:0,0:0:0:0:
274,163,121513,1,0,0:0:0:0:
166,186,121700,6,0,P|132:181|91:177,1,62.9999980773926,2|0,0:0|0:0,0:0:0:0:
56,96,122075,2,0,P|90:71|162:82,1,94.499997116089,2|0,0:0|0:0,0:0:0:0:
182,84,122450,1,8,0:0:0:0:
41,232,122638,5,2,0:0:0:0:
98,290,122825,2,0,P|140:284|186:282,1,62.9999980773926
226,245,123200,2,0,P|279:251|299:317,1,125.999996154785,2|0,0:0|0:0,0:0:0:0:
342,376,123763,1,2,0:0:0:0:
472,286,123950,6,0,B|456:228|486:230|467:149,1,125.999996154785,2|0,0:0|0:0,0:0:0:0:
468,85,124513,1,0,0:0:0:0:
360,31,124700,5,2,0:0:0:0:
360,31,125075,1,2,0:0:0:0:
276,2,125263,1,2,0:0:0:0:
245,109,125450,1,8,0:0:0:0:
112,38,125638,6,0,P|65:39|27:117,2,125.999996154785,4|0|2,0:0|0:0|0:0,0:0:0:0:
196,45,126575,1,2,0:0:0:0:
86,205,126763,1,2,0:0:0:0:
210,139,126950,2,0,P|240:146|269:159,1,62.9999980773926,2|0,0:0|0:0,0:0:0:0:
257,326,127325,2,0,P|226:333|197:346,1,62.9999980773926,2|0,0:0|0:0,0:0:0:0:
26,270,127700,2,8,P|54:283|84:292,1,62.9999980773926,2|0,0:0|0:0,0:0:0:0:
318,221,128075,5,2,0:0:0:0:
173,260,128263,1,8,0:0:0:0:
173,260,128638,6,0,P|170:209|168:159,1,72,4|0,0:0|0:0,0:0:0:0:
96,129,129013,1,8,0:0:0:0:
305,40,129200,5,4,0:0:0:0:
256,204,129388,1,2,0:0:0:0:
170,77,129575,1,2,0:0:0:0:
94,186,129763,1,2,0:0:0:0:
13,20,129950,5,4,0:0:0:0:
205,112,130138,1,8,0:0:0:0:
18,233,130325,1,8,0:0:0:0:
96,77,130513,1,8,0:0:0:0:
218,284,130700,2,0,P|172:293|109:308,1,90,4|0,0:0|0:0,0:0:0:0:
11,149,131075,5,8,0:0:0:0:
157,384,131263,1,8,0:0:0:0:
357,154,131450,1,8,0:0:0:0:
357,154,132575,5,4,0:3:0:0:
462,360,132763,1,8,0:0:0:0:
462,360,133138,6,0,B|425:322|425:322|361:313|303:364,1,180,4|8,0:1|0:0,0:0:0:0:
80,254,133700,1,0,0:0:0:0:
80,254,133794,1,8,0:0:0:0:
80,254,133888,1,0,0:0:0:0:
237,315,134075,1,4,0:3:0:0:
98,358,134263,1,8,0:0:0:0:
234,191,134450,6,0,P|242:144|243:92,1,90,4|0,0:0|0:0,0:0:0:0:
15,124,134825,2,0,P|74:149|120:153,1,90,4|8,0:3|0:0,0:0:0:0:
347,79,135200,2,4,P|310:20|199:10,1,180,4|4,0:3|0:3,0:3:0:0:
52,37,135763,1,2,0:0:0:0:
166,78,135950,1,2,0:0:0:0:
138,285,136138,5,4,0:0:0:0:
99,152,136325,1,0,0:0:0:0:
269,175,136513,1,8,0:0:0:0:
194,343,136700,1,0,0:0:0:0:
27,301,136888,2,0,P|30:244|36:197,1,90,4|4,0:3|0:3,0:0:0:0:
169,213,137263,1,8,0:0:0:0:
286,384,137450,6,4,P|338:339|309:239,1,180,4|4,2:2|0:3,0:3:0:0:
259,168,138013,1,8,0:0:0:0:
414,23,138200,5,4,0:2:0:0:
414,23,138575,1,4,0:0:0:0:
398,175,138763,1,8,0:0:0:0:
447,43,138950,1,8,0:0:0:0:
308,158,139138,5,4,0:0:0:0:
423,275,139325,2,0,P|467:268|512:262,1,90,0|8,0:0|0:0,0:0:0:0:
260,88,139700,2,4,P|208:68|99:139,1,180,4|4,0:3|0:3,0:3:0:0:
15,176,140263,2,0,P|26:243|31:288,1,90,8|0,0:0|0:0,0:0:0:0:
355,303,140638,5,4,0:0:0:0:
218,377,140825,2,0,P|173:369|129:363,1,90,0|8,0:0|0:0,0:0:0:0:
231,193,141200,2,4,P|271:154|396:183,1,180,4|4,0:3|0:3,0:3:0:0:
421,264,141763,2,0,P|430:314|438:353,1,90,8|0,0:0|0:0,0:0:0:0:
489,209,142138,5,4,0:0:0:0:
289,347,142325,1,0,0:0:0:0:
252,225,142513,1,8,0:0:0:0:
342,265,142700,5,0,0:0:0:0:
342,265,142794,1,8,0:0:0:0:
342,265,142888,1,0,0:3:0:0:
200,325,143075,1,8,0:3:0:0:
134,123,143263,1,8,0:0:0:0:
370,185,143450,2,4,B|360:138|360:138|309:91|226:126,1,180,4|4,0:2|0:3,0:3:0:0:
160,200,144013,1,8,0:0:0:0:
25,315,144200,6,8,P|72:359|196:312,1,180,12|4,0:2|0:3,0:0:0:0:
204,303,144669,1,8,0:0:0:0:
204,303,144763,1,8,0:0:0:0:
112,27,144950,5,8,0:0:0:0:
112,27,145044,1,8,0:0:0:0:
112,27,145138,1,4,1:0:0:0:
118,187,145325,1,0,0:0:0:0:
277,98,145513,1,8,0:0:0:0:
141,149,145700,1,0,0:0:0:0:
258,237,145888,2,0,P|302:242|346:250,1,90,4|0,0:3|0:0,0:0:0:0:
436,125,146263,1,8,0:0:0:0:
474,341,146450,6,4,P|396:378|326:328,1,180,4|4,0:3|0:3,0:3:0:0:
245,106,147013,1,8,0:0:0:0:
157,251,147200,2,0,P|115:241|68:233,1,90,4|0,0:3|0:3,0:0:0:0:
17,151,147575,5,4,0:3:0:0:
201,320,147763,1,8,0:0:0:0:
53,356,147950,1,0,0:0:0:0:
208,192,148138,6,0,P|252:185|296:174,1,90,4|0,0:0|0:0,0:0:0:0:
441,278,148513,1,8,0:0:0:0:
317,368,148700,1,0,0:0:0:0:
317,368,148794,1,8,0:0:0:0:
317,368,148888,2,0,P|318:303|319:267,1,90,0|4,0:0|0:3,0:0:0:0:
313,57,149263,1,8,0:0:0:0:
438,202,149450,6,0,P|463:132|416:37,1,180,4|0,0:0|0:0,0:0:0:0:
220,3,150013,1,8,0:0:0:0:
163,202,150200,2,0,P|226:183|310:163,1,135,4|0,0:0|0:0,0:0:0:0:
335,154,150575,1,4,0:3:0:0:
181,93,150763,1,8,0:0:0:0:
132,308,150950,1,8,0:0:0:0:
41,192,151138,5,4,0:0:0:0:
249,269,151325,2,0,P|233:326|226:357,1,90,0|8,0:0|0:0,0:0:0:0:
29,114,151700,2,4,P|71:68|198:98,1,180,4|4,0:3|0:3,0:3:0:0:
257,158,152263,2,0,P|318:165|364:166,1,90,8|0,0:0|0:0,0:0:0:0:
453,107,152638,5,4,0:0:0:0:
358,275,152825,2,0,P|421:296|471:285,1,90,0|8,0:0|0:0,0:0:0:0:
502,44,153200,2,4,P|448:12|328:46,1,180,4|4,0:3|0:3,0:3:0:0:
244,22,153763,2,0,P|232:83|221:122,1,90,8|0,0:0|0:0,0:0:0:0:
182,321,154138,5,4,0:0:0:0:
132,160,154325,1,0,0:0:0:0:
24,287,154513,1,8,0:0:0:0:
150,280,154700,5,0,0:0:0:0:
150,280,154794,1,8,0:0:0:0:
150,280,154888,1,0,0:0:0:0:
253,167,155075,1,4,0:3:0:0:
132,71,155263,1,8,0:0:0:0:
253,271,155450,2,0,B|307:243|307:243|359:295|451:285,1,180,4|0,0:0|0:0,0:0:0:0:
494,217,156013,5,8,0:0:0:0:
358,371,156200,1,4,0:3:0:0:
276,168,156388,1,8,0:0:0:0:
237,145,156481,1,4,0:3:0:0:
193,139,156575,1,4,0:3:0:0:
150,151,156669,1,4,0:3:0:0:
115,179,156763,1,8,0:0:0:0:
25,27,157138,5,4,1:0:0:0:
256,192,157231,12,0,159950,0:0:0:0:
351,12,160138,6,0,P|306:32|301:123,1,144,4|8,0:0|0:0,0:0:0:0:
365,158,160700,1,0,0:0:0:0:
248,241,160888,5,0,0:0:0:0:
346,188,161075,2,0,P|342:234|343:265,1,72,0|8,0:0|0:0,0:0:0:0:
210,172,161450,2,0,P|160:155|95:230,1,144
124,283,162013,1,8,0:0:0:0:
32,350,162200,2,0,P|79:354|189:371,1,144
280,289,162763,1,8,0:0:0:0:
392,362,162950,1,0,0:0:0:0:
470,218,163138,6,0,P|487:146|455:59,1,144,4|8,0:0|0:0,0:0:0:0:
403,35,163700,1,0,0:0:0:0:
333,138,163888,2,0,P|337:181|340:216,1,72
262,227,164263,1,8,0:0:0:0:
218,104,164450,1,0,0:0:0:0:
142,161,164638,6,0,P|125:89|157:2,1,144,0|8,0:0|0:0,0:0:0:0:
222,17,165200,1,0,0:0:0:0:
301,21,165388,2,0,P|361:27|383:30,1,72
407,128,165763,1,8,0:0:0:0:
407,128,166138,6,0,P|410:206|409:278,1,144,4|8,0:0|0:0,0:0:0:0:
456,366,166700,1,0,0:0:0:0:
349,348,166888,1,0,0:0:0:0:
308,247,167075,1,0,0:0:0:0:
378,343,167263,1,8,0:0:0:0:
268,367,167450,2,0,P|226:360|114:351,1,144,4|0,0:0|0:0,0:0:0:0:
45,345,168013,1,8,0:0:0:0:
4,219,168200,6,0,P|31:172|134:182,1,144,4|0,0:0|0:0,0:0:0:0:
146,92,168763,2,8,P|179:123|206:145,1,72
309,111,169138,5,4,0:0:0:0:
309,111,169513,2,0,P|357:101|390:94,1,72,2|0,0:3|0:0,0:0:0:0:
458,86,169888,1,0,0:0:0:0:
471,163,170075,2,0,P|435:170|400:177,1,72,0|2,0:0|0:3,0:0:0:0:
322,194,170450,2,0,P|310:266|370:329,1,144
429,312,171013,2,0,P|464:304|499:297,1,72,2|0,0:3|0:0,0:0:0:0:
287,375,171388,2,0,P|251:367|216:360,2,72,0|0|2,0:0|0:0|0:3,0:0:0:0:
287,375,172138,6,0,P|281:333|277:295,1,72
331,245,172513,2,0,P|337:203|341:165,1,72,2|0,0:3|0:0,0:0:0:0:
352,95,172888,1,0,0:0:0:0:
299,36,173075,2,0,P|253:26|231:36,1,72,0|2,0:0|0:3,0:0:0:0:
263,153,173450,2,0,P|223:162|106:192,1,144
79,120,174013,1,2,0:3:0:0:
15,248,174200,6,0,P|30:282|132:293,1,144
214,277,174763,1,2,0:3:0:0:
353,364,174950,5,2,0:3:0:0:
353,364,175044,1,2,0:3:0:0:
353,364,175138,2,0,P|387:332|369:233,1,144,0|2,0:0|0:3,0:0:0:0:
328,179,175700,1,0,0:0:0:0:
360,99,175888,2,0,P|413:132|440:136,1,72
477,34,176263,1,2,0:3:0:0:
477,34,176638,6,0,P|439:6|342:4,1,144,0|2,0:0|0:3,0:0:0:0:
290,60,177200,1,0,0:0:0:0:
237,119,177388,2,0,P|182:121|151:114,1,72
0,24,177763,1,2,0:3:0:0:
143,101,177950,1,0,0:0:0:0:
77,22,178138,6,0,P|73:70|63:167,1,135,4|0,0:0|0:0,0:0:0:0:
53,205,178513,1,8,0:0:0:0:
216,191,178700,1,0,0:0:0:0:
223,312,178888,1,8,0:0:0:0:
75,239,179075,5,0,0:0:0:0:
238,225,179262,1,8,0:0:0:0:
245,346,179450,1,0,0:0:0:0:
279,133,179638,6,0,P|343:118|371:129,1,90,8|0,0:0|0:0,0:0:0:0:
465,321,180013,2,0,P|391:328|341:280,1,135,8|0,0:0|0:0,0:0:0:0:
348,242,180388,1,8,0:0:0:0:
461,91,180575,2,4,L|498:79,3,30,4|4|4|8,0:3|0:3|0:3|0:3,0:3:0:0:
421,67,180856,1,4,0:3:0:0:
421,67,180950,1,4,0:3:0:0:
158,29,181138,5,4,0:0:0:0:
313,68,181325,1,0,0:0:0:0:
248,3,181513,2,0,P|232:104|233:139,1,108,8|8,0:0|0:0,0:0:0:0:
236,161,181888,1,0,0:0:0:0:
236,161,181981,1,8,0:0:0:0:
236,161,182075,1,0,0:0:0:0:
34,252,182263,1,8,0:0:0:0:
26,154,182450,6,0,B|74:139|74:139|108:216|194:223,1,180,4|0,0:0|0:0,0:0:0:0:
247,236,183013,1,8,0:0:0:0:
162,340,183200,5,0,0:0:0:0:
162,340,183294,2,0,P|207:323|260:320,1,72,8|8,0:0|0:0,0:0:0:0:
275,310,183575,1,0,0:0:0:0:
427,219,183763,1,8,0:0:0:0:
363,377,183950,1,0,0:0:0:0:
350,270,184138,6,0,P|343:199|331:159,1,90,4|0,0:0|0:0,0:0:0:0:
477,0,184513,6,0,P|468:45|457:120,1,108,8|8,0:0|0:0,0:0:0:0:
460,152,184888,1,0,0:0:0:0:
460,152,184981,1,8,0:0:0:0:
460,152,185075,1,0,0:0:0:0:
290,22,185263,1,8,0:0:0:0:
376,110,185450,6,0,B|328:95|328:95|301:170|208:179,1,180,4|4,0:0|0:3,0:0:0:0:
155,192,186013,1,8,0:0:0:0:
43,91,186200,6,0,P|69:52|114:48,1,90,4|0,0:2|0:0,0:0:0:0:
247,244,186575,1,4,0:3:0:0:
65,215,186763,1,8,0:0:0:0:
190,110,186950,1,4,0:3:0:0:
114,284,187138,6,0,P|123:345|127:382,1,90,4|0,0:0|0:0,0:0:0:0:
175,376,187419,1,2,0:0:0:0:
199,349,187513,1,8,0:0:0:0:
231,335,187606,1,2,0:0:0:0:
267,334,187700,1,2,0:0:0:0:
301,346,187794,1,2,0:0:0:0:
330,366,187888,6,0,L|365:355,2,24,2|2|2,0:2|0:2|0:2,0:2:0:0:
395,210,188075,2,0,L|366:189,1,36,2|2,0:0|0:0,0:0:0:0:
321,270,188263,2,0,L|357:278,1,36,10|2,0:0|0:0,0:0:0:0:
469,177,188450,6,0,P|446:122|353:85,1,150,4|0,0:0|0:0,0:0:0:0:
327,84,188825,2,0,L|323:50,3,30,2|2|2|10,0:0|0:0|0:0|0:0,0:0:0:0:
241,25,189200,5,0,0:0:0:0:
241,25,189294,2,0,P|247:82|248:113,1,72,8|8,0:0|0:0,0:0:0:0:
255,147,189575,1,0,0:0:0:0:
136,79,189763,1,8,0:0:0:0:
220,227,189950,1,0,0:0:0:0:
65,263,190138,6,0,P|75:311|84:369,1,90,4|0,0:0|0:0,0:0:0:0:
247,300,190513,6,0,P|292:300|374:313,1,108,8|8,0:0|0:0,0:0:0:0:
402,312,190888,1,0,0:0:0:0:
402,312,190981,1,8,0:0:0:0:
402,312,191075,1,0,0:0:0:0:
478,372,191263,1,8,0:0:0:0:
502,194,191450,6,0,P|477:142|358:143,1,180,4|0,0:0|0:0,0:0:0:0:
310,207,192013,1,8,0:0:0:0:
293,42,192200,6,0,P|207:31|157:100,1,180,4|4,0:0|0:3,0:0:0:0:
159,152,192669,1,8,0:3:0:0:
159,152,192763,1,8,0:0:0:0:
20,270,192950,5,8,0:0:0:0:
20,270,193044,1,0,0:0:0:0:
20,270,193138,2,0,P|90:283|194:314,2,180,4|8|0,0:0|0:0|0:0,0:0:0:0:
234,152,194075,1,4,0:3:0:0:
67,201,194263,1,8,0:0:0:0:
77,60,194450,2,4,B|85:16|85:16|144:-22|213:39,1,180,4|4,0:3|0:3,0:3:0:0:
271,232,195013,1,8,0:0:0:0:
179,134,195200,6,0,P|237:127|329:114,1,135,4|0,0:3|0:0,0:0:0:0:
354,105,195575,1,4,0:3:0:0:
471,249,195763,1,8,0:0:0:0:
365,335,195950,1,4,0:3:0:0:
512,171,196138,6,0,P|448:164|415:158,1,90,4|0,0:0|0:0,0:0:0:0:
487,331,196513,1,8,0:0:0:0:
306,235,196700,1,0,0:0:0:0:
306,235,196794,1,8,0:0:0:0:
306,235,196888,2,0,P|277:268|279:316,1,90,0|4,0:0|0:3,0:0:0:0:
470,86,197263,1,8,0:0:0:0:
229,102,197450,6,0,B|288:139|288:139|345:130|362:62,1,180,4|4,0:0|0:3,0:0:0:0:
223,0,198013,1,8,0:0:0:0:
33,207,198200,6,0,P|102:199|209:189,1,135,4|0,0:0|0:0,0:0:0:0:
214,189,198575,1,4,0:3:0:0:
101,67,198763,1,8,0:0:0:0:
72,330,198950,1,8,0:0:0:0:
291,210,199138,5,4,0:0:0:0:
275,384,199325,1,2,0:0:0:0:
275,384,199419,1,2,0:0:0:0:
275,384,199513,1,8,0:0:0:0:
124,329,199700,1,2,0:0:0:0:
124,329,199794,1,2,0:0:0:0:
124,329,199888,1,4,0:3:0:0:
354,243,200075,5,2,0:0:0:0:
262,280,200263,1,10,0:0:0:0:
227,187,200450,1,10,0:0:0:0:
496,37,200638,5,4,0:0:0:0:
480,211,200825,1,2,0:0:0:0:
480,211,200919,1,2,0:0:0:0:
480,211,201013,1,8,0:0:0:0:
329,156,201200,1,2,0:0:0:0:
329,156,201294,1,2,0:0:0:0:
329,156,201388,1,4,0:3:0:0:
328,8,201575,6,0,P|387:15|412:36,1,90,4|8,0:3|0:0,0:0:0:0:
401,210,201950,1,2,0:0:0:0:
228,268,202138,2,0,P|161:250|79:236,1,135,4|0,0:0|0:0,0:0:0:0:
50,226,202513,1,8,0:0:0:0:
175,121,202700,1,0,0:0:0:0:
175,121,202794,1,8,0:0:0:0:
175,121,202888,2,0,P|157:46|145:18,1,90,4|4,0:0|0:3,0:0:0:0:
47,144,203263,1,8,0:0:0:0:
290,77,203450,2,0,P|275:119|267:163,1,90,4|0,0:3|0:0,0:0:0:0:
237,363,203825,5,4,0:3:0:0:
424,314,204013,1,8,0:0:0:0:
374,151,204200,1,4,0:3:0:0:
374,151,204294,1,4,0:3:0:0:
374,151,204388,1,4,0:3:0:0:
457,187,204575,5,2,1:0:0:0:
316,374,204763,1,2,1:0:0:0:
189,108,204950,1,2,1:0:0:0:
209,102,206638,6,0,P|203:144|202:178,1,67.5000025749208,2|0,0:3|0:0,0:0:0:0:
119,188,207013,2,0,P|116:154|112:120,1,67.5000025749208,2|2,0:0|0:0,0:0:0:0:
175,243,207388,2,0,P|219:250|300:296,1,135.000005149842,2|0,0:0|0:0,0:0:0:0:
359,334,207950,1,0,0:0:0:0:
483,282,208138,5,2,0:0:0:0:
483,282,208700,1,2,0:0:0:0:
483,282,209638,6,0,P|486:227|481:189,1,67.5000025749208,2|0,0:3|0:0,0:0:0:0:
500,85,210013,2,0,P|467:130|464:152,1,67.5000025749208,2|2,0:0|0:0,0:0:0:0:
412,197,210388,2,0,P|375:169|289:166,1,135.000005149842,2|0,0:0|0:0,0:0:0:0:
215,166,210950,1,2,0:0:0:0:
93,140,211138,6,0,P|50:125|26:113,2,67.5000025749208,2|2|2,0:3|0:0|0:0,0:0:0:0:
118,212,211700,2,0,P|68:232|42:308,1,135.000005149842,2|0,0:0|0:0,0:0:0:0:
102,346,212263,2,0,P|149:342|179:343,1,67.5000025749208
236,309,212638,6,0,P|295:324|321:329,2,67.5000025749208,2|2|2,0:3|0:0|0:0,0:0:0:0:
231,234,213200,2,0,P|247:193|339:177,1,135.000005149842,2|0,0:0|0:0,0:0:0:0:
395,204,213763,1,0,0:0:0:0:
498,30,214138,6,0,P|458:12|431:3,2,67.5000025749208,2|2|2,0:3|0:0|0:0,0:0:0:0:
503,109,214700,2,0,P|458:105|363:116,1,135.000005149842,2|0,0:0|0:0,0:0:0:0:
300,84,215263,1,0,0:0:0:0:
44,69,215638,6,0,P|46:112|42:147,2,67.5000025749208,2|2|2,0:3|0:0|0:0,0:0:0:0:
103,18,216200,2,0,P|160:27|176:98,1,135.000005149842,2|0,0:0|0:0,0:0:0:0:
175,173,216763,2,0,P|213:187|250:195,1,67.5000025749208,2|0,0:0|0:0,0:0:0:0:
317,212,217138,5,2,0:2:0:0:
317,212,217888,1,2,0:0:0:0:
317,212,218638,5,4,0:0:0:0:
281,359,218825,1,0,0:0:0:0:
346,307,219013,2,0,P|399:309|427:313,1,67.5000025749208
235,287,219388,2,0,P|190:284|100:276,1,135.000005149842,2|0,0:3|0:0,0:0:0:0:
0,333,219950,6,0,P|-16:276|28:216,1,135.000005149842,4|0,0:3|0:3,0:0:0:0:
134,180,220513,2,0,P|79:163|57:154,1,67.5000025749208,4|0,0:3|0:0,0:0:0:0:
14,66,220888,1,2,0:3:0:0:
71,19,221075,2,0,P|135:21|179:80,1,135.000005149842,4|0,0:3|0:0,0:0:0:0:
208,140,221638,5,4,0:3:0:0:
333,125,221825,1,0,0:0:0:0:
300,48,222013,1,0,0:0:0:0:
259,204,222200,1,4,0:3:0:0:
300,48,222388,2,0,P|359:30|437:64,1,135.000005149842,2|0,0:3|0:0,0:0:0:0:
451,123,222950,2,0,P|448:184|447:202,1,67.5000025749208,4|0,0:3|0:0,0:0:0:0:
486,318,223325,2,0,P|491:272|487:240,1,67.5000025749208,0|4,0:0|0:3,0:0:0:0:
413,277,223700,1,0,0:0:0:0:
345,344,223888,5,2,0:3:0:0:
337,228,224075,2,0,P|298:213|209:242,1,135.000005149842,4|0,0:3|0:0,0:0:0:0:
202,313,224638,5,4,0:0:0:0:
76,350,224825,2,0,P|70:311|61:284,1,67.5000025749208
147,164,225200,2,0,P|136:196|132:229,1,67.5000025749208,0|2,0:0|0:3,0:0:0:0:
29,133,225575,2,0,P|55:77|151:70,1,135.000005149842,4|4,0:3|0:3,0:0:0:0:
188,90,226138,5,4,0:0:0:0:
280,21,226325,2,0,P|321:30|352:37,1,67.5000025749208,0|4,0:0|0:3,0:0:0:0:
303,160,226700,2,0,P|270:167|237:174,1,67.5000025749208,0|2,0:0|0:3,0:0:0:0:
395,106,227075,2,0,P|444:117|454:205,1,135.000005149842,4|0,0:3|0:0,0:0:0:0:
273,348,227638,6,0,P|197:335|85:327,1,180,4|0,0:0|0:0,0:0:0:0:
362,260,228200,2,0,P|272:253|183:239,1,180,4|0,0:0|0:0,0:0:0:0:
338,131,228763,2,0,B|376:124|401:106|401:106|466:119|463:229,1,180,4|0,0:0|0:0,0:0:0:0:
279,328,230450,2,0,P|318:319|351:314,1,45,8|8,0:0|0:0,0:0:0:0:
461,189,230637,5,4,0:1:0:0:
395,339,230825,1,0,0:0:0:0:
263,204,231013,1,8,0:0:0:0:
414,285,231200,1,0,0:0:0:0:
343,111,231388,2,0,P|340:164|342:224,1,90,4|0,0:3|0:0,0:0:0:0:
216,284,231763,1,8,0:0:0:0:
183,76,231950,6,4,P|144:33|31:68,1,180,4|4,2:2|0:3,0:3:0:0:
92,283,232513,1,8,0:0:0:0:
201,167,232700,2,0,P|127:170|90:175,1,90,4|0,0:3|0:0,0:0:0:0:
11,290,233075,1,4,0:3:0:0:
128,357,233263,1,2,0:0:0:0:
179,243,233450,1,2,0:0:0:0:
357,324,233638,5,4,0:0:0:0:
235,367,233825,1,0,0:0:0:0:
281,189,234013,1,8,0:0:0:0:
447,269,234200,1,0,0:0:0:0:
447,269,234294,1,8,0:0:0:0:
447,269,234388,2,0,P|436:312|428:357,1,90,4|4,0:3|0:3,0:0:0:0:
294,270,234763,1,8,0:0:0:0:
504,204,234950,6,4,P|502:143|391:105,1,180,4|4,2:2|0:3,0:3:0:0:
377,188,235513,1,0,0:0:0:0:
137,290,235700,5,4,0:0:0:0:
137,290,236075,1,4,0:0:0:0:
282,344,236263,1,8,0:0:0:0:
131,338,236450,1,8,0:0:0:0:
304,227,236638,5,4,0:0:0:0:
61,260,236825,2,0,P|54:334|49:365,1,90,0|8,0:0|0:0,0:0:0:0:
191,128,237200,2,4,P|153:84|38:116,1,180,4|4,0:3|0:3,0:3:0:0:
136,224,237763,2,0,P|208:207|232:202,1,90,8|0,0:0|0:0,0:0:0:0:
243,71,238138,5,4,0:0:0:0:
303,266,238325,2,0,P|348:287|413:279,1,90,0|8,0:0|0:0,0:0:0:0:
493,117,238700,2,4,P|447:81|334:125,1,180,4|4,0:3|0:3,0:3:0:0:
256,183,239263,2,0,P|212:172|167:169,1,90,8|0,0:0|0:0,0:0:0:0:
43,97,239638,5,4,0:0:0:0:
194,258,239825,2,0,P|146:287|86:281,1,90,0|8,0:0|0:0,0:0:0:0:
119,43,240200,1,0,0:0:0:0:
119,43,240294,1,8,0:0:0:0:
119,43,240388,2,0,P|169:58|215:68,1,90,0|4,0:0|0:3,0:0:0:0:
307,86,240763,1,8,0:0:0:0:
212,366,240950,6,0,P|140:371|25:341,1,180,4|0,0:0|0:0,0:0:0:0:
47,112,241513,1,8,0:0:0:0:
264,245,241700,1,4,0:3:0:0:
103,286,241888,1,8,0:0:0:0:
261,133,242075,2,0,P|288:145|314:151,1,45,4|0,0:3|0:0,0:0:0:0:
433,332,242263,1,2,0:0:0:0:
433,332,242356,1,2,0:0:0:0:
433,332,242450,1,2,0:0:0:0:
433,332,242544,1,2,0:0:0:0:
433,332,242638,5,4,0:1:0:0:
226,270,242825,1,0,0:0:0:0:
389,337,243013,1,8,0:0:0:0:
438,160,243200,1,0,0:0:0:0:
302,211,243388,2,0,P|308:274|317:308,1,90,4|0,0:3|0:0,0:0:0:0:
477,253,243763,1,8,0:0:0:0:
260,123,243950,6,0,P|293:44|379:36,1,180,4|4,0:2|0:3,0:0:0:0:
501,98,244513,1,8,0:0:0:0:
386,169,244700,1,4,0:3:0:0:
456,23,244888,1,4,0:0:0:0:
462,241,245075,5,4,0:3:0:0:
380,123,245263,1,4,0:0:0:0:
291,290,245450,1,4,0:3:0:0:
169,158,245638,6,0,P|107:154|70:148,1,90,4|0,0:0|0:0,0:0:0:0:
204,364,246013,2,0,P|266:368|303:374,1,90,8|0,0:0|0:0,0:0:0:0:
348,377,246294,1,8,0:0:0:0:
348,377,246388,2,0,P|373:325|353:236,1,135,4|0,0:3|0:0,0:0:0:0:
328,211,246763,1,8,0:0:0:0:
265,31,246950,6,0,P|290:94|400:113,1,180,4|0,0:0|0:0,0:0:0:0:
464,96,247513,1,8,0:0:0:0:
261,251,247700,2,0,P|213:236|102:230,1,135,4|0,0:2|0:0,0:0:0:0:
75,222,248075,1,4,0:3:0:0:
257,324,248263,1,8,0:0:0:0:
99,380,248450,1,8,0:0:0:0:
282,369,248638,5,4,0:0:0:0:
192,190,248825,2,0,P|189:145|181:100,1,90,0|8,0:3|0:0,0:0:0:0:
446,133,249200,2,4,P|467:203|421:299,1,180,4|4,0:3|0:3,0:3:0:0:
295,356,249763,2,0,P|229:342|193:339,1,90,8|0,0:0|0:0,0:0:0:0:
217,28,250138,5,4,0:2:0:0:
320,194,250325,2,0,P|322:238|330:283,1,90,0|8,0:3|0:0,0:0:0:0:
66,251,250700,2,4,P|45:181|91:85,1,180,4|4,0:3|0:3,0:3:0:0:
217,28,251263,2,0,P|283:42|319:45,1,90,8|0,0:0|0:0,0:0:0:0:
473,53,251638,5,4,0:0:0:0:
321,148,251825,1,0,0:0:0:0:
495,209,252013,1,8,0:0:0:0:
214,318,252200,5,0,0:3:0:0:
214,318,252294,1,8,0:0:0:0:
214,318,252388,1,0,0:0:0:0:
417,353,252575,1,4,0:3:0:0:
258,384,252763,1,8,0:0:0:0:
427,266,252950,2,4,B|391:226|391:226|337:213|269:272,1,180,4|4,0:3|0:3,0:3:0:0:
137,334,253513,5,8,0:0:0:0:
0,142,253700,1,8,0:3:0:0:
0,142,253794,1,8,0:3:0:0:
0,142,253888,1,8,0:0:0:0:
166,237,254075,1,4,0:3:0:0:
275,33,254263,2,8,P|231:22|188:9,1,90,8|4,0:0|0:3,0:3:0:0:
367,269,254638,5,4,0:1:0:0:
256,192,254731,12,0,257450,0:0:0:0:
190,249,257638,5,4,0:0:0:0:
190,249,258013,2,0,P|242:260|283:269,1,90,8|2,0:0|0:0,0:0:0:0:
370,290,258388,1,2,0:0:0:0:
206,365,258575,1,2,0:0:0:0:
368,202,258762,1,10,0:0:0:0:
193,116,258950,2,0,B|147:102|147:102|72:127|83:219,1,180,4|0,0:0|0:0,0:0:0:0:
84,291,259513,1,8,0:0:0:0:
280,344,259700,5,2,0:0:0:0:
369,224,259888,1,2,0:0:0:0:
202,177,260075,1,8,0:3:0:0:
225,366,260263,1,8,0:0:0:0:
407,328,260450,1,2,0:0:0:0:
305,171,260638,6,0,L|294:212,5,30
382,139,261013,6,0,B|371:96|371:96|328:65|264:75,1,135.000005149842,4|0,0:0|0:0,0:0:0:0:
102,134,261388,1,0,0:0:0:0:
122,227,261575,2,0,P|133:284|140:324,1,90,0|8,0:0|0:0,0:0:0:0:
424,363,261950,2,0,P|456:317|410:207,1,180,4|4,0:3|0:3,0:0:0:0:
342,181,262513,5,8,0:0:0:0:
270,256,262700,1,2,0:0:0:0:
195,100,262888,1,8,0:3:0:0:
367,150,263075,5,2,0:1:0:0:
169,204,263263,1,8,0:0:0:0:
174,0,263450,1,2,0:1:0:0:
324,33,263638,5,4,0:0:0:0:
324,33,263825,1,0,0:0:0:0:
316,127,264013,1,0,0:0:0:0:
443,4,264200,2,0,P|472:93|437:190,1,180,4|0,0:0|0:0,0:0:0:0:
362,270,264763,1,8,0:0:0:0:
80,168,264950,6,0,P|89:107|201:60,1,180,4|0,0:0|0:0,0:0:0:0:
255,133,265513,2,0,P|246:195|241:273,1,135,4|4,0:0|0:3,0:0:0:0:
234,313,265888,1,4,0:3:0:0:
96,248,266075,5,4,0:0:0:0:
356,328,266263,1,4,0:0:0:0:
256,16,266450,1,4,0:0:0:0:
