osu file format v14

[General]
AudioFilename: audio.mp3
AudioLeadIn: 0
PreviewTime: 206450
Countdown: 0
SampleSet: Soft
StackLeniency: 0.6
Mode: 2
LetterboxInBreaks: 0
WidescreenStoryboard: 1

[Editor]
Bookmarks: 266638
DistanceSpacing: 2.1
BeatDivisor: 2
GridSize: 32
TimelineZoom: 1.900005

[Metadata]
Title:Yukitoki
TitleUnicode:ユキトキ
Artist:yanaginagi
ArtistUnicode:やなぎなぎ
Creator:Xetopia
Version:Codependency
Source:やはり俺の青春ラブコメはまちがっている。
Tags:Astreachan Yanagi Nagi Yahari Ore no Seishun Love Come wa Machigatteiru. Oregairu Follow My Tracks Alternative Full Version 北川勝利 Katsutoshi Kitagawa 出羽良彰 Dewa Yoshiaki
BeatmapID:1939034
BeatmapSetID:928327

[Difficulty]
HPDrainRate:6
CircleSize:4.2
OverallDifficulty:9.2
ApproachRate:9.2
SliderMultiplier:2.2
SliderTickRate:2

[Events]
//Background and Video events
0,0,"bg.jpg",0,0
//Break Periods
//Storyboard Layer 0 (Background)
//Storyboard Layer 1 (Fail)
//Storyboard Layer 2 (Pass)
//Storyboard Layer 3 (Foreground)
//Storyboard Sound Samples

[TimingPoints]
1138,375,4,2,1,60,1,0
59638,-90.9090909090909,4,1,1,70,0,1
83638,-100,4,2,1,60,0,0
95638,-111.111111111111,4,2,2,40,0,0
95731,-111.111111111111,4,2,3,40,0,0
107075,-111.111111111111,4,2,1,40,0,0
107638,-100,4,2,1,60,0,0
133138,-90.9090909090909,4,1,1,70,0,1
157138,-100,4,2,1,60,0,0
169138,-100,4,2,1,60,0,0
178138,-100,4,2,1,60,0,0
193138,-100,4,1,1,60,0,0
206638,-125,4,2,1,25,0,0
218638,-111.111111111111,4,2,3,45,0,0
229138,-125,4,2,1,5,0,0
230450,-125,4,2,1,60,0,0
230638,-90.9090909090909,4,1,1,70,0,1
254638,-90.9090909090909,4,2,1,60,0,0

[Colours]
Combo1 : 255,88,100
Combo2 : 255,159,159
Combo3 : 255,230,223

[HitObjects]
181,43,9575,5,0,0:0:0:0:
179,75,9637,1,0,0:0:0:0:
177,107,9700,1,0,0:0:0:0:
176,139,9762,1,8,0:0:0:0:
340,203,9950,2,8,L|342:271,1,55
112,340,10138,6,0,P|151:303|311:237,1,220,4|8,0:0|0:0,0:0:0:0:
157,120,10700,1,0,0:0:0:0:
154,168,10793,1,0,0:0:0:0:
152,216,10887,1,2,0:0:0:0:
24,265,11075,1,2,0:0:0:0:
152,216,11263,1,10,0:0:0:0:
399,345,11450,6,0,P|463:299|391:199,1,220,2|0,0:0|0:0,0:0:0:0:
286,189,12013,1,8,0:0:0:0:
400,199,12200,1,2,0:0:0:0:
240,45,12388,1,2,0:0:0:0:
238,93,12481,1,2,0:0:0:0:
237,141,12575,1,2,0:0:0:0:
392,194,12763,2,2,L|518:196,1,110,10|2,0:0|0:0,0:0:0:0:
229,325,13138,6,0,L|6:333,1,220,0|8,0:0|0:0,0:0:0:0:
154,256,13700,1,2,0:0:0:0:
30,214,13888,2,2,L|26:99,1,110
271,44,14263,1,10,0:0:0:0:
157,41,14450,6,0,L|378:40,1,220,2|0,0:0|0:0,0:0:0:0:
200,125,15013,2,0,L|79:128,1,110,8|2,0:0|0:0,0:0:0:0:
255,201,15388,1,2,0:0:0:0:
256,249,15481,1,2,0:0:0:0:
257,297,15575,1,2,0:0:0:0:
84,341,15763,1,10,0:0:0:0:
212,342,15950,1,2,0:0:0:0:
468,317,16138,6,0,P|450:303|313:253,1,165
149,89,16513,2,0,L|143:204,1,110,10|2,0:0|0:0,0:0:0:0:
313,265,16888,1,2,0:0:0:0:
184,266,17075,1,2,0:0:0:0:
313,265,17263,1,8,0:0:0:0:
33,175,17450,6,0,P|123:128|250:95,1,220,2|0,0:0|0:0,0:0:0:0:
349,92,18013,1,8,0:0:0:0:
236,96,18200,1,2,0:0:0:0:
404,171,18388,1,2,0:0:0:0:
406,219,18481,1,2,0:0:0:0:
409,267,18575,1,2,0:0:0:0:
117,41,18763,1,10,0:0:0:0:
112,137,18950,1,0,0:0:0:0:
484,344,19138,6,0,P|413:300|275:253,1,220,6|10,0:0|0:0,0:0:0:0:
174,237,19700,1,2,0:0:0:0:
345,61,19888,2,0,L|347:177,1,110,0|2,0:0|0:0,0:0:0:0:
482,235,20263,1,8,0:0:0:0:
221,334,20450,6,0,P|158:274|249:193,1,220,2|2,0:0|0:0,0:0:0:0:
75,143,21013,2,2,L|73:23,1,110,10|2,0:0|0:0,0:0:0:0:
324,69,21388,2,2,L|436:70,1,110
151,225,21763,2,0,L|27:229,1,110,10|0,0:0|0:0,0:0:0:0:
322,345,22138,6,0,P|408:325|501:227,1,220,4|8,0:0|0:0,0:0:0:0:
337,222,22700,1,0,0:0:0:0:
486,207,22888,2,0,L|489:92,1,110,2|0,0:0|0:0,0:0:0:0:
332,48,23263,1,8,0:0:0:0:
454,48,23450,1,0,0:0:0:0:
203,150,23638,6,0,P|137:201|216:279,1,220,2|8,0:0|0:0,0:0:0:0:
323,262,24200,1,0,0:0:0:0:
156,338,24388,2,0,L|151:221,1,110,2|0,0:0|0:0,0:0:0:0:
327,236,24763,2,0,L|332:119,1,110,8|0,0:0|0:0,0:0:0:0:
36,125,25138,6,0,P|85:96|248:44,1,220,2|8,0:0|0:0,0:0:0:0:
350,36,25700,1,0,0:0:0:0:
180,171,25888,2,0,L|175:284,1,110,2|0,0:0|0:0,0:0:0:0:
36,325,26263,1,8,0:0:0:0:
329,343,26450,1,0,0:0:0:0:
209,312,26638,6,0,L|205:90,1,220,2|8,0:0|0:0,0:0:0:0:
85,71,27200,1,0,0:0:0:0:
262,45,27388,2,0,L|378:42,1,110,2|0,0:0|0:0,0:0:0:0:
206,165,27763,2,0,L|90:162,1,110,8|0,0:0|0:0,0:0:0:0:
388,340,28138,6,0,P|451:303|372:213,1,220,2|8,0:0|0:0,0:0:0:0:
494,153,28700,1,0,0:0:0:0:
314,150,28888,2,0,L|309:34,1,110,2|0,0:0|0:0,0:0:0:0:
475,149,29263,2,0,L|479:37,1,110,8|0,0:0|0:0,0:0:0:0:
231,44,29638,6,0,L|224:267,1,220,2|8,0:0|0:0,0:0:0:0:
358,270,30200,1,0,0:0:0:0:
192,326,30388,2,0,L|190:215,1,110,2|0,0:0|0:0,0:0:0:0:
28,209,30763,2,0,L|139:211,1,110,8|0,0:0|0:0,0:0:0:0:
416,52,31138,6,0,P|376:86|217:149,1,220,2|8,0:0|0:0,0:0:0:0:
339,194,31700,1,0,0:0:0:0:
156,316,31888,1,2,0:0:0:0:
281,318,32075,1,0,0:0:0:0:
156,316,32263,1,8,0:0:0:0:
450,284,32450,6,0,L|457:59,1,220,2|0,0:0|0:0,0:0:0:0:
304,144,33013,1,8,0:0:0:0:
457,65,33200,2,0,P|403:111|244:154,1,220,2|2,0:0|0:0,0:0:0:0:
203,156,33669,1,2,0:0:0:0:
431,237,33763,2,0,L|435:352,1,110,8|0,0:0|0:0,0:0:0:0:
75,344,34138,6,0,P|127:305|281:246,1,220,6|8,0:0|0:0,0:0:0:0:
381,232,34700,1,0,0:0:0:0:
248,175,34888,1,2,0:0:0:0:
93,128,35075,2,0,L|90:16,1,110,2|8,0:0|0:0,0:0:0:0:
390,45,35450,5,2,0:0:0:0:
267,44,35638,1,2,0:0:0:0:
427,112,35825,2,0,L|431:228,1,110,0|8,0:0|0:0,0:0:0:0:
298,218,36200,1,0,0:0:0:0:
143,211,36388,2,0,L|140:320,1,110,2|2,0:0|0:0,0:0:0:0:
298,308,36763,1,8,0:0:0:0:
173,310,36950,1,2,0:0:0:0:
473,237,37138,6,0,P|414:202|265:157,1,220,2|8,0:0|0:0,0:0:0:0:
409,82,37700,1,2,0:0:0:0:
160,44,37888,1,2,0:0:0:0:
158,98,37981,1,2,0:0:0:0:
156,153,38075,1,2,0:0:0:0:
42,227,38263,1,8,0:0:0:0:
299,343,38450,6,0,P|360:305|288:202,1,220,2|0,0:0|0:0,0:0:0:0:
184,190,39013,1,8,0:0:0:0:
297,201,39200,1,0,0:0:0:0:
148,35,39388,2,0,L|142:149,1,110,2|2,0:0|0:0,0:0:0:0:
296,70,39763,2,0,L|417:71,1,110,8|0,0:0|0:0,0:0:0:0:
114,340,40138,6,0,P|62:303|155:208,1,220,2|8,0:0|0:0,0:0:0:0:
244,208,40700,1,0,0:0:0:0:
134,201,40888,1,2,0:0:0:0:
380,37,41075,1,2,0:0:0:0:
228,39,41263,1,10,0:0:0:0:
225,93,41356,1,2,0:0:0:0:
223,148,41450,1,2,0:0:0:0:
476,340,41638,6,0,P|431:306|280:243,1,220,2|8,0:0|0:0,0:0:0:0:
170,229,42200,1,2,0:0:0:0:
341,154,42388,2,0,L|344:37,1,110,2|0,0:0|0:0,0:0:0:0:
178,68,42763,1,10,0:0:0:0:
229,48,42856,1,2,0:0:0:0:
382,31,42950,1,2,0:0:0:0:
437,27,43044,1,2,0:0:0:0:
176,157,43138,6,0,P|109:214|194:301,1,220,4|8,0:0|0:0,0:0:0:0:
285,308,43700,1,0,0:0:0:0:
115,332,43888,2,0,L|2:333,1,110,2|2,0:0|0:0,0:0:0:0:
139,332,44263,1,8,0:0:0:0:
426,263,44450,6,0,L|432:37,1,220,2|2,0:0|0:0,0:0:0:0:
277,135,45013,1,10,0:0:0:0:
406,137,45200,1,0,0:0:0:0:
160,42,45388,2,0,L|156:156,1,110,2|0,0:0|0:0,0:0:0:0:
352,42,45763,1,10,0:0:0:0:
353,96,45856,1,0,0:0:0:0:
355,151,45950,1,0,0:0:0:0:
45,339,46138,5,6,0:0:0:0:
264,344,46513,1,10,0:0:0:0:
51,199,46888,1,2,0:0:0:0:
150,200,47075,1,0,0:0:0:0:
51,199,47263,1,10,0:0:0:0:
323,40,47450,6,0,P|380:71|320:182,1,220,2|2,0:0|0:0,0:0:0:0:
210,184,48013,1,8,0:0:0:0:
373,312,48200,2,0,L|488:312,1,110,2|0,0:0|0:0,0:0:0:0:
317,248,48575,2,0,L|207:249,2,110,2|10|0,0:0|0:0|0:0,0:0:0:0:
72,40,49138,6,0,L|69:154,1,110,2|0,0:0|0:0,0:0:0:0:
184,150,49513,1,8,0:0:0:0:
16,288,49700,2,2,P|99:235|232:196,1,220
102,126,50263,1,8,0:0:0:0:
352,50,50450,6,2,P|404:98|319:189,1,220
166,340,51013,1,8,0:0:0:0:
304,317,51200,2,0,L|311:201,1,110,2|2,0:0|0:0,0:0:0:0:
155,175,51575,2,2,L|152:108,1,55
402,40,51763,1,2,0:0:0:0:
366,81,51856,1,2,0:0:0:0:
320,111,51950,1,2,0:0:0:0:
268,128,52044,1,2,0:0:0:0:
47,345,52138,6,0,P|101:303|253:241,1,220,4|8,0:0|0:0,0:0:0:0:
471,161,52888,2,0,L|354:159,2,110,2|0|8,0:0|0:0|0:0,0:0:0:0:
214,28,53450,6,0,L|203:249,1,220,2|0,0:0|0:0,0:0:0:0:
88,287,54013,1,8,0:0:0:0:
335,350,54200,2,0,P|395:303|313:210,1,220,2|0,0:0|0:0,0:0:0:0:
475,158,54763,2,0,L|477:41,1,110,8|2,0:0|0:0,0:0:0:0:
197,43,55138,6,0,P|116:67|16:168,1,220,12|8,0:0|0:0,0:0:0:0:
191,225,55700,2,2,L|202:285,1,55
307,311,55888,1,8,0:0:0:0:
183,196,56075,2,2,L|173:250,1,55
67,282,56263,1,8,0:0:0:0:
191,225,56450,2,2,L|258:227,1,55
435,230,56638,5,8,0:0:0:0:
318,77,56825,2,2,L|307:137,1,55
202,163,57013,1,8,0:0:0:0:
347,139,57200,2,2,L|358:199,1,55
463,225,57388,1,8,0:0:0:0:
315,263,57575,2,2,L|238:265,1,55
20,271,57763,5,8,0:0:0:0:
321,43,57950,1,8,0:0:0:0:
220,80,58137,1,2,0:0:0:0:
180,179,58325,1,2,0:0:0:0:
224,277,58512,1,2,0:0:0:0:
325,311,58700,1,2,0:0:0:0:
175,344,58888,6,2,L|165:234,1,110
337,344,59263,2,2,L|347:234,1,110
26,62,59638,6,0,L|151:60,1,121.000003692627,2|0,0:0|0:0,0:0:0:0:
398,53,60013,1,8,0:0:0:0:
246,144,60200,1,0,0:3:0:0:
243,204,60293,1,0,0:3:0:0:
241,264,60387,1,0,0:3:0:0:
84,308,60575,1,2,0:2:0:0:
361,313,60763,1,8,0:0:0:0:
45,129,60950,6,0,P|123:78|217:46,1,181.500005538941,2|0,0:2|0:0,0:0:0:0:
428,99,61325,2,0,L|433:227,1,121.000003692627,0|8,0:0|0:0,0:0:0:0:
271,318,61700,1,2,0:2:0:0:
210,318,61793,1,0,0:0:0:0:
150,319,61887,1,0,0:0:0:0:
296,243,62075,1,2,0:2:0:0:
35,39,62263,2,0,L|28:162,1,121.000003692627,8|0,0:0|0:0,0:0:0:0:
390,50,62638,5,2,0:2:0:0:
260,51,62825,1,0,0:0:0:0:
390,50,63013,1,8,0:0:0:0:
138,166,63200,1,2,0:2:0:0:
135,226,63293,1,0,0:0:0:0:
133,286,63387,1,0,0:0:0:0:
284,293,63575,1,0,0:0:0:0:
37,98,63763,1,8,0:0:0:0:
378,126,63950,6,0,P|343:99|206:52,1,181.500005538941,2|0,0:2|0:0,0:0:0:0:
427,192,64325,2,0,L|430:319,1,121.000003692627,0|8,0:0|0:0,0:0:0:0:
171,332,64700,1,2,0:2:0:0:
223,301,64793,1,0,0:0:0:0:
280,283,64887,1,0,0:2:0:0:
146,202,65075,1,2,0:2:0:0:
448,44,65263,2,0,L|453:171,1,121.000003692627,8|2,0:0|0:2,0:0:0:0:
156,48,65638,6,0,L|26:51,1,121.000003692627,2|0,0:2|0:0,0:0:0:0:
184,118,66013,1,8,0:0:0:0:
356,181,66200,1,2,2:0:0:0:
358,241,66293,1,0,0:0:0:0:
360,301,66387,1,0,0:0:0:0:
189,300,66575,1,0,0:0:0:0:
313,300,66763,1,8,0:0:0:0:
47,170,66950,1,2,0:2:0:0:
308,38,67138,6,0,L|310:162,1,121.000003692627
442,209,67513,1,8,0:0:0:0:
254,225,67700,1,2,0:2:0:0:
251,285,67793,1,0,0:0:0:0:
248,345,67887,1,0,0:0:0:0:
121,341,68075,1,0,0:0:0:0:
248,345,68263,1,8,0:0:0:0:
499,348,68450,1,2,0:2:0:0:
192,215,68638,6,0,P|252:172|416:109,1,242.000007385254,0|8,0:0|0:0,0:0:0:0:
231,59,69200,1,2,0:2:0:0:
228,119,69293,1,0,0:0:0:0:
225,179,69387,1,0,0:0:0:0:
351,275,69575,1,2,0:2:0:0:
93,278,69763,1,8,0:0:0:0:
396,353,69950,6,0,P|363:334|160:270,1,242.000007385254,4|0,0:2|0:0,0:0:0:0:
451,163,70513,1,8,0:0:0:0:
185,45,70700,2,0,P|114:98|206:194,1,242.000007385254,4|2,0:2|0:2,0:0:0:0:
260,234,71168,1,0,0:0:0:0:
263,298,71262,1,12,0:0:0:0:
92,233,71450,1,2,0:2:0:0:
89,297,71544,1,2,0:2:0:0:
355,269,71638,6,0,L|490:271,1,121.000003692627,4|0,0:0|0:0,0:0:0:0:
213,60,72013,1,8,0:0:0:0:
349,132,72200,1,2,0:2:0:0:
351,192,72293,1,0,0:0:0:0:
353,252,72387,1,2,0:2:0:0:
213,60,72575,1,0,0:0:0:0:
470,338,72763,1,8,0:0:0:0:
202,342,72950,6,0,L|10:347,1,181.500005538941,2|0,0:2|0:0,0:0:0:0:
225,243,73325,2,0,L|358:248,1,121.000003692627,0|8,0:0|0:0,0:0:0:0:
96,47,73700,2,0,P|19:103|106:193,1,242.000007385254,2|0,0:2|0:0,0:0:0:0:
213,189,74263,1,8,0:0:0:0:
96,193,74450,1,0,0:0:0:0:
402,348,74638,6,0,L|409:207,1,121.000003692627
151,62,75013,1,8,0:0:0:0:
298,111,75200,1,2,0:2:0:0:
300,171,75293,1,0,0:0:0:0:
302,231,75387,1,0,0:0:0:0:
467,287,75575,1,0,0:0:0:0:
173,289,75763,1,8,0:0:0:0:
484,349,75950,6,0,P|374:293|304:278,1,181.500005538941,2|0,0:2|0:0,0:0:0:0:
161,150,76325,2,0,L|291:147,1,121.000003692627,0|8,0:0|0:0,0:0:0:0:
38,45,76700,1,2,0:2:0:0:
34,105,76794,1,0,0:0:0:0:
30,165,76888,1,0,0:0:0:0:
203,250,77075,1,0,0:0:0:0:
65,248,77263,1,8,0:0:0:0:
368,340,77450,1,2,0:2:0:0:
241,327,77638,6,0,P|290:291|465:227,1,242.000007385254,4|8,0:2|0:0,0:0:0:0:
305,44,78200,1,2,0:2:0:0:
302,104,78293,1,0,0:0:0:0:
299,164,78387,1,0,0:0:0:0:
463,291,78575,1,0,0:0:0:0:
328,286,78763,1,8,0:0:0:0:
56,286,78950,5,4,0:2:0:0:
201,223,79138,2,0,L|212:98,1,121.000003692627
360,59,79513,1,8,0:0:0:0:
177,184,79700,1,2,0:2:0:0:
171,123,79793,1,0,0:0:0:0:
166,63,79887,1,0,0:0:0:0:
41,44,80075,1,0,0:0:0:0:
166,63,80263,1,8,0:0:0:0:
418,50,80450,1,2,0:2:0:0:
116,340,80638,6,0,P|187:303|359:261,1,242.000007385254,4|8,0:2|0:0,0:0:0:0:
81,46,81200,1,0,0:0:0:0:
210,112,81388,2,0,L|214:237,1,121.000003692627
81,46,81763,1,8,0:0:0:0:
365,343,81950,6,0,P|429:303|350:189,1,242.000007385254,4|8,0:2|0:0,0:0:0:0:
228,187,82513,1,8,0:0:0:0:
358,188,82700,1,0,0:0:0:0:
171,31,82888,1,8,0:0:0:0:
168,91,82981,1,8,0:0:0:0:
165,151,83075,1,8,0:0:0:0:
345,248,83263,2,0,L|475:252,1,121.000003692627,8|0,0:0|0:0,0:0:0:0:
150,347,83638,6,0,P|85:312|152:214,1,220,4|8,0:0|0:0,0:0:0:0:
259,205,84200,1,2,0:0:0:0:
98,135,84388,2,0,L|208:134,2,110,0|0|8,0:0|0:0|0:0,0:0:0:0:
379,307,84950,6,0,P|315:269|229:244,1,165,2|0,0:0|0:0,0:0:0:0:
415,157,85325,2,0,L|419:47,1,110,2|8,0:0|0:0,0:0:0:0:
267,102,85700,1,2,0:0:0:0:
367,57,85887,1,0,0:0:0:0:
474,36,86075,1,0,0:0:0:0:
310,185,86263,2,0,P|368:194|422:188,1,110,8|0,0:0|0:0,0:0:0:0:
158,42,86638,6,0,P|97:94|179:174,1,220,2|8,0:0|0:0,0:0:0:0:
340,284,87200,1,2,0:0:0:0:
192,110,87388,2,0,L|183:229,1,110,2|0,0:0|0:0,0:0:0:0:
36,291,87763,1,8,0:0:0:0:
308,340,87950,6,0,L|477:343,1,165,2|0,0:0|0:0,0:0:0:0:
293,234,88325,2,0,L|177:234,1,110,2|8,0:0|0:0,0:0:0:0:
347,159,88700,2,0,P|404:122|325:32,1,220,2|2,0:0|0:0,0:0:0:0:
482,219,89263,2,0,L|486:331,1,110,8|0,0:0|0:0,0:0:0:0:
192,348,89638,6,0,P|227:306|372:221,1,220,6|8,0:0|0:0,0:0:0:0:
234,170,90200,1,2,0:0:0:0:
78,78,90388,2,0,L|189:76,2,110,2|0|8,0:0|0:0|0:0,0:0:0:0:
351,232,90950,6,0,P|293:204|189:178,1,165,2|0,0:0|0:0,0:0:0:0:
38,47,91325,2,0,L|32:168,1,110,2|8,0:0|0:0,0:0:0:0:
206,335,91700,2,0,P|316:323|430:332,1,220,2|0,0:0|0:0,0:0:0:0:
268,235,92263,2,0,L|155:231,1,110,8|0,0:0|0:0,0:0:0:0:
434,35,92638,6,0,L|440:203,1,165,4|0,0:0|0:0,0:0:0:0:
244,78,93013,2,0,L|367:76,1,110,10|2,0:0|0:0,0:0:0:0:
71,211,93388,1,2,0:0:0:0:
208,310,93575,2,0,L|75:308,1,110,0|8,0:0|0:0,0:0:0:0:
383,292,93950,6,0,P|442:261|363:165,1,220,6|2,0:0|0:0,0:0:0:0:
198,86,94513,2,0,L|191:203,1,110,8|2,0:0|0:0,0:0:0:0:
351,347,94888,1,8,0:0:0:0:
230,341,95075,1,8,0:0:0:0:
59,257,95263,1,8,0:0:0:0:
169,256,95450,1,8,0:0:0:0:
417,165,95638,6,0,L|210:167,2,197.99999395752,6|8|0,0:0|0:0|0:0,0:0:0:0:
247,44,96575,2,0,L|241:244,1,197.99999395752,4|4,0:0|0:0,0:0:0:0:
77,339,97138,6,0,L|284:333,1,197.99999395752,0|8,0:0|0:0,0:0:0:0:
380,329,97700,1,0,0:0:0:0:
214,236,97888,2,0,L|317:232,1,98.9999969787599,0|4,0:0|0:0,0:0:0:0:
474,147,98263,2,0,L|477:41,1,98.9999969787599
297,313,98638,6,0,L|92:318,2,197.99999395752,6|8|2,0:0|0:0|0:0,0:0:0:0:
440,206,99575,2,0,L|335:202,2,98.9999969787599,4|8|4,0:0|0:0|0:0,0:0:0:0:
259,315,100138,6,0,L|254:116,1,197.99999395752,2|8,0:0|0:0,0:0:0:0:
154,80,100700,1,0,0:0:0:0:
299,38,100888,2,0,L|406:41,1,98.9999969787599,2|8,0:0|0:0,0:0:0:0:
222,149,101263,2,0,L|115:152,1,98.9999969787599,8|0,0:0|0:0,0:0:0:0:
311,218,101638,6,0,P|376:285|311:333,1,197.99999395752,6|10,0:0|0:0,0:0:0:0:
415,336,102200,1,0,0:0:0:0:
242,338,102388,2,0,L|348:338,1,98.9999969787599,2|4,0:0|0:0,0:0:0:0:
174,338,102763,2,0,L|75:337,1,98.9999969787599,10|0,0:0|0:0,0:0:0:0:
264,225,103138,6,0,L|476:220,1,197.99999395752,2|10,0:0|0:0,0:0:0:0:
333,137,103700,1,0,0:0:0:0:
479,30,103888,2,0,L|483:137,1,98.9999969787599,2|4,0:0|0:0,0:0:0:0:
322,29,104263,1,10,0:0:0:0:
434,28,104450,1,0,0:0:0:0:
255,101,104638,6,0,L|252:303,1,197.99999395752,6|10,0:0|0:0,0:0:0:0:
142,321,105200,1,0,0:0:0:0:
297,250,105388,2,0,L|197:249,1,98.9999969787599,2|4,0:0|0:0,0:0:0:0:
45,191,105763,2,0,L|41:85,1,98.9999969787599,10|0,0:0|0:0,0:0:0:0:
228,44,106138,6,0,P|152:78|27:95,2,197.99999395752,2|10|2,0:0|0:0|0:0,0:0:0:0:
327,113,107075,1,8,0:0:0:0:
134,196,107263,2,8,L|129:301,1,98.9999969787599
450,343,107638,6,0,P|401:302|252:238,1,220,4|8,0:0|0:0,0:0:0:0:
376,186,108200,1,0,0:0:0:0:
218,45,108388,2,0,L|215:157,1,110,2|2,0:0|0:0,0:0:0:0:
375,63,108763,2,0,L|496:66,1,110,8|0,0:0|0:0,0:0:0:0:
200,343,109138,6,0,P|136:314|206:223,1,220,2|8,0:0|0:0,0:0:0:0:
319,226,109700,1,0,0:0:0:0:
157,105,109888,2,0,L|152:217,1,110,2|2,0:0|0:0,0:0:0:0:
23,276,110263,1,8,0:0:0:0:
153,214,110450,1,0,0:0:0:0:
468,164,110638,6,0,P|403:131|257:89,1,220,6|8,0:0|0:0,0:0:0:0:
146,79,111200,1,0,0:0:0:0:
311,230,111388,2,0,L|314:115,1,110,2|2,0:0|0:0,0:0:0:0:
479,143,111763,2,0,L|482:28,1,110,8|0,0:0|0:0,0:0:0:0:
213,286,112138,6,0,P|128:272|37:176,1,220,2|8,0:0|0:0,0:0:0:0:
181,172,112700,1,0,0:0:0:0:
35,42,112888,2,2,L|29:159,1,110
194,42,113263,1,8,0:0:0:0:
67,41,113450,1,0,0:0:0:0:
338,334,113638,6,0,P|404:279|328:198,1,220,6|8,0:0|0:0,0:0:0:0:
213,196,114200,1,0,0:0:0:0:
358,29,114388,2,2,L|473:30,1,110
307,113,114763,2,0,L|290:224,1,110,8|0,0:0|0:0,0:0:0:0:
31,349,115138,6,0,P|93:309|242:261,1,220,6|8,0:0|0:0,0:0:0:0:
118,185,115700,1,0,0:0:0:0:
278,116,115888,2,2,L|281:3,1,110
446,195,116263,2,0,L|331:194,1,110,8|0,0:0|0:0,0:0:0:0:
80,28,116638,6,0,P|21:75|105:155,1,220,6|8,0:0|0:0,0:0:0:0:
222,147,117200,1,0,0:0:0:0:
362,204,117388,2,2,L|366:313,1,110
203,308,117763,2,0,L|92:310,1,110,8|0,0:0|0:0,0:0:0:0:
364,234,118138,6,0,P|427:197|350:98,1,220,6|8,0:0|0:0,0:0:0:0:
473,69,118700,1,0,0:0:0:0:
299,54,118888,2,0,L|171:53,1,110,8|0,0:0|0:0,0:0:0:0:
436,206,119263,2,8,L|441:322,1,110
141,319,119638,5,6,0:0:0:0:
365,320,120013,1,2,0:0:0:0:
131,216,120388,1,2,0:0:0:0:
230,215,120575,1,0,0:0:0:0:
131,216,120763,1,2,0:0:0:0:
307,68,120950,6,0,P|374:110|306:207,1,220
179,204,121513,1,2,0:0:0:0:
311,207,121700,1,0,0:0:0:0:
140,313,121888,6,2,L|136:92,1,220
21,43,122450,1,8,0:0:0:0:
286,279,122638,6,2,P|350:268|461:164,1,220
293,37,123200,2,0,L|290:263,1,220
401,267,123763,1,2,0:0:0:0:
236,329,123950,6,0,L|124:331,1,110,0|2,0:0|0:0,0:0:0:0:
299,197,124325,2,0,L|416:199,1,110,0|2,0:0|0:0,0:0:0:0:
276,123,124700,1,2,0:0:0:0:
118,43,124888,2,2,P|56:85|123:186,1,220
229,192,125450,1,8,0:0:0:0:
482,346,125638,5,6,0:0:0:0:
258,350,126013,1,2,0:0:0:0:
500,269,126388,1,2,0:0:0:0:
401,267,126575,1,2,0:0:0:0:
500,269,126763,1,2,0:0:0:0:
237,37,126950,6,0,P|175:79|257:163,1,220,2|0,0:0|0:0,0:0:0:0:
135,217,127513,1,2,0:0:0:0:
404,329,127700,6,0,P|325:292|189:258,1,220,2|0,0:0|0:0,0:0:0:0:
355,179,128263,2,0,L|357:68,1,110,2|0,0:0|0:0,0:0:0:0:
82,44,128638,6,0,L|207:42,2,110,4|0|8,0:0|0:0|0:0,0:0:0:0:
352,161,129200,2,0,P|413:189|343:288,1,220,4|0,0:0|0:0,0:0:0:0:
470,336,129763,1,10,0:0:0:0:
179,331,129950,5,2,0:0:0:0:
305,288,130138,2,0,P|245:248|97:202,1,220,4|8,0:0|0:0,0:0:0:0:
264,117,130700,2,0,L|387:113,1,110,0|2,0:0|0:0,0:0:0:0:
105,35,131075,1,8,0:0:0:0:
100,89,131168,1,8,0:0:0:0:
96,144,131262,1,8,0:0:0:0:
443,340,131450,5,6,0:0:0:0:
205,318,131825,1,2,0:0:0:0:
307,287,132012,1,2,0:0:0:0:
352,191,132200,1,2,0:0:0:0:
311,93,132387,1,2,0:0:0:0:
209,59,132575,1,2,0:0:0:0:
463,34,132763,1,8,0:0:0:0:
464,88,132856,1,2,0:0:0:0:
465,143,132950,1,2,0:0:0:0:
100,342,133138,6,0,P|37:287|105:234,1,181.500005538941,2|0,0:0|0:0,0:0:0:0:
257,214,133513,2,0,L|123:211,1,121.000003692627,8|0,0:0|0:0,0:0:0:0:
276,51,133888,2,0,L|280:181,1,121.000003692627
20,228,134263,1,8,0:0:0:0:
298,336,134450,6,0,L|482:333,1,181.500005538941,2|0,0:2|0:0,0:0:0:0:
241,230,134825,2,0,L|115:224,1,121.000003692627,2|8,0:2|0:0,0:0:0:0:
266,130,135200,1,0,0:0:0:0:
119,44,135388,6,0,L|243:43,1,121.000003692627,2|0,0:2|0:0,0:0:0:0:
484,52,135763,2,0,L|492:185,1,121.000003692627,8|2,0:0|0:2,0:0:0:0:
210,324,136138,5,2,0:2:0:0:
330,323,136325,1,0,0:0:0:0:
451,322,136513,1,8,0:0:0:0:
208,43,136700,1,2,0:2:0:0:
205,103,136793,1,2,0:2:0:0:
203,163,136887,1,2,0:2:0:0:
81,224,137075,1,0,0:0:0:0:
363,247,137263,1,8,0:0:0:0:
39,340,137450,6,0,P|77:306|207:257,1,181.500005538941,2|0,0:2|0:0,0:0:0:0:
27,200,137825,2,0,L|25:76,1,121.000003692627,0|8,0:0|0:0,0:0:0:0:
379,30,138200,2,0,L|134:35,1,242.000007385254,2|2,0:2|0:2,0:0:0:0:
319,228,138763,2,0,L|323:99,1,121.000003692627,8|0,0:0|0:0,0:0:0:0:
71,325,139138,6,0,L|195:321,2,121.000003692627,4|0|8,0:0|0:0|0:0,0:0:0:0:
330,81,139700,1,2,0:2:0:0:
331,141,139793,1,0,0:0:0:0:
333,201,139887,1,0,0:0:0:0:
197,202,140075,1,2,0:2:0:0:
473,206,140263,1,8,0:0:0:0:
154,332,140450,5,2,0:2:0:0:
299,330,140638,1,0,0:0:0:0:
489,288,140825,2,0,L|346:284,1,121.000003692627,0|8,0:0|0:0,0:0:0:0:
48,52,141200,5,2,0:2:0:0:
188,120,141388,2,0,L|193:243,1,121.000003692627
462,231,141763,2,0,L|471:362,1,121.000003692627,8|0,0:0|0:0,0:0:0:0:
170,338,142138,6,0,P|102:298|197:203,1,242.000007385254,4|8,0:0|0:0,0:0:0:0:
356,199,142700,1,0,0:0:0:0:
221,45,142888,2,0,L|216:170,1,121.000003692627,2|0,0:2|0:0,0:0:0:0:
463,345,143263,1,8,0:0:0:0:
135,343,143450,6,0,P|167:318|365:229,1,242.000007385254,4|2,0:2|0:2,0:0:0:0:
485,200,144013,1,8,0:0:0:0:
187,34,144200,2,0,L|180:279,1,242.000007385254,4|2,0:2|0:2,0:0:0:0:
363,336,144763,2,2,L|287:334,1,60.5000018463135,2|2,0:2|0:2,0:2:0:0:
102,256,144950,2,2,L|166:254,1,60.5000018463135,2|2,0:2|0:2,0:2:0:0:
418,164,145138,6,0,B|286:155,1,121.000003692627,4|0,0:0|0:0,0:0:0:0:
46,45,145513,1,8,0:0:0:0:
186,100,145700,1,2,0:2:0:0:
188,160,145793,1,0,0:0:0:0:
190,220,145887,1,0,0:0:0:0:
330,292,146075,1,0,0:0:0:0:
64,296,146263,1,8,0:0:0:0:
404,346,146450,6,0,L|416:155,1,181.500005538941,2|0,0:2|0:0,0:0:0:0:
222,281,146825,2,0,L|213:152,1,121.000003692627,2|8,0:2|0:0,0:0:0:0:
340,132,147200,1,2,0:2:0:0:
179,66,147388,2,0,L|50:60,1,121.000003692627
320,289,147763,2,0,L|506:295,1,181.500005538941,8|0,0:0|0:0,0:0:0:0:
230,222,148138,6,0,P|163:185|247:73,1,242.000007385254,4|8,0:0|0:0,0:0:0:0:
414,56,148700,1,0,0:0:0:0:
418,116,148793,1,0,0:0:0:0:
357,121,148887,1,2,0:2:0:0:
234,128,149075,1,2,0:2:0:0:
484,208,149263,1,8,0:0:0:0:
142,334,149450,6,0,L|324:328,1,181.500005538941,2|0,0:2|0:0,0:0:0:0:
102,226,149825,2,0,L|99:103,1,121.000003692627,0|8,0:0|0:0,0:0:0:0:
404,47,150200,2,0,P|476:85|382:180,1,242.000007385254,2|0,0:2|0:0,0:0:0:0:
270,184,150763,1,8,0:0:0:0:
401,186,150950,1,0,0:0:0:0:
74,334,151138,5,4,0:0:0:0:
194,331,151325,1,0,0:0:0:0:
315,329,151513,1,8,0:0:0:0:
132,262,151700,1,2,0:2:0:0:
129,201,151793,1,0,0:0:0:0:
126,141,151887,1,2,0:2:0:0:
289,83,152075,2,0,L|412:85,1,121.000003692627,2|8,0:2|0:0,0:0:0:0:
128,82,152450,1,0,0:0:0:0:
471,338,152638,5,4,0:0:0:0:
350,334,152825,1,2,0:2:0:0:
229,331,153013,1,8,0:0:0:0:
404,230,153200,2,0,L|469:228,2,60.5000018463135,2|0|0,0:2|0:0|0:0,0:0:0:0:
138,186,153575,2,2,L|133:51,1,121.000003692627,2|8,0:2|0:0,0:2:0:0:
403,52,153950,1,0,0:0:0:0:
39,206,154138,6,0,P|57:225|269:330,1,242.000007385254,4|8,0:2|0:0,0:0:0:0:
490,331,154700,1,0,0:0:0:0:
357,301,154888,2,0,L|352:176,1,121.000003692627
490,331,155263,1,8,0:0:0:0:
177,45,155450,6,0,P|108:93|187:198,1,242.000007385254,4|0,0:2|0:0,0:0:0:0:
349,341,156013,2,0,L|355:207,1,121.000003692627,8|0,0:0|0:0,0:0:0:0:
155,147,156388,2,0,L|290:144,1,121.000003692627
462,334,156763,2,0,P|435:304|286:235,1,181.500005538941,8|0,0:0|0:0,0:0:0:0:
31,104,157138,6,0,L|26:331,1,220,4|8,0:0|0:0,0:0:0:0:
324,345,158075,1,0,0:0:0:0:
224,342,158263,1,8,0:0:0:0:
324,345,158450,1,0,0:0:0:0:
156,260,158638,6,0,P|96:196|168:102,1,220,2|8,0:0|0:0,0:0:0:0:
274,39,159200,2,0,L|277:155,1,110
92,185,159575,1,0,0:0:0:0:
192,183,159763,1,8,0:0:0:0:
92,185,159950,1,0,0:0:0:0:
378,317,160138,6,0,P|446:263|374:173,1,220,0|8,0:0|0:0,0:0:0:0:
175,281,160888,2,0,L|173:172,1,110
293,163,161263,1,8,0:0:0:0:
117,45,161450,6,0,L|348:42,2,220
393,192,162575,2,0,L|275:193,2,110,0|8|0,0:0|0:0|0:0,0:0:0:0:
397,239,163044,1,0,0:0:0:0:
145,318,163138,6,0,P|79:263|163:182,1,220,0|8,0:0|0:0,0:0:0:0:
281,177,163700,2,0,L|406:175,1,110
206,85,164075,2,0,L|90:84,2,110,0|8|0,0:0|0:0|0:0,0:0:0:0:
339,94,164638,5,0,0:0:0:0:
441,122,164825,1,0,0:0:0:0:
485,219,165013,1,8,0:0:0:0:
437,314,165200,1,0,0:0:0:0:
334,339,165388,1,0,0:0:0:0:
183,312,165575,2,0,L|181:198,1,110,0|8,0:0|0:0,0:0:0:0:
307,201,165950,1,0,0:0:0:0:
54,55,166138,6,0,P|72:100|225:187,1,220,4|8,0:0|0:0,0:0:0:0:
328,195,166700,1,0,0:0:0:0:
181,258,166888,2,0,L|52:263,1,110
203,328,167263,1,8,0:0:0:0:
49,336,167450,6,0,L|44:210,1,110
218,192,167825,2,0,L|340:195,1,110,0|8,0:0|0:0,0:0:0:0:
166,38,168200,2,0,L|149:270,1,220
18,331,168763,1,8,0:0:0:0:
149,257,168950,1,0,0:0:0:0:
433,332,169138,6,0,P|375:284|231:219,1,220,4|8,0:0|0:0,0:0:0:0:
129,197,169700,1,0,0:0:0:0:
290,93,169888,1,2,0:0:0:0:
191,90,170075,1,2,0:0:0:0:
290,93,170263,1,8,0:0:0:0:
123,34,170450,6,0,L|120:146,1,110
297,351,170825,2,0,P|394:311|286:73,1,440,2|2,0:0|0:0,0:0:0:0:
151,33,171763,2,0,L|142:152,1,110,8|0,0:0|0:0,0:0:0:0:
318,209,172138,6,0,L|427:216,1,110,8|0,0:0|0:0,0:0:0:0:
250,298,172513,2,0,L|26:308,1,220,8|2,0:0|0:0,0:0:0:0:
217,341,173075,2,0,L|225:222,1,110,2|8,0:0|0:0,0:0:0:0:
52,197,173450,6,0,P|121:156|261:104,1,220,0|2,0:0|0:0,0:0:0:0:
363,89,174013,1,8,0:0:0:0:
175,326,174200,2,0,P|106:267|191:187,1,220,0|2,0:0|0:0,0:0:0:0:
316,169,174763,1,8,0:0:0:0:
171,108,174950,2,8,L|171:37,1,55
344,41,175138,6,0,P|421:73|500:189,1,220,4|8,0:0|0:0,0:0:0:0:
337,334,175700,1,0,0:0:0:0:
234,306,175887,1,2,0:0:0:0:
188,210,176075,1,2,0:0:0:0:
234,113,176262,1,8,0:0:0:0:
337,86,176450,1,2,0:0:0:0:
160,43,176638,6,0,L|150:275,1,220,0|8,0:0|0:0,0:0:0:0:
294,275,177200,1,0,0:0:0:0:
162,343,177388,2,0,L|51:346,2,110,2|2|8,0:0|0:0|0:0,0:0:0:0:
31,303,177950,2,2,L|27:240,1,55
279,65,178138,6,8,P|346:143|271:212,1,220,12|8,0:0|0:0,0:0:0:0:
164,217,178700,1,2,0:0:0:0:
318,346,178888,2,0,L|324:232,1,110,8|2,0:0|0:0,0:0:0:0:
139,336,179263,2,0,L|250:336,1,110,8|2,0:0|0:0,0:0:0:0:
78,267,179638,2,0,L|76:152,1,110,8|2,0:0|0:0,0:0:0:0:
241,78,180013,6,8,L|463:80,1,220
276,160,180575,2,8,L|272:221,1,55
440,234,180763,1,8,0:0:0:0:
442,288,180856,1,8,0:0:0:0:
445,343,180950,1,8,0:0:0:0:
120,322,181138,5,4,0:0:0:0:
229,322,181325,1,2,0:0:0:0:
339,323,181513,1,10,0:0:0:0:
72,217,181888,1,2,0:0:0:0:
176,219,182075,1,2,0:0:0:0:
72,217,182263,1,8,0:0:0:0:
321,44,182450,6,0,P|382:82|312:182,1,220,4|2,0:0|0:0,0:0:0:0:
197,182,183013,1,8,0:0:0:0:
351,354,183200,1,2,0:0:0:0:
353,299,183293,1,0,0:0:0:0:
355,244,183387,1,0,0:0:0:0:
201,296,183575,1,2,0:0:0:0:
310,295,183762,1,10,0:0:0:0:
420,295,183950,1,2,0:0:0:0:
149,40,184138,6,0,L|143:162,1,110,6|2,0:0|0:0,0:0:0:0:
288,209,184513,2,0,L|111:213,2,165,10|2|2,0:0|0:0|0:0,0:0:0:0:
400,206,185263,1,10,0:0:0:0:
150,332,185450,6,0,P|92:304|161:196,1,220,6|2,0:0|0:0,0:0:0:0:
37,113,186013,1,10,0:0:0:0:
306,45,186200,1,6,0:0:0:0:
169,120,186388,1,2,0:0:0:0:
165,174,186481,1,0,0:0:0:0:
162,229,186575,1,2,0:0:0:0:
306,302,186763,1,10,0:0:0:0:
177,299,186950,1,2,0:0:0:0:
451,340,187138,6,0,L|456:227,1,110,6|0,0:0|0:0,0:0:0:0:
393,222,187419,1,2,0:0:0:0:
221,33,187513,5,10,0:0:0:0:
187,75,187606,1,2,0:0:0:0:
179,129,187700,1,2,0:0:0:0:
200,179,187794,1,2,0:0:0:0:
244,211,187888,1,2,0:0:0:0:
298,216,187981,1,2,0:0:0:0:
138,283,188075,2,2,L|135:343,1,55
316,344,188263,2,2,L|262:343,1,55,10|2,0:0|0:0,0:0:0:0:
39,261,188450,6,0,P|86:221|233:154,1,220,6|2,0:0|0:0,0:0:0:0:
295,150,188919,2,2,L|300:211,1,55,2|10,0:0|0:0,0:0:0:0:
138,283,189200,2,0,L|130:337,2,55,2|0|0,0:0|0:0|0:0,0:0:0:0:
276,281,189575,1,2,0:0:0:0:
31,172,189763,2,0,L|29:54,1,110,10|0,0:0|0:0,0:0:0:0:
280,42,190138,6,0,L|507:49,1,220,6|8,0:0|0:0,0:0:0:0:
365,123,190700,1,0,0:0:0:0:
198,213,190888,2,0,L|312:213,2,110,2|2|8,0:0|0:0|0:0,0:0:0:0:
444,344,191450,6,0,P|366:304|233:275,1,220,6|2,0:0|0:0,0:0:0:0:
350,212,192013,1,8,0:0:0:0:
89,41,192200,2,0,L|79:267,1,220,6|2,0:0|0:0,0:0:0:0:
223,261,192763,1,8,0:0:0:0:
79,260,192950,2,10,L|11:261,1,55
292,313,193138,6,0,P|354:268|286:169,1,220,12|8,0:0|0:0,0:0:0:0:
399,108,193700,1,0,0:0:0:0:
262,38,193888,2,2,L|259:154,1,110,2|2,0:2|0:2,0:2:0:0:
412,114,194263,1,8,0:0:0:0:
242,222,194450,6,0,L|18:227,1,220,2|2,0:2|0:2,0:0:0:0:
5,321,195013,1,8,0:0:0:0:
298,342,195200,6,0,P|365:255|290:203,1,220,2|2,0:2|0:2,0:0:0:0:
443,154,195763,2,0,L|446:35,1,110,8|2,0:0|0:2,0:0:0:0:
183,135,196138,6,0,P|229:97|333:52,1,165,4|2,0:0|0:2,0:0:0:0:
157,209,196513,2,0,L|143:331,1,110,8|0,0:0|0:0,0:0:0:0:
315,341,196888,1,2,0:2:0:0:
221,283,197075,1,2,0:2:0:0:
116,252,197263,1,8,0:0:0:0:
284,276,197450,6,0,L|293:53,1,220,2|2,0:2|0:2,0:0:0:0:
408,39,198013,1,8,0:0:0:0:
147,48,198200,2,0,P|85:96|166:189,1,220,2|2,0:2|0:2,0:0:0:0:
461,302,198763,1,8,0:0:0:0:
322,298,198950,1,2,0:2:0:0:
42,342,199138,6,0,P|99:303|203:267,1,165,4|0,0:0|0:0,0:0:0:0:
351,255,199513,1,8,0:0:0:0:
219,187,199700,1,2,0:2:0:0:
168,169,199793,1,2,0:2:0:0:
146,121,199887,1,2,0:2:0:0:
167,71,199981,1,2,0:2:0:0:
218,54,200075,1,2,0:2:0:0:
473,47,200263,1,8,0:0:0:0:
191,94,200450,6,0,L|419:92,1,220,4|2,0:0|0:2,0:0:0:0:
465,92,200919,2,0,L|397:92,1,55,2|8,0:2|0:0,0:0:0:0:
260,328,201200,1,0,0:0:0:0:
303,294,201293,1,2,0:2:0:0:
319,242,201387,1,2,0:2:0:0:
304,191,201481,1,2,0:2:0:0:
261,157,201575,1,2,0:2:0:0:
207,153,201668,1,0,0:0:0:0:
414,34,201763,2,0,L|418:159,1,110,8|0,0:0|0:0,0:0:0:0:
119,71,202138,6,0,L|289:66,1,165,4|0,0:0|0:0,0:0:0:0:
455,267,202513,2,0,L|341:262,1,110,8|0,0:0|0:0,0:0:0:0:
177,324,202888,1,0,0:0:0:0:
267,261,203075,1,0,0:0:0:0:
368,217,203263,1,8,0:0:0:0:
475,193,203450,1,0,0:0:0:0:
199,34,203638,6,0,P|133:79|212:169,1,220,4|8,0:0|0:0,0:0:0:0:
314,173,204200,1,2,0:2:0:0:
165,242,204388,2,2,L|43:243,1,110,2|2,0:2|0:2,0:2:0:0:
323,346,204763,2,2,L|326:224,1,110,2|2,0:2|0:2,0:2:0:0:
301,323,206638,5,2,0:0:0:0:
219,296,206825,1,0,0:0:0:0:
185,218,207013,1,0,0:0:0:0:
221,140,207200,1,0,0:0:0:0:
328,40,207388,2,0,L|335:226,1,176
197,261,207950,6,0,L|11:266,1,176
275,35,208700,2,0,P|375:79|265:239,1,352
127,328,209638,6,0,L|124:145,1,176,2|0,0:0|0:0,0:0:0:0:
276,44,210200,2,0,P|202:124|42:185,1,264
327,339,211138,6,0,L|335:156,1,176,2|0,0:0|0:0,0:0:0:0:
185,56,211700,2,0,P|84:99|197:259,1,352
348,329,212638,6,0,L|352:238,1,88,2|0,0:0|0:0,0:0:0:0:
167,166,213200,2,0,L|364:167,2,176
29,57,214138,6,0,L|24:155,1,88,2|0,0:0|0:0,0:0:0:0:
237,334,214700,2,0,L|27:336,2,176
408,262,215638,6,0,L|311:259,1,88,2|0,0:0|0:0,0:0:0:0:
107,248,216200,1,2,0:0:0:0:
352,41,216575,2,0,P|246:68|371:45,1,880
129,36,218638,6,0,P|68:121|137:158,1,197.99999395752,4|0,0:0|0:0,0:0:0:0:
229,167,219200,1,0,0:0:0:0:
52,329,219388,2,0,P|105:297|256:252,1,197.99999395752,8|0,0:0|0:0,0:0:0:0:
402,158,219950,6,0,P|349:126|198:81,2,197.99999395752,4|0|0,0:3|0:0|0:0,0:0:0:0:
246,143,220888,2,0,L|241:342,1,197.99999395752,8|0,0:0|0:0,0:0:0:0:
122,349,221450,1,0,0:0:0:0:
371,336,221638,5,4,0:3:0:0:
279,309,221825,1,0,0:0:0:0:
242,220,222013,1,0,0:0:0:0:
288,136,222200,1,4,0:3:0:0:
411,32,222388,2,0,L|417:235,1,197.99999395752,8|0,0:0|0:0,0:0:0:0:
235,45,222950,6,0,L|19:49,2,197.99999395752,4|0|0,0:3|0:0|0:3,0:0:0:0:
95,127,223888,2,0,P|42:229|103:256,1,197.99999395752,8|0,0:0|0:0,0:0:0:0:
191,268,224450,1,0,0:0:0:0:
438,348,224638,5,4,0:3:0:0:
311,323,224825,2,0,L|309:115,1,197.99999395752
466,51,225388,2,0,P|395:106|275:150,1,197.99999395752,8|0,0:0|0:0,0:0:0:0:
124,240,225950,6,0,P|195:185|315:141,2,197.99999395752,4|0|0,0:3|0:0|0:3,0:0:0:0:
284,342,226888,2,0,L|295:134,1,197.99999395752,8|0,0:0|0:0,0:0:0:0:
402,113,227450,1,0,0:0:0:0:
108,84,227638,6,0,P|182:123|313:143,1,197.99999395752,6|0,0:0|0:0,0:0:0:0:
114,332,228200,2,0,L|112:120,1,197.99999395752,6|0,0:0|0:0,0:0:0:0:
293,143,228763,2,0,P|219:104|88:84,1,197.99999395752,6|0,0:0|0:0,0:0:0:0:
399,62,230450,2,8,L|402:124,1,44
162,325,230638,6,0,L|40:327,1,121.000003692627,2|0,0:0|0:0,0:0:0:0:
295,225,231013,2,0,L|297:104,1,121.000003692627,8|0,0:0|0:0,0:0:0:0:
125,70,231388,2,0,L|253:66,1,121.000003692627,0|2,0:0|0:2,0:0:0:0:
494,55,231763,1,8,0:0:0:0:
172,329,231950,6,0,P|101:297|183:192,1,242.000007385254,2|0,0:2|0:0,0:0:0:0:
41,107,232513,1,8,0:0:0:0:
188,38,232700,1,2,0:2:0:0:
192,98,232793,1,0,0:0:0:0:
195,158,232887,1,0,0:0:0:0:
341,232,233075,1,2,0:2:0:0:
18,344,233263,2,0,P|76:307|188:264,1,181.500005538941,8|0,0:0|0:0,0:0:0:0:
362,173,233638,6,0,L|240:171,1,121.000003692627,2|0,0:2|0:0,0:0:0:0:
491,40,234013,1,8,0:0:0:0:
357,114,234200,1,2,0:2:0:0:
356,174,234293,1,0,0:0:0:0:
354,234,234387,1,0,0:0:0:0:
208,300,234575,1,0,0:0:0:0:
486,303,234763,1,8,0:0:0:0:
153,340,234950,6,0,L|410:333,1,242.000007385254,2|2,0:2|0:2,0:0:0:0:
247,246,235513,1,8,0:0:0:0:
416,70,235700,1,2,0:2:0:0:
418,130,235793,1,0,0:0:0:0:
421,190,235887,1,0,0:0:0:0:
233,41,236075,1,2,0:2:0:0:
353,40,236262,1,8,0:0:0:0:
474,39,236450,1,2,0:2:0:0:
157,112,236638,6,0,P|72:174|182:244,1,242.000007385254,4|8,0:2|0:0,0:0:0:0:
314,324,237200,1,0,0:0:0:0:
316,263,237293,1,0,0:0:0:0:
319,203,237387,1,2,0:2:0:0:
134,187,237575,2,0,L|263:185,1,121.000003692627,0|8,0:0|0:0,0:0:0:0:
503,182,237950,1,0,0:0:0:0:
218,333,238138,6,0,L|216:202,1,121.000003692627,2|0,0:2|0:0,0:0:0:0:
352,200,238513,1,8,0:0:0:0:
104,46,238700,2,0,L|231:44,1,121.000003692627,2|0,0:2|0:0,0:0:0:0:
403,134,239075,2,0,L|282:129,1,121.000003692627,2|8,0:2|0:0,0:0:0:0:
36,124,239450,1,0,0:0:0:0:
320,341,239638,6,0,L|325:218,1,121.000003692627,4|0,0:0|0:0,0:0:0:0:
459,179,240013,1,8,0:0:0:0:
276,68,240200,2,0,P|221:82|77:199,1,242.000007385254,2|2,0:2|0:2,0:0:0:0:
378,174,240763,1,8,0:0:0:0:
79,188,240950,6,0,P|163:273|276:315,1,242.000007385254,4|2,0:2|0:2,0:0:0:0:
406,331,241513,1,8,0:0:0:0:
87,31,241700,2,0,L|71:288,1,242.000007385254,4|2,0:2|0:2,0:0:0:0:
256,339,242263,2,8,L|185:336,1,60.5000018463135
31,236,242450,2,8,L|101:232,1,60.5000018463135
337,212,242638,6,0,L|471:206,1,121.000003692627,4|0,0:0|0:0,0:0:0:0:
213,36,243013,2,0,L|206:158,1,121.000003692627,8|0,0:0|0:0,0:0:0:0:
393,168,243388,2,2,L|267:165,1,121.000003692627,2|2,0:2|0:2,0:2:0:0:
22,171,243763,1,8,0:0:0:0:
329,343,243950,6,0,P|250:306|96:266,1,242.000007385254,2|2,0:2|0:2,0:0:0:0:
250,208,244513,1,8,0:0:0:0:
102,131,244700,1,2,0:2:0:0:
162,128,244793,1,2,0:2:0:0:
222,125,244887,1,2,0:2:0:0:
343,122,245075,1,2,0:2:0:0:
96,243,245263,2,0,L|92:105,1,121.000003692627,8|0,0:0|0:0,0:0:0:0:
406,247,245638,5,2,0:2:0:0:
285,243,245825,1,0,0:0:0:0:
164,240,246013,1,8,0:0:0:0:
285,243,246200,1,0,0:0:0:0:
425,217,246388,2,0,L|488:217,2,60.5000018463135,2|0|2,0:2|0:0|0:2,0:0:0:0:
171,57,246763,1,8,0:0:0:0:
485,323,246950,6,0,P|423:293|305:268,1,181.500005538941,4|0,0:0|0:0,0:0:0:0:
149,338,247325,2,0,L|279:335,1,121.000003692627,0|8,0:0|0:0,0:0:0:0:
24,172,247700,2,0,P|128:119|258:93,1,242.000007385254,4|0,0:2|0:0,0:0:0:0:
71,231,248263,2,0,L|62:353,1,121.000003692627,8|0,0:0|0:0,0:0:0:0:
336,284,248638,6,0,P|410:233|322:131,1,242.000007385254,4|8,0:0|0:0,0:0:0:0:
160,239,249200,1,0,0:0:0:0:
214,213,249293,1,0,0:0:0:0:
273,197,249387,1,2,0:2:0:0:
432,62,249575,2,0,L|435:187,1,121.000003692627,2|8,0:2|0:0,0:0:0:0:
143,338,249950,6,0,P|246:294|380:268,1,242.000007385254,2|2,0:2|0:2,0:0:0:0:
220,196,250513,1,8,0:0:0:0:
387,104,250701,1,2,0:2:0:0:
326,104,250793,1,0,0:0:0:0:
266,104,250888,1,2,0:2:0:0:
93,102,251075,2,0,L|224:102,1,121.000003692627,2|8,0:2|0:0,0:0:0:0:
471,103,251450,1,0,0:0:0:0:
202,317,251638,6,0,L|201:190,1,121.000003692627,4|0,0:2|0:0,0:0:0:0:
341,179,252013,1,8,0:0:0:0:
61,148,252200,2,0,P|144:98|288:59,1,242.000007385254,0|2,0:0|0:2,0:0:0:0:
30,38,252763,1,8,0:0:0:0:
354,331,252950,6,0,P|249:271|131:242,1,242.000007385254,4|0,0:2|0:0,0:0:0:0:
296,167,253513,2,0,L|430:160,1,121.000003692627,8|0,0:0|0:0,0:0:0:0:
169,38,253888,2,0,P|100:73|186:180,1,242.000007385254,4|8,0:2|0:0,0:0:0:0:
40,264,254450,1,0,0:0:0:0:
373,355,254638,6,0,P|292:304|144:263,1,242.000007385254,4|8,0:0|0:0,0:0:0:0:
307,180,255200,2,2,L|379:180,2,60.5000018463135
184,180,255575,1,2,0:0:0:0:
442,177,255763,1,10,0:0:0:0:
145,31,255950,6,0,L|132:277,1,242.000007385254,2|0,0:0|0:0,0:0:0:0:
261,278,256513,2,0,L|386:280,1,121.000003692627,8|2,0:0|0:0,0:0:0:0:
194,235,256888,1,2,0:0:0:0:
193,174,256981,1,2,0:0:0:0:
192,114,257075,1,2,0:0:0:0:
51,43,257263,1,10,0:0:0:0:
192,114,257450,1,2,0:0:0:0:
386,35,257638,6,0,P|456:82|363:180,1,242.000007385254,2|8,0:0|0:0,0:0:0:0:
228,302,258200,2,2,L|226:236,1,60.5000018463135
289,242,258388,1,2,0:0:0:0:
141,159,258575,1,2,0:0:0:0:
388,149,258763,1,10,0:0:0:0:
98,69,258950,6,2,L|351:66,1,242.000007385254,2|0,0:0|0:0,0:0:0:0:
182,173,259513,1,8,0:0:0:0:
348,256,259700,1,2,0:0:0:0:
287,257,259793,1,2,0:0:0:0:
227,258,259887,1,2,0:0:0:0:
101,258,260075,1,2,0:0:0:0:
358,334,260263,2,0,L|488:330,1,121.000003692627,10|2,0:0|0:0,0:0:0:0:
224,297,260638,6,0,L|222:110,1,181.500005538941,2|2,0:0|0:0,0:0:0:0:
381,59,261013,2,0,L|253:63,1,121.000003692627,8|2,0:0|0:0,0:0:0:0:
95,68,261388,2,0,L|223:64,1,121.000003692627,2|2,0:0|0:0,0:0:0:0:
463,56,261763,1,8,0:0:0:0:
140,123,261950,6,0,L|125:371,1,242.000007385254,6|0,0:0|0:0,0:0:0:0:
258,358,262513,2,0,L|382:359,1,121.000003692627,8|2,0:0|0:0,0:0:0:0:
196,259,262888,1,2,0:0:0:0:
45,260,263075,1,2,0:0:0:0:
293,164,263263,1,10,0:0:0:0:
468,163,263450,1,2,0:0:0:0:
189,32,263638,6,0,P|111:78|203:160,1,242.000007385254,6|10,0:0|0:0,0:0:0:0:
440,344,264200,2,0,P|345:298|195:262,1,242.000007385254,6|2,0:0|0:0,0:0:0:0:
90,247,264763,1,10,0:0:0:0:
365,51,264950,2,0,L|378:306,1,242.000007385254,6|2,0:0|0:0,0:0:0:0:
221,298,265513,1,8,0:0:0:0:
377,292,265700,2,8,L|449:292,2,60.5000018463135
9,193,266075,5,14,0:0:0:0:
256,192,266263,1,14,0:0:0:0:
503,193,266450,1,14,0:0:0:0:
