osu file format v14

[General]
AudioFilename: audio.mp3
AudioLeadIn: 0
PreviewTime: 57014
Countdown: 0
SampleSet: None
StackLeniency: 0.7
Mode: 0
LetterboxInBreaks: 0
WidescreenStoryboard: 0

[Editor]
Bookmarks: 11196,20651,32287,43923,57014,68651,80287
DistanceSpacing: 0.8
BeatDivisor: 4
GridSize: 8
TimelineZoom: 1.3

[Metadata]
Title:Yukitoki (TV Size)
TitleUnicode:ユキトキ (TV Size)
Artist:yanaginagi
ArtistUnicode:やなぎなぎ
Creator:achyoo
Version:gayge
Source:やはり俺の青春ラブコメはまちがっている。
Tags:ayucchi shirahane suou 錦木 千束 Nishikigi Chisato 井ノ上 たきな Inoue Takina chisataki Oregairu 俺ガイル Yanagi Nagi Yahari Ore no Seishun Love Come wa Machigatteiru My Teen Romantic Comedy SNAFU Youth Is Wrong As I Expected anime opening op jpop j-pop pop japanese
BeatmapID:4537999
BeatmapSetID:2153649

[Difficulty]
HPDrainRate:5
CircleSize:4
OverallDifficulty:8
ApproachRate:9
SliderMultiplier:1.7
SliderTickRate:1

[Events]
//Background and Video events
0,0,"oregairu.jpg",0,0
//Break Periods
//Storyboard Layer 0 (Background)
//Storyboard Layer 1 (Fail)
//Storyboard Layer 2 (Pass)
//Storyboard Layer 3 (Foreground)
//Storyboard Layer 4 (Overlay)
//Storyboard Sound Samples

[TimingPoints]
1015,363.636363636364,4,2,1,50,1,0
1015,-125,4,2,1,40,0,0
7924,-100,4,2,1,65,0,0
20651,363.636363636364,4,2,1,40,1,0
20651,-166.666666666667,4,2,1,40,0,0
30832,-250.000000000001,4,2,1,40,0,0
32287,-125,4,2,1,50,0,0
52651,-100,4,2,1,55,0,0
55196,-250,4,2,1,50,0,0
55560,-125,4,2,1,50,0,0
57014,-83.3333333333333,4,2,1,75,0,1
80287,-83.3333333333333,4,2,1,65,0,0

[Colours]
Combo1 : 136,169,255
Combo2 : 245,109,109
Combo3 : 143,143,143
Combo4 : 249,234,128

[HitObjects]
132,78,1015,6,0,L|141:159,1,68
145,270,1378,2,0,P|182:227|217:221,1,68
267,259,1742,1,0,0:0:0:0:
346,236,1924,2,0,L|437:258,2,68
295,151,2469,6,0,P|302:132|345:98,1,68
426,81,2833,2,0,L|442:11,1,68
508,129,3196,2,0,L|492:199,1,68
416,216,3560,1,0,0:0:0:0:
387,285,3742,1,0,0:0:0:0:
435,358,3924,6,0,P|338:320|278:326,1,136
231,354,4469,1,0,0:0:0:0:
147,345,4651,2,0,P|135:295|151:255,1,68
77,233,5015,1,0,0:0:0:0:
106,141,5196,6,0,L|14:166,1,68
127,52,5560,2,0,L|219:27,1,68
190,168,5924,2,0,P|125:159|68:97,1,136
133,24,6469,5,0,0:0:0:0:
278,19,6651,1,0,0:0:0:0:
294,153,6833,1,0,0:0:0:0:
256,192,6924,12,0,7833,0:0:0:0:
294,153,7924,6,0,L|286:208,1,42.5
224,296,8105,2,0,L|216:241,1,42.5
311,151,8287,5,0,0:0:0:0:
431,187,8469,1,0,0:0:0:0:
403,66,8651,1,0,0:0:0:0:
311,151,8833,5,0,0:0:0:0:
358,263,9015,1,0,0:0:0:0:
246,310,9196,1,0,0:0:0:0:
199,198,9378,6,0,P|215:106|309:59,1,170
407,58,9924,1,0,0:0:0:0:
460,172,10105,2,0,P|444:264|350:311,1,170
290,241,10651,1,0,0:0:0:0:
194,304,10833,1,0,0:0:0:0:
164,301,10924,1,0,0:0:0:0:
134,306,11015,1,0,0:0:0:0:
107,319,11105,1,0,0:0:0:0:
87,341,11196,6,0,L|57:224,1,85
128,155,11560,1,0,0:0:0:0:
226,72,11742,6,0,L|256:189,1,85
314,259,12106,1,0,0:0:0:0:
453,339,12287,6,0,B|474:284|434:225|434:225|465:175,1,170
498,72,12833,1,0,0:0:0:0:
498,72,12924,1,0,0:0:0:0:
498,72,13015,1,0,0:0:0:0:
383,28,13196,1,0,0:0:0:0:
383,28,13287,1,0,0:0:0:0:
383,28,13378,2,0,P|335:73|324:108,1,85
324,112,13651,1,0,0:0:0:0:
328,134,13742,2,0,L|349:225,1,85
470,301,14105,6,0,P|504:343|503:399,1,85
371,376,14469,2,0,P|322:346|296:346,1,85
194,384,14833,1,0,0:0:0:0:
146,265,15015,1,0,0:0:0:0:
227,296,15196,1,0,0:0:0:0:
118,349,15378,6,0,L|25:332,1,85
227,296,15742,2,0,L|320:313,1,85
131,255,16105,5,0,0:0:0:0:
68,146,16287,1,0,0:0:0:0:
232,174,16469,1,0,0:0:0:0:
166,72,16651,2,0,L|151:159,1,85
279,264,17015,6,0,P|318:221|296:105,1,170
271,91,17469,1,0,0:0:0:0:
281,49,17560,1,0,0:0:0:0:
319,31,17651,1,0,0:0:0:0:
361,34,17742,6,0,L|418:66,1,42.5
493,104,17924,2,0,L|506:53,1,42.5
407,163,18105,2,0,L|355:183,1,42.5
492,247,18287,5,0,0:0:0:0:
492,247,18378,1,0,0:0:0:0:
492,247,18469,2,0,P|492:300|464:333,1,85
451,345,18742,1,0,0:0:0:0:
419,351,18833,2,0,P|385:327|338:313,1,85
309,310,19105,1,0,0:0:0:0:
287,325,19196,6,0,L|275:375,1,42.5
174,278,19378,2,0,L|186:228,1,42.5
294,162,19560,5,0,0:0:0:0:
294,162,19651,1,0,0:0:0:0:
294,162,19742,2,0,L|349:184,2,42.5
6,60,20651,6,0,L|157:32,1,152.999995330811
255,112,21378,2,0,L|104:140,1,152.999995330811
23,233,22105,2,0,P|15:289|72:368,1,152.999995330811
143,321,22832,2,0,L|267:297,1,101.999996887207
404,131,23560,6,0,B|384:174|384:174|411:231|376:273,1,152.999995330811
297,218,24287,2,0,B|251:188|195:211|195:211|152:191,1,152.999995330811
65,288,25014,2,0,L|28:130,1,152.999995330811
71,58,25741,2,0,P|107:65|165:32,1,101.999996887207
284,216,26469,6,0,L|449:249,1,152.999995330811
491,182,27196,2,0,P|465:157|468:88,1,101.999996887207
162,35,27923,6,0,L|129:200,1,152.999995330811
196,242,28650,2,0,P|221:216|290:219,1,101.999996887207
512,341,29378,6,0,B|470:325|470:325|433:374|368:364,1,152.999995330811
316,296,30105,2,0,P|315:219|342:148,1,152.999995330811
253,0,30832,6,0,P|249:78|226:147,1,136
20,80,31923,5,0,0:0:0:0:
17,63,32013,1,0,0:0:0:0:
26,49,32104,1,0,0:0:0:0:
42,44,32195,1,0,0:0:0:0:
58,48,32287,6,0,P|98:52|137:91,1,68
182,160,32651,2,0,L|210:95,1,68
284,40,33014,1,0,0:0:0:0:
352,106,33196,1,0,0:0:0:0:
324,189,33378,2,0,P|280:194|234:213,1,68
250,320,33741,6,0,P|299:320|395:279,1,136
438,199,34287,1,0,0:0:0:0:
334,164,34469,1,0,0:0:0:0:
377,46,34651,1,0,0:0:0:0:
416,121,34832,1,0,0:0:0:0:
300,86,35014,1,0,0:0:0:0:
230,173,35196,6,0,P|234:223|240:264,1,68
139,328,35560,2,0,P|135:278|129:237,1,68
137,123,35923,2,0,P|96:145|70:181,1,68
132,260,36287,2,0,P|173:238|199:202,1,68
299,215,36651,5,0,0:0:0:0:
274,304,36832,1,0,0:0:0:0:
348,372,37014,2,0,L|408:338,1,68
493,252,37378,2,0,P|476:197|448:179,1,68
371,97,37741,1,0,0:0:0:0:
247,152,37923,1,0,0:0:0:0:
354,240,38105,6,0,P|367:167|319:103,1,136
263,62,38651,1,0,0:0:0:0:
187,113,38832,1,0,0:0:0:0:
223,200,39014,2,0,P|262:188|298:183,2,68
146,287,39560,6,0,B|91:300|55:266|55:266|24:295,1,136
70,366,40105,1,0,0:0:0:0:
116,211,40287,2,0,L|101:131,1,68
174,42,40651,1,0,0:0:0:0:
72,3,40832,1,0,0:0:0:0:
37,127,41014,6,0,P|71:135|114:147,1,68
167,221,41378,2,0,P|201:192|211:150,1,68
249,49,41741,2,0,P|264:79|291:98,1,68
436,110,42105,1,0,0:0:0:0:
375,4,42287,1,0,0:0:0:0:
375,4,42378,1,0,0:0:0:0:
375,4,42469,2,0,L|359:95,1,68
289,212,42832,5,0,0:0:0:0:
374,96,43014,1,0,0:0:0:0:
374,240,43196,1,0,0:0:0:0:
289,124,43378,1,0,0:0:0:0:
425,168,43560,1,0,0:0:0:0:
448,192,43650,1,0,0:0:0:0:
460,224,43741,1,0,0:0:0:0:
459,258,43832,1,0,0:0:0:0:
445,289,43923,6,0,P|380:275|300:264,1,136
63,325,44651,1,0,0:0:0:0:
140,368,44832,1,0,0:0:0:0:
220,331,45014,1,0,0:0:0:0:
227,245,45196,5,0,0:0:0:0:
15,145,45560,1,0,0:0:0:0:
193,9,45923,1,0,0:0:0:0:
193,9,46014,1,0,0:0:0:0:
193,9,46105,1,0,0:0:0:0:
107,67,46287,2,0,P|126:132|139:198,1,136
231,322,46832,5,0,0:0:0:0:
147,205,47014,2,0,L|288:233,1,136
398,85,47560,2,0,P|404:50|384:14,1,68
312,71,47923,1,0,0:0:0:0:
431,182,48105,5,0,0:0:0:0:
243,145,48469,2,0,L|309:158,1,68
358,236,48832,1,0,0:0:0:0:
165,273,49014,2,0,L|98:286,1,68
41,364,49378,1,0,0:0:0:0:
120,188,49560,5,0,0:0:0:0:
120,188,49651,1,0,0:0:0:0:
120,188,49741,2,0,P|114:108|44:81,1,136
178,263,50469,1,0,0:0:0:0:
258,300,50651,1,0,0:0:0:0:
324,243,50832,1,0,0:0:0:0:
406,280,51014,5,0,0:0:0:0:
507,124,51378,1,0,0:0:0:0:
319,77,51741,1,0,0:0:0:0:
319,77,51832,1,0,0:0:0:0:
319,77,51923,1,0,0:0:0:0:
378,139,52105,2,0,P|420:113|403:33,1,136
249,149,52651,5,0,0:0:0:0:
242,155,53014,1,0,0:0:0:0:
344,232,53196,1,0,0:0:0:0:
219,290,53378,1,0,0:0:0:0:
252,143,53560,1,0,0:0:0:0:
320,328,53741,1,0,0:0:0:0:
157,220,53923,1,0,0:0:0:0:
354,121,54105,5,0,0:0:0:0:
145,224,54287,2,0,L|45:202,1,85
356,108,54651,2,0,P|426:108|479:16,1,170
276,0,55196,6,0,L|264:79,1,68
265,67,55741,1,0,0:0:0:0:
193,124,55923,2,0,L|181:203,1,68
182,191,56196,1,0,0:0:0:0:
185,213,56286,1,0,0:0:0:0:
188,235,56377,1,0,0:0:0:0:
192,258,56468,1,0,0:0:0:0:
387,374,56651,6,0,P|419:345|401:278,1,102
406,281,57014,6,0,P|361:290|265:318,1,101.999996887207
156,217,57378,2,0,P|201:208|297:180,1,101.999996887207
292,43,57741,1,0,0:0:0:0:
183,6,57923,1,0,0:0:0:0:
202,119,58105,1,0,0:0:0:0:
342,182,58287,1,0,0:0:0:0:
342,182,58469,6,0,P|363:121|354:63,1,101.999996887207
219,31,58832,2,0,B|162:39|117:92|117:92|61:69,1,152.999995330811
78,76,59196,2,0,P|68:137|70:187,1,101.999996887207
210,245,59560,2,0,P|220:184|218:134,1,101.999996887207
95,257,59923,5,0,0:0:0:0:
210,368,60105,1,0,0:0:0:0:
90,364,60287,1,0,0:0:0:0:
210,245,60469,1,0,0:0:0:0:
210,245,60651,2,0,P|283:306|414:271,1,203.999993774414
347,129,61196,6,0,P|313:193|313:251,1,101.999996887207
399,301,61560,1,0,0:0:0:0:
320,368,61741,1,0,0:0:0:0:
236,296,61923,2,0,P|173:298|108:326,1,101.999996887207
57,254,62287,1,0,0:0:0:0:
94,170,62469,1,0,0:0:0:0:
187,184,62651,5,0,0:0:0:0:
187,184,62741,1,0,0:0:0:0:
187,184,62832,2,0,P|184:119|169:70,1,101.999996887207
269,27,63196,1,0,0:0:0:0:
333,118,63378,2,0,P|379:97|427:79,1,101.999996887207
346,227,63741,2,0,P|299:247|251:265,1,101.999996887207
178,204,64105,1,0,0:0:0:0:
75,207,64287,5,0,0:0:0:0:
75,207,64469,2,0,P|45:154|62:89,1,101.999996887207
154,2,64832,1,0,0:0:0:0:
133,138,65014,1,0,0:0:0:0:
58,30,65196,1,0,0:0:0:0:
207,86,65378,2,0,P|262:70|315:62,1,101.999996887207
432,136,65741,5,0,0:0:0:0:
326,231,65923,2,0,B|273:242|237:196|237:196|183:234,1,152.999995330811
187,241,66287,2,0,P|199:304|247:340,1,101.999996887207
385,384,66651,1,0,0:0:0:0:
483,280,66832,1,0,0:0:0:0:
406,157,67014,6,0,P|347:209|299:314,1,152.999995330811
311,289,67378,5,0,0:0:0:0:
257,120,67560,1,0,0:0:0:0:
88,174,67741,1,0,0:0:0:0:
137,339,67923,1,0,0:0:0:0:
196,235,68105,5,0,0:0:0:0:
196,235,68196,1,0,0:0:0:0:
196,235,68287,1,0,0:0:0:0:
175,199,68378,1,0,0:0:0:0:
169,158,68469,1,0,0:0:0:0:
166,117,68560,1,0,0:0:0:0:
172,76,68651,6,0,P|219:64|272:46,1,101.999996887207
403,215,69014,2,0,P|354:198|305:185,1,101.999996887207
352,0,69378,1,0,0:0:0:0:
490,76,69560,1,0,0:0:0:0:
390,108,69741,1,0,0:0:0:0:
493,254,69923,5,0,0:0:0:0:
493,254,70105,2,0,P|472:300|459:349,1,101.999996887207
251,308,70469,2,0,P|294:266|385:282,1,152.999995330811
372,284,70832,2,0,P|327:252|350:194,1,101.999996887207
433,36,71196,2,0,P|427:90|366:100,1,101.999996887207
209,150,71560,5,0,0:0:0:0:
66,81,71741,1,0,0:0:0:0:
104,185,71923,1,0,0:0:0:0:
173,42,72104,1,0,0:0:0:0:
104,185,72287,2,0,P|122:249|146:405,1,203.999993774414
299,195,72832,6,0,P|269:242|226:276,1,101.999996887207
354,381,73196,2,0,P|298:378|247:358,1,101.999996887207
463,345,73560,1,0,0:0:0:0:
463,345,73651,1,0,0:0:0:0:
463,345,73741,2,0,P|423:304|445:146,1,203.999993774414
369,5,74287,1,0,0:0:0:0:
320,187,74469,5,0,0:0:0:0:
448,67,74651,2,0,P|400:84|350:95,1,101.999996887207
167,237,75014,2,0,B|227:225|227:225|271:302|365:288,1,203.999993774414
320,187,75560,1,0,0:0:0:0:
188,338,75741,1,0,0:0:0:0:
86,175,75923,5,0,0:0:0:0:
8,330,76105,2,0,P|47:330|85:278,1,101.999996887207
220,94,76469,2,0,P|186:162|268:267,1,203.999993774414
376,384,77014,2,0,L|343:278,1,101.999996887207
302,71,77378,5,0,0:0:0:0:
302,71,77560,1,0,0:0:0:0:
262,169,77741,1,0,0:0:0:0:
385,139,77923,1,0,0:0:0:0:
240,262,78105,1,0,0:0:0:0:
171,83,78287,1,0,0:0:0:0:
357,237,78469,1,0,0:0:0:0:
156,336,78651,1,0,0:0:0:0:
156,336,79014,5,0,0:0:0:0:
357,237,79196,1,0,0:0:0:0:
171,83,79378,1,0,0:0:0:0:
218,226,79560,1,0,0:0:0:0:
346,125,79741,1,0,0:0:0:0:
346,125,79832,1,0,0:0:0:0:
346,125,79923,2,0,P|404:152|450:140,1,101.999996887207
274,32,80287,6,0,L|257:157,1,101.999996887207
329,253,80651,1,0,0:0:0:0:
185,353,80832,6,0,L|202:228,1,101.999996887207
106,152,81196,1,0,0:0:0:0:
27,270,81378,6,0,P|132:290|219:218,1,203.999993774414
106,152,81923,1,0,0:0:0:0:
180,42,82105,2,0,P|75:22|-12:94,1,203.999993774414
106,152,82651,1,0,0:0:0:0:
239,117,82832,1,0,0:0:0:0:
239,117,82923,1,0,0:0:0:0:
239,117,83014,1,0,0:0:0:0:
294,257,83196,5,0,0:0:0:0:
169,321,83378,1,0,0:0:0:0:
175,180,83560,1,0,0:0:0:0:
322,155,83741,5,0,0:0:0:0:
287,343,83923,1,0,0:0:0:0:
475,378,84105,1,0,0:0:0:0:
510,190,84287,6,0,B|453:159|453:159|411:217|332:228,1,203.999993774414
205,157,84832,1,0,0:0:0:0:
205,157,84923,1,0,0:0:0:0:
205,157,85014,1,0,0:0:0:0:
64,209,85196,1,0,0:0:0:0:
64,209,85287,1,0,0:0:0:0:
64,209,85378,1,0,0:0:0:0:
46,172,85469,1,0,0:0:0:0:
37,132,85560,1,0,0:0:0:0:
42,91,85651,1,0,0:0:0:0:
63,56,85741,2,0,P|114:48|176:54,1,101.999996887207
256,192,86014,12,0,88560,0:0:0:0:
